  0
SECTION
  2
HEADER
  9
$ACADVER
  1
AC1032
  9
$ACADMAINTVER
 90
        4
  9
$DWGCODEPAGE
  3
ANSI_932
  9
$LASTSAVEDBY
  1
lexus
  9
$REQUIREDVERSIONS
160
                 0
  9
$INSBASE
 10
0.0
 20
0.0
 30
0.0
  9
$EXTMIN
 10
-519.9950680543081
 20
114.3691812436725
 30
0.0
  9
$EXTMAX
 10
-12.803873302017
 20
292.2588854928154
 30
0.0
  9
$LIMMIN
 10
0.0
 20
0.0
  9
$LIMMAX
 10
420.0
 20
297.0
  9
$ORTHOMODE
 70
     0
  9
$REGENMODE
 70
     1
  9
$FILLMODE
 70
     1
  9
$QTEXTMODE
 70
     0
  9
$MIRRTEXT
 70
     1
  9
$LTSCALE
 40
1.0
  9
$ATTMODE
 70
     1
  9
$TEXTSIZE
 40
2.5
  9
$TRACEWID
 40
1.0
  9
$TEXTSTYLE
  7
ＭＳ 明朝
  9
$CLAYER
  8
0
  9
$CELTYPE
  6
ByLayer
  9
$CECOLOR
 62
   256
  9
$CELTSCALE
 40
1.0
  9
$DISPSILH
 70
     0
  9
$DIMSCALE
 40
1.0
  9
$DIMASZ
 40
2.0
  9
$DIMEXO
 40
1.0
  9
$DIMDLI
 40
10.0
  9
$DIMRND
 40
0.0
  9
$DIMDLE
 40
6.0
  9
$DIMEXE
 40
1.0
  9
$DIMTP
 40
0.0
  9
$DIMTM
 40
0.0
  9
$DIMTXT
 40
4.0
  9
$DIMCEN
 40
2.5
  9
$DIMTSZ
 40
0.0
  9
$DIMTOL
 70
     0
  9
$DIMLIM
 70
     0
  9
$DIMTIH
 70
     0
  9
$DIMTOH
 70
     0
  9
$DIMSE1
 70
     0
  9
$DIMSE2
 70
     0
  9
$DIMTAD
 70
     1
  9
$DIMZIN
 70
     8
  9
$DIMBLK
  1

  9
$DIMASO
 70
     1
  9
$DIMSHO
 70
     1
  9
$DIMPOST
  1

  9
$DIMAPOST
  1

  9
$DIMALT
 70
     0
  9
$DIMALTD
 70
     3
  9
$DIMALTF
 40
0.03937
  9
$DIMLFAC
 40
1.0
  9
$DIMTOFL
 70
     1
  9
$DIMTVP
 40
0.0
  9
$DIMTIX
 70
     0
  9
$DIMSOXD
 70
     0
  9
$DIMSAH
 70
     1
  9
$DIMBLK1
  1
FXTIP_ARROW_S
  9
$DIMBLK2
  1
FXTIP_ARROW_E
  9
$DIMSTYLE
  2
FX_DIMINFO
  9
$DIMCLRD
 70
     0
  9
$DIMCLRE
 70
     0
  9
$DIMCLRT
 70
     0
  9
$DIMTFAC
 40
1.0
  9
$DIMGAP
 40
1.0
  9
$DIMJUST
 70
     0
  9
$DIMSD1
 70
     0
  9
$DIMSD2
 70
     0
  9
$DIMTOLJ
 70
     1
  9
$DIMTZIN
 70
     8
  9
$DIMALTZ
 70
     0
  9
$DIMALTTZ
 70
     0
  9
$DIMUPT
 70
     0
  9
$DIMDEC
 70
     2
  9
$DIMTDEC
 70
     2
  9
$DIMALTU
 70
     2
  9
$DIMALTTD
 70
     3
  9
$DIMTXSTY
  7
ＭＳ 明朝
  9
$DIMAUNIT
 70
     0
  9
$DIMADEC
 70
     2
  9
$DIMALTRND
 40
0.0
  9
$DIMAZIN
 70
     2
  9
$DIMDSEP
 70
    46
  9
$DIMATFIT
 70
     3
  9
$DIMFRAC
 70
     0
  9
$DIMLDRBLK
  1
FXTIP_ARROW_S
  9
$DIMLUNIT
 70
     2
  9
$DIMLWD
 70
    -2
  9
$DIMLWE
 70
    -2
  9
$DIMTMOVE
 70
     0
  9
$DIMFXL
 40
1.0
  9
$DIMFXLON
 70
     0
  9
$DIMJOGANG
 40
0.7853981633974483
  9
$DIMTFILL
 70
     0
  9
$DIMTFILLCLR
 70
     0
  9
$DIMARCSYM
 70
     0
  9
$DIMLTYPE
  6

  9
$DIMLTEX1
  6

  9
$DIMLTEX2
  6

  9
$DIMTXTDIRECTION
 70
     0
  9
$LUNITS
 70
     2
  9
$LUPREC
 70
     4
  9
$SKETCHINC
 40
1.0
  9
$FILLETRAD
 40
10.0
  9
$AUNITS
 70
     0
  9
$AUPREC
 70
     0
  9
$MENU
  1
.
  9
$ELEVATION
 40
0.0
  9
$PELEVATION
 40
0.0
  9
$THICKNESS
 40
0.0
  9
$LIMCHECK
 70
     0
  9
$CHAMFERA
 40
0.0
  9
$CHAMFERB
 40
0.0
  9
$CHAMFERC
 40
0.0
  9
$CHAMFERD
 40
0.0
  9
$SKPOLY
 70
     0
  9
$TDCREATE
 40
2458432.681650718
  9
$TDUCREATE
 40
2458432.306650718
  9
$TDUPDATE
 40
2459240.716225903
  9
$TDUUPDATE
 40
2459240.341225903
  9
$TDINDWG
 40
0.0015814583
  9
$TDUSRTIMER
 40
0.0000093171
  9
$USRTIMER
 70
     1
  9
$ANGBASE
 50
0.0
  9
$ANGDIR
 70
     0
  9
$PDMODE
 70
     0
  9
$PDSIZE
 40
0.0
  9
$PLINEWID
 40
0.0
  9
$SPLFRAME
 70
     0
  9
$SPLINETYPE
 70
     6
  9
$SPLINESEGS
 70
     8
  9
$HANDSEED
  5
9A8
  9
$SURFTAB1
 70
     6
  9
$SURFTAB2
 70
     6
  9
$SURFTYPE
 70
     6
  9
$SURFU
 70
     6
  9
$SURFV
 70
     6
  9
$UCSBASE
  2

  9
$UCSNAME
  2

  9
$UCSORG
 10
0.0
 20
0.0
 30
0.0
  9
$UCSXDIR
 10
1.0
 20
0.0
 30
0.0
  9
$UCSYDIR
 10
0.0
 20
1.0
 30
0.0
  9
$UCSORTHOREF
  2

  9
$UCSORTHOVIEW
 70
     0
  9
$UCSORGTOP
 10
0.0
 20
0.0
 30
0.0
  9
$UCSORGBOTTOM
 10
0.0
 20
0.0
 30
0.0
  9
$UCSORGLEFT
 10
0.0
 20
0.0
 30
0.0
  9
$UCSORGRIGHT
 10
0.0
 20
0.0
 30
0.0
  9
$UCSORGFRONT
 10
0.0
 20
0.0
 30
0.0
  9
$UCSORGBACK
 10
0.0
 20
0.0
 30
0.0
  9
$PUCSBASE
  2

  9
$PUCSNAME
  2

  9
$PUCSORG
 10
0.0
 20
0.0
 30
0.0
  9
$PUCSXDIR
 10
1.0
 20
0.0
 30
0.0
  9
$PUCSYDIR
 10
0.0
 20
1.0
 30
0.0
  9
$PUCSORTHOREF
  2

  9
$PUCSORTHOVIEW
 70
     0
  9
$PUCSORGTOP
 10
0.0
 20
0.0
 30
0.0
  9
$PUCSORGBOTTOM
 10
0.0
 20
0.0
 30
0.0
  9
$PUCSORGLEFT
 10
0.0
 20
0.0
 30
0.0
  9
$PUCSORGRIGHT
 10
0.0
 20
0.0
 30
0.0
  9
$PUCSORGFRONT
 10
0.0
 20
0.0
 30
0.0
  9
$PUCSORGBACK
 10
0.0
 20
0.0
 30
0.0
  9
$USERI1
 70
     0
  9
$USERI2
 70
     0
  9
$USERI3
 70
     0
  9
$USERI4
 70
     0
  9
$USERI5
 70
     0
  9
$USERR1
 40
0.0
  9
$USERR2
 40
0.0
  9
$USERR3
 40
0.0
  9
$USERR4
 40
0.0
  9
$USERR5
 40
0.0
  9
$WORLDVIEW
 70
     1
  9
$SHADEDGE
 70
     3
  9
$SHADEDIF
 70
    70
  9
$TILEMODE
 70
     1
  9
$MAXACTVP
 70
    64
  9
$PINSBASE
 10
0.0
 20
0.0
 30
0.0
  9
$PLIMCHECK
 70
     0
  9
$PEXTMIN
 10
1.000000000000000E+20
 20
1.000000000000000E+20
 30
1.000000000000000E+20
  9
$PEXTMAX
 10
-1.000000000000000E+20
 20
-1.000000000000000E+20
 30
-1.000000000000000E+20
  9
$PLIMMIN
 10
0.0
 20
0.0
  9
$PLIMMAX
 10
0.0
 20
0.0
  9
$UNITMODE
 70
     0
  9
$VISRETAIN
 70
     1
  9
$PLINEGEN
 70
     0
  9
$PSLTSCALE
 70
     1
  9
$TREEDEPTH
 70
  3020
  9
$CMLSTYLE
  2
Standard
  9
$CMLJUST
 70
     0
  9
$CMLSCALE
 40
20.0
  9
$PROXYGRAPHICS
 70
     1
  9
$MEASUREMENT
 70
     1
  9
$CELWEIGHT
370
    -1
  9
$ENDCAPS
280
     0
  9
$JOINSTYLE
280
     0
  9
$LWDISPLAY
290
     0
  9
$INSUNITS
 70
     4
  9
$HYPERLINKBASE
  1

  9
$STYLESHEET
  1

  9
$XEDIT
290
     1
  9
$CEPSNTYPE
380
     0
  9
$PSTYLEMODE
290
     1
  9
$FINGERPRINTGUID
  2
{9EB284CD-2832-4FB9-8985-3A71F59AC33E}
  9
$VERSIONGUID
  2
{FAEB1C32-E019-11D5-929B-00C0DF256EC4}
  9
$EXTNAMES
290
     1
  9
$PSVPSCALE
 40
0.0
  9
$OLESTARTUP
290
     0
  9
$SORTENTS
280
   127
  9
$INDEXCTL
280
     0
  9
$HIDETEXT
280
     1
  9
$XCLIPFRAME
280
     2
  9
$HALOGAP
280
     0
  9
$OBSCOLOR
 70
   257
  9
$OBSLTYPE
280
     0
  9
$INTERSECTIONDISPLAY
280
     0
  9
$INTERSECTIONCOLOR
 70
   257
  9
$DIMASSOC
280
     2
  9
$PROJECTNAME
  1

  9
$CAMERADISPLAY
290
     0
  9
$LENSLENGTH
 40
50.0
  9
$CAMERAHEIGHT
 40
0.0
  9
$STEPSPERSEC
 40
2.0
  9
$STEPSIZE
 40
6.0
  9
$3DDWFPREC
 40
2.0
  9
$PSOLWIDTH
 40
5.0
  9
$PSOLHEIGHT
 40
80.0
  9
$LOFTANG1
 40
1.570796326794897
  9
$LOFTANG2
 40
1.570796326794897
  9
$LOFTMAG1
 40
0.0
  9
$LOFTMAG2
 40
0.0
  9
$LOFTPARAM
 70
     7
  9
$LOFTNORMALS
280
     1
  9
$LATITUDE
 40
37.795
  9
$LONGITUDE
 40
-122.394
  9
$NORTHDIRECTION
 40
0.0
  9
$TIMEZONE
 70
 -8000
  9
$LIGHTGLYPHDISPLAY
280
     1
  9
$TILEMODELIGHTSYNCH
280
     1
  9
$SOLIDHIST
280
     0
  9
$SHOWHIST
280
     1
  9
$DWFFRAME
280
     2
  9
$DGNFRAME
280
     2
  9
$REALWORLDSCALE
290
     1
  9
$INTERFERECOLOR
 62
   256
  9
$CSHADOW
280
     0
  9
$SHADOWPLANELOCATION
 40
0.0
  0
ENDSEC
  0
SECTION
  2
CLASSES
  0
CLASS
  1
ACDBDICTIONARYWDFLT
  2
AcDbDictionaryWithDefault
  3
ObjectDBX Classes
 90
        0
 91
        3
280
     0
281
     0
  0
CLASS
  1
VISUALSTYLE
  2
AcDbVisualStyle
  3
ObjectDBX Classes
 90
     4095
 91
        3
280
     0
281
     0
  0
CLASS
  1
MATERIAL
  2
AcDbMaterial
  3
ObjectDBX Classes
 90
     1153
 91
        3
280
     0
281
     0
  0
CLASS
  1
SCALE
  2
AcDbScale
  3
ObjectDBX Classes
 90
     1153
 91
        3
280
     0
281
     0
  0
CLASS
  1
TABLESTYLE
  2
AcDbTableStyle
  3
ObjectDBX Classes
 90
     4095
 91
        3
280
     0
281
     0
  0
CLASS
  1
MLEADERSTYLE
  2
AcDbMLeaderStyle
  3
ACDB_MLEADERSTYLE_CLASS
 90
     4095
 91
        3
280
     0
281
     0
  0
CLASS
  1
SUN
  2
AcDbSun
  3
SCENEOE
 90
     1153
 91
        3
280
     0
281
     0
  0
CLASS
  1
DICTIONARYVAR
  2
AcDbDictionaryVar
  3
ObjectDBX Classes
 90
        0
 91
        3
280
     0
281
     0
  0
CLASS
  1
ACDBPLACEHOLDER
  2
AcDbPlaceHolder
  3
ObjectDBX Classes
 90
        0
 91
        1
280
     0
281
     0
  0
CLASS
  1
LAYOUT
  2
AcDbLayout
  3
ObjectDBX Classes
 90
        0
 91
        1
280
     0
281
     0
  0
CLASS
  1
DIMASSOC
  2
AcDbDimAssoc
  3
"AcDbDimAssoc|Product Desc:     AcDim ARX App For Dimension|Company:          Autodesk, Inc.|WEB Address:      www.autodesk.com"
 90
        0
 91
        3
280
     0
281
     0
  0
CLASS
  1
CELLSTYLEMAP
  2
AcDbCellStyleMap
  3
ObjectDBX Classes
 90
     1152
 91
        3
280
     0
281
     0
  0
ENDSEC
  0
SECTION
  2
TABLES
  0
TABLE
  2
VPORT
  5
8
330
0
100
AcDbSymbolTable
 70
     1
  0
VPORT
  5
29
330
8
100
AcDbSymbolTableRecord
100
AcDbViewportTableRecord
  2
*Active
 70
     0
 10
0.0
 20
0.0
 11
1.0
 21
1.0
 12
260.8644147992399
 22
-64.76666571629767
 13
0.0
 23
0.0
 14
10.0
 24
10.0
 15
10.0
 25
10.0
 16
0.0
 26
0.0
 36
1.0
 17
0.0
 27
0.0
 37
0.0
 40
2212.822437286349
 41
1.414141414141418
 42
50.0
 43
0.0
 44
0.0
 50
0.0
 51
0.0
 71
    16
 72
   100
 73
     1
 74
     3
 75
     0
 76
     0
 77
     0
 78
     0
281
     0
 65
     1
110
0.0
120
0.0
130
0.0
111
1.0
121
0.0
131
0.0
112
0.0
122
1.0
132
0.0
 79
     0
146
0.0
348
2F
 60
     3
 61
     5
292
     1
282
     1
141
0.0
142
0.0
 63
   256
361
9A0
  0
ENDTAB
  0
TABLE
  2
LTYPE
  5
5
330
0
100
AcDbSymbolTable
 70
     3
  0
LTYPE
  5
14
330
5
100
AcDbSymbolTableRecord
100
AcDbLinetypeTableRecord
  2
ByBlock
 70
     0
  3

 72
    65
 73
     0
 40
0.0
  0
LTYPE
  5
15
330
5
100
AcDbSymbolTableRecord
100
AcDbLinetypeTableRecord
  2
ByLayer
 70
     0
  3

 72
    65
 73
     0
 40
0.0
  0
LTYPE
  5
16
330
5
100
AcDbSymbolTableRecord
100
AcDbLinetypeTableRecord
  2
Continuous
 70
     0
  3
Continuous ___________________________________
 72
    65
 73
     0
 40
0.0
  0
LTYPE
  5
6E
330
5
100
AcDbSymbolTableRecord
100
AcDbLinetypeTableRecord
  2
DASHDOT
 70
     0
  3
Dash dot __ . __ . __ . __ . __ . __ . __ . __
 72
    65
 73
     4
 40
13.0
 49
10.0
 74
     0
 49
-1.0
 74
     0
 49
1.0
 74
     0
 49
-1.0
 74
     0
  0
LTYPE
  5
71
330
5
100
AcDbSymbolTableRecord
100
AcDbLinetypeTableRecord
  2
DASHED
 70
     0
  3
Dashed __ __ __ __ __ __ __ __ __ __ __ __ __ _
 72
    65
 73
     2
 40
4.0
 49
3.0
 74
     0
 49
-1.0
 74
     0
  0
ENDTAB
  0
TABLE
  2
LAYER
  5
2
330
0
100
AcDbSymbolTable
 70
     3
  0
LAYER
  5
10
330
2
100
AcDbSymbolTableRecord
100
AcDbLayerTableRecord
  2
0
 70
     0
 62
     7
  6
Continuous
370
    -3
390
F
347
46
348
0
  0
LAYER
  5
E0
330
2
100
AcDbSymbolTableRecord
100
AcDbLayerTableRecord
  2
Defpoints
 70
     0
 62
     7
  6
Continuous
290
     0
370
    -3
390
F
347
46
348
0
  0
LAYER
  5
E2
330
2
100
AcDbSymbolTableRecord
100
AcDbLayerTableRecord
  2
作図レイヤ
 70
     0
 62
     7
  6
Continuous
370
    -3
390
F
347
46
348
0
  0
ENDTAB
  0
TABLE
  2
STYLE
  5
3
330
0
100
AcDbSymbolTable
 70
     4
  0
STYLE
  5
11
330
3
100
AcDbSymbolTableRecord
100
AcDbTextStyleTableRecord
  2
Standard
 70
     0
 40
0.0
 41
1.0
 50
0.0
 71
     0
 42
2.5
  3
txt
  4

  0
STYLE
  5
74
330
3
100
AcDbSymbolTableRecord
100
AcDbTextStyleTableRecord
  2
FX_VECTOR
 70
     0
 40
0.0
 41
1.0
 50
0.0
 71
     0
 42
2.5
  3
MONOTXT.SHX
  4
BigFont.shx
  0
STYLE
  5
DF
330
3
100
AcDbSymbolTableRecord
100
AcDbTextStyleTableRecord
  2
ＭＳ 明朝
 70
     0
 40
0.0
 41
1.0
 50
0.0
 71
     0
 42
2.5
  3

  4

1001
ACAD
1000
ＭＳ 明朝
1071
    32785
  0
STYLE
  5
E1
330
3
100
AcDbSymbolTableRecord
100
AcDbTextStyleTableRecord
  2
DEFAULT
 70
     0
 40
0.0
 41
1.0
 50
0.0
 71
     0
 42
2.5
  3

  4

1001
ACAD
1000
ＭＳ ゴシック
1071
    32817
  0
ENDTAB
  0
TABLE
  2
VIEW
  5
6
330
0
100
AcDbSymbolTable
 70
     0
  0
ENDTAB
  0
TABLE
  2
UCS
  5
7
330
0
100
AcDbSymbolTable
 70
     0
  0
ENDTAB
  0
TABLE
  2
APPID
  5
9
330
0
100
AcDbSymbolTable
 70
     3
  0
APPID
  5
12
330
9
100
AcDbSymbolTableRecord
100
AcDbRegAppTableRecord
  2
ACAD
 70
     0
  0
APPID
  5
59A
330
9
100
AcDbSymbolTableRecord
100
AcDbRegAppTableRecord
  2
ACAD_MLEADERVER
 70
     0
  0
APPID
  5
9A4
330
9
100
AcDbSymbolTableRecord
100
AcDbRegAppTableRecord
  2
PLOTTRANSPARENCY
 70
     0
  0
ENDTAB
  0
TABLE
  2
DIMSTYLE
  5
A
330
0
100
AcDbSymbolTable
 70
     2
100
AcDbDimStyleTable
  0
DIMSTYLE
105
27
330
A
100
AcDbSymbolTableRecord
100
AcDbDimStyleTableRecord
  2
ISO-25
 70
     0
 41
2.5
 42
0.625
 43
3.75
 44
1.25
 73
     0
 74
     0
 77
     1
 78
     8
140
2.5
141
2.5
143
0.03937007874016
147
0.625
171
     3
172
     1
178
     0
271
     2
272
     2
274
     3
278
    44
283
     0
284
     8
340
11
  0
DIMSTYLE
105
DE
102
{ACAD_REACTORS
330
8DF
330
8EE
330
8FD
330
90C
330
91B
330
973
330
974
102
}
330
A
100
AcDbSymbolTableRecord
100
AcDbDimStyleTableRecord
  2
FX_DIMINFO
 70
     0
 41
2.0
 42
1.0
 43
10.0
 44
1.0
 46
6.0
 73
     0
 74
     0
 77
     1
 78
     8
 79
     2
140
4.0
141
2.5
143
0.03937
147
1.0
171
     3
172
     1
173
     1
178
     0
179
     2
271
     2
272
     2
274
     3
284
     8
340
DF
341
78
343
78
344
7E
  0
ENDTAB
  0
TABLE
  2
BLOCK_RECORD
  5
1
330
0
100
AcDbSymbolTable
 70
    49
  0
BLOCK_RECORD
  5
1F
330
1
100
AcDbSymbolTableRecord
100
AcDbBlockTableRecord
  2
*Model_Space
340
22
 70
     0
280
     1
281
     0
  0
BLOCK_RECORD
  5
1B
330
1
100
AcDbSymbolTableRecord
100
AcDbBlockTableRecord
  2
*Paper_Space
340
1E
 70
     0
280
     1
281
     0
  0
BLOCK_RECORD
  5
23
330
1
100
AcDbSymbolTableRecord
100
AcDbBlockTableRecord
  2
*Paper_Space0
340
26
 70
     0
280
     1
281
     0
  0
BLOCK_RECORD
  5
75
330
1
100
AcDbSymbolTableRecord
100
AcDbBlockTableRecord
  2
FXTIP_NONE
340
0
 70
     0
280
     1
281
     0
  0
BLOCK_RECORD
  5
78
330
1
100
AcDbSymbolTableRecord
100
AcDbBlockTableRecord
  2
FXTIP_ARROW_S
340
0
102
{BLKREFS
331
1D0
331
2EF
331
368
331
371
331
37B
331
385
331
392
331
39D
331
3A5
331
3AF
331
3BA
331
3C6
331
40A
331
414
331
41C
331
424
331
8AC
331
8B8
331
8C4
331
8E8
331
8F7
331
906
331
915
331
924
331
980
331
98B
331
8D5
331
8DB
102
}
 70
     0
280
     1
281
     0
  0
BLOCK_RECORD
  5
7E
330
1
100
AcDbSymbolTableRecord
100
AcDbBlockTableRecord
  2
FXTIP_ARROW_E
340
0
102
{BLKREFS
331
369
331
372
331
37C
331
386
331
393
331
39E
331
3B0
331
3BB
331
3C7
331
40B
331
8AD
331
8B9
331
8C5
331
8E9
331
8F8
331
907
331
916
331
925
331
981
331
98C
331
8D6
331
8DC
102
}
 70
     0
280
     1
281
     0
  0
BLOCK_RECORD
  5
84
330
1
100
AcDbSymbolTableRecord
100
AcDbBlockTableRecord
  2
FXTIP_BLACKDOT_S
340
0
 70
     0
280
     1
281
     0
  0
BLOCK_RECORD
  5
8A
330
1
100
AcDbSymbolTableRecord
100
AcDbBlockTableRecord
  2
FXTIP_BLACKDOT_E
340
0
 70
     0
280
     1
281
     0
  0
BLOCK_RECORD
  5
90
330
1
100
AcDbSymbolTableRecord
100
AcDbBlockTableRecord
  2
FXTIP_TRIANGLE_S
340
0
 70
     0
280
     1
281
     0
  0
BLOCK_RECORD
  5
97
330
1
100
AcDbSymbolTableRecord
100
AcDbBlockTableRecord
  2
FXTIP_TRIANGLE_E
340
0
 70
     0
280
     1
281
     0
  0
BLOCK_RECORD
  5
9E
330
1
100
AcDbSymbolTableRecord
100
AcDbBlockTableRecord
  2
FXTIP_ARCHITECT_S
340
0
 70
     0
280
     1
281
     0
  0
BLOCK_RECORD
  5
A4
330
1
100
AcDbSymbolTableRecord
100
AcDbBlockTableRecord
  2
FXTIP_ARCHITECT_E
340
0
 70
     0
280
     1
281
     0
  0
BLOCK_RECORD
  5
AA
330
1
100
AcDbSymbolTableRecord
100
AcDbBlockTableRecord
  2
FXTIP_CIVIL_S
340
0
 70
     0
280
     1
281
     0
  0
BLOCK_RECORD
  5
B0
330
1
100
AcDbSymbolTableRecord
100
AcDbBlockTableRecord
  2
FXTIP_CIVIL_E
340
0
 70
     0
280
     1
281
     0
  0
BLOCK_RECORD
  5
B6
330
1
100
AcDbSymbolTableRecord
100
AcDbBlockTableRecord
  2
FXTIP_WHITEDOT_S
340
0
 70
     0
280
     1
281
     0
  0
BLOCK_RECORD
  5
BB
330
1
100
AcDbSymbolTableRecord
100
AcDbBlockTableRecord
  2
FXTIP_WHITEDOT_E
340
0
 70
     0
280
     1
281
     0
  0
BLOCK_RECORD
  5
C0
330
1
100
AcDbSymbolTableRecord
100
AcDbBlockTableRecord
  2
FXTIP_UPARROW_S
340
0
 70
     0
280
     1
281
     0
  0
BLOCK_RECORD
  5
C5
330
1
100
AcDbSymbolTableRecord
100
AcDbBlockTableRecord
  2
FXTIP_UPARROW_E
340
0
 70
     0
280
     1
281
     0
  0
BLOCK_RECORD
  5
CA
330
1
100
AcDbSymbolTableRecord
100
AcDbBlockTableRecord
  2
FXTIP_DOWNARROW_S
340
0
 70
     0
280
     1
281
     0
  0
BLOCK_RECORD
  5
CF
330
1
100
AcDbSymbolTableRecord
100
AcDbBlockTableRecord
  2
FXTIP_DOWNARROW_E
340
0
 70
     0
280
     1
281
     0
  0
BLOCK_RECORD
  5
D4
330
1
100
AcDbSymbolTableRecord
100
AcDbBlockTableRecord
  2
FXTIP_BLACKTRIANGLE_S
340
0
 70
     0
280
     1
281
     0
  0
BLOCK_RECORD
  5
D9
330
1
100
AcDbSymbolTableRecord
100
AcDbBlockTableRecord
  2
FXTIP_BLACKTRIANGLE_E
340
0
 70
     0
280
     1
281
     0
  0
BLOCK_RECORD
  5
1CB
330
1
100
AcDbSymbolTableRecord
100
AcDbBlockTableRecord
  2
FXDIM023
340
0
102
{BLKREFS
331
0
102
}
 70
     0
280
     1
281
     0
  0
BLOCK_RECORD
  5
2BF
330
1
100
AcDbSymbolTableRecord
100
AcDbBlockTableRecord
  2
BLKF024
340
0
102
{BLKREFS
331
0
102
}
 70
     0
280
     1
281
     0
  0
BLOCK_RECORD
  5
2EA
330
1
100
AcDbSymbolTableRecord
100
AcDbBlockTableRecord
  2
FXDIM025
340
0
102
{BLKREFS
331
0
102
}
 70
     0
280
     1
281
     0
  0
BLOCK_RECORD
  5
326
330
1
100
AcDbSymbolTableRecord
100
AcDbBlockTableRecord
  2
BLKF026
340
0
102
{BLKREFS
331
0
331
728
102
}
 70
     0
280
     1
281
     0
  0
BLOCK_RECORD
  5
33B
330
1
100
AcDbSymbolTableRecord
100
AcDbBlockTableRecord
  2
BLKF027
340
0
102
{BLKREFS
331
0
331
729
102
}
 70
     0
280
     1
281
     0
  0
BLOCK_RECORD
  5
362
330
1
100
AcDbSymbolTableRecord
100
AcDbBlockTableRecord
  2
*D25
340
0
 70
     0
280
     1
281
     0
  0
BLOCK_RECORD
  5
36B
330
1
100
AcDbSymbolTableRecord
100
AcDbBlockTableRecord
  2
*D26
340
0
 70
     0
280
     1
281
     0
  0
BLOCK_RECORD
  5
375
330
1
100
AcDbSymbolTableRecord
100
AcDbBlockTableRecord
  2
*D27
340
0
 70
     0
280
     1
281
     0
  0
BLOCK_RECORD
  5
37F
330
1
100
AcDbSymbolTableRecord
100
AcDbBlockTableRecord
  2
*D28
340
0
 70
     0
280
     1
281
     0
  0
BLOCK_RECORD
  5
38B
330
1
100
AcDbSymbolTableRecord
100
AcDbBlockTableRecord
  2
*D29
340
0
 70
     0
280
     1
281
     0
  0
BLOCK_RECORD
  5
396
330
1
100
AcDbSymbolTableRecord
100
AcDbBlockTableRecord
  2
*D30
340
0
 70
     0
280
     1
281
     0
  0
BLOCK_RECORD
  5
3A0
330
1
100
AcDbSymbolTableRecord
100
AcDbBlockTableRecord
  2
FXDIM034
340
0
102
{BLKREFS
331
0
331
975
102
}
 70
     0
280
     1
281
     0
  0
BLOCK_RECORD
  5
3A9
330
1
100
AcDbSymbolTableRecord
100
AcDbBlockTableRecord
  2
*D32
340
0
 70
     0
280
     1
281
     0
  0
BLOCK_RECORD
  5
3B4
330
1
100
AcDbSymbolTableRecord
100
AcDbBlockTableRecord
  2
*D33
340
0
 70
     0
280
     1
281
     0
  0
BLOCK_RECORD
  5
3C0
330
1
100
AcDbSymbolTableRecord
100
AcDbBlockTableRecord
  2
*D34
340
0
 70
     0
280
     1
281
     0
  0
BLOCK_RECORD
  5
404
330
1
100
AcDbSymbolTableRecord
100
AcDbBlockTableRecord
  2
*D35
340
0
 70
     0
280
     1
281
     0
  0
BLOCK_RECORD
  5
40F
330
1
100
AcDbSymbolTableRecord
100
AcDbBlockTableRecord
  2
FXDIM039
340
0
102
{BLKREFS
331
0
102
}
 70
     0
280
     1
281
     0
  0
BLOCK_RECORD
  5
417
330
1
100
AcDbSymbolTableRecord
100
AcDbBlockTableRecord
  2
FXDIM040
340
0
102
{BLKREFS
331
0
102
}
 70
     0
280
     1
281
     0
  0
BLOCK_RECORD
  5
41F
330
1
100
AcDbSymbolTableRecord
100
AcDbBlockTableRecord
  2
FXDIM041
340
0
102
{BLKREFS
331
0
102
}
 70
     0
280
     1
281
     0
  0
BLOCK_RECORD
  5
8A6
330
1
100
AcDbSymbolTableRecord
100
AcDbBlockTableRecord
  2
*D39
340
0
 70
     0
280
     1
281
     0
  0
BLOCK_RECORD
  5
8B2
330
1
100
AcDbSymbolTableRecord
100
AcDbBlockTableRecord
  2
*D40
340
0
 70
     0
280
     1
281
     0
  0
BLOCK_RECORD
  5
8BE
330
1
100
AcDbSymbolTableRecord
100
AcDbBlockTableRecord
  2
*D41
340
0
 70
     0
280
     1
281
     0
  0
BLOCK_RECORD
  5
8E2
330
1
100
AcDbSymbolTableRecord
100
AcDbBlockTableRecord
  2
*D42
340
0
 70
     0
280
     1
281
     0
  0
BLOCK_RECORD
  5
8F1
330
1
100
AcDbSymbolTableRecord
100
AcDbBlockTableRecord
  2
*D43
340
0
 70
     0
280
     1
281
     0
  0
BLOCK_RECORD
  5
900
330
1
100
AcDbSymbolTableRecord
100
AcDbBlockTableRecord
  2
*D44
340
0
 70
     0
280
     1
281
     0
  0
BLOCK_RECORD
  5
90F
330
1
100
AcDbSymbolTableRecord
100
AcDbBlockTableRecord
  2
*D45
340
0
 70
     0
280
     1
281
     0
  0
BLOCK_RECORD
  5
91E
330
1
100
AcDbSymbolTableRecord
100
AcDbBlockTableRecord
  2
*D46
340
0
 70
     0
280
     1
281
     0
  0
BLOCK_RECORD
  5
979
330
1
100
AcDbSymbolTableRecord
100
AcDbBlockTableRecord
  2
*D47
340
0
 70
     0
280
     1
281
     0
  0
BLOCK_RECORD
  5
984
330
1
100
AcDbSymbolTableRecord
100
AcDbBlockTableRecord
  2
*D48
340
0
 70
     0
280
     1
281
     0
  0
ENDTAB
  0
ENDSEC
  0
SECTION
  2
BLOCKS
  0
BLOCK
  5
20
330
1F
100
AcDbEntity
  8
0
100
AcDbBlockBegin
  2
*Model_Space
 70
     0
 10
0.0
 20
0.0
 30
0.0
  3
*Model_Space
  1

  0
ENDBLK
  5
21
330
1F
100
AcDbEntity
  8
0
100
AcDbBlockEnd
  0
BLOCK
  5
1C
330
1B
100
AcDbEntity
 67
     1
  8
0
100
AcDbBlockBegin
  2
*Paper_Space
 70
     0
 10
0.0
 20
0.0
 30
0.0
  3
*Paper_Space
  1

  0
ENDBLK
  5
1D
330
1B
100
AcDbEntity
 67
     1
  8
0
100
AcDbBlockEnd
  0
BLOCK
  5
24
330
23
100
AcDbEntity
  8
0
100
AcDbBlockBegin
  2
*Paper_Space0
 70
     0
 10
0.0
 20
0.0
 30
0.0
  3
*Paper_Space0
  1

  0
ENDBLK
  5
25
330
23
100
AcDbEntity
  8
0
100
AcDbBlockEnd
  0
BLOCK
  5
76
330
75
100
AcDbEntity
  8
0
100
AcDbBlockBegin
  2
FXTIP_NONE
 70
     0
 10
0.0
 20
0.0
 30
0.0
  3
FXTIP_NONE
  1

  0
ENDBLK
  5
77
330
75
100
AcDbEntity
  8
0
100
AcDbBlockEnd
  0
BLOCK
  5
79
330
78
100
AcDbEntity
  8
0
100
AcDbBlockBegin
  2
FXTIP_ARROW_S
 70
     0
 10
0.0
 20
0.0
 30
0.0
  3
FXTIP_ARROW_S
  1

  0
LINE
  5
7B
330
78
100
AcDbEntity
  8
0
  6
Continuous
 62
     0
370
    -2
100
AcDbLine
 10
0.0
 20
0.0
 30
0.0
 11
-1.0
 21
0.0000000000000001
 31
0.0
  0
LINE
  5
7C
330
78
100
AcDbEntity
  8
0
  6
Continuous
 62
     0
370
    -2
100
AcDbLine
 10
0.0
 20
0.0
 30
0.0
 11
-0.9659258262890683
 21
-0.2588190451025206
 31
0.0
  0
LINE
  5
7D
330
78
100
AcDbEntity
  8
0
  6
Continuous
 62
     0
370
    -2
100
AcDbLine
 10
0.0
 20
0.0
 30
0.0
 11
-0.9659258262890683
 21
0.2588190451025209
 31
0.0
  0
ENDBLK
  5
7A
330
78
100
AcDbEntity
  8
0
100
AcDbBlockEnd
  0
BLOCK
  5
7F
330
7E
100
AcDbEntity
  8
0
100
AcDbBlockBegin
  2
FXTIP_ARROW_E
 70
     0
 10
0.0
 20
0.0
 30
0.0
  3
FXTIP_ARROW_E
  1

  0
LINE
  5
81
330
7E
100
AcDbEntity
  8
0
  6
Continuous
 62
     0
370
    -2
100
AcDbLine
 10
0.0
 20
0.0
 30
0.0
 11
-1.0
 21
0.0
 31
0.0
  0
LINE
  5
82
330
7E
100
AcDbEntity
  8
0
  6
Continuous
 62
     0
370
    -2
100
AcDbLine
 10
0.0
 20
0.0
 30
0.0
 11
-0.9659258262890683
 21
0.2588190451025207
 31
0.0
  0
LINE
  5
83
330
7E
100
AcDbEntity
  8
0
  6
Continuous
 62
     0
370
    -2
100
AcDbLine
 10
0.0
 20
0.0
 30
0.0
 11
-0.9659258262890683
 21
-0.2588190451025207
 31
0.0
  0
ENDBLK
  5
80
330
7E
100
AcDbEntity
  8
0
100
AcDbBlockEnd
  0
BLOCK
  5
85
330
84
100
AcDbEntity
  8
0
100
AcDbBlockBegin
  2
FXTIP_BLACKDOT_S
 70
     0
 10
0.0
 20
0.0
 30
0.0
  3
FXTIP_BLACKDOT_S
  1

  0
LINE
  5
87
330
84
100
AcDbEntity
  8
0
  6
Continuous
 62
     0
370
    -2
100
AcDbLine
 10
0.0
 20
0.0
 30
0.0
 11
-1.0
 21
0.0000000000000001
 31
0.0
  0
LWPOLYLINE
  5
88
330
84
100
AcDbEntity
  8
0
  6
Continuous
 62
     0
370
    -2
100
AcDbPolyline
 90
        2
 70
     1
 43
0.25
 10
-0.125
 20
0.0
 42
1.0
 10
0.125
 20
0.0
 42
1.0
  0
CIRCLE
  5
89
330
84
100
AcDbEntity
  8
0
  6
Continuous
 62
     0
370
    -2
100
AcDbCircle
 10
0.0
 20
0.0
 30
0.0
 40
0.25
  0
ENDBLK
  5
86
330
84
100
AcDbEntity
  8
0
100
AcDbBlockEnd
  0
BLOCK
  5
8B
330
8A
100
AcDbEntity
  8
0
100
AcDbBlockBegin
  2
FXTIP_BLACKDOT_E
 70
     0
 10
0.0
 20
0.0
 30
0.0
  3
FXTIP_BLACKDOT_E
  1

  0
LINE
  5
8D
330
8A
100
AcDbEntity
  8
0
  6
Continuous
 62
     0
370
    -2
100
AcDbLine
 10
0.0
 20
0.0
 30
0.0
 11
-1.0
 21
0.0
 31
0.0
  0
LWPOLYLINE
  5
8E
330
8A
100
AcDbEntity
  8
0
  6
Continuous
 62
     0
370
    -2
100
AcDbPolyline
 90
        2
 70
     1
 43
0.25
 10
-0.125
 20
0.0
 42
1.0
 10
0.125
 20
0.0
 42
1.0
  0
CIRCLE
  5
8F
330
8A
100
AcDbEntity
  8
0
  6
Continuous
 62
     0
370
    -2
100
AcDbCircle
 10
0.0
 20
0.0
 30
0.0
 40
0.25
  0
ENDBLK
  5
8C
330
8A
100
AcDbEntity
  8
0
100
AcDbBlockEnd
  0
BLOCK
  5
91
330
90
100
AcDbEntity
  8
0
100
AcDbBlockBegin
  2
FXTIP_TRIANGLE_S
 70
     0
 10
0.0
 20
0.0
 30
0.0
  3
FXTIP_TRIANGLE_S
  1

  0
LINE
  5
93
330
90
100
AcDbEntity
  8
0
  6
Continuous
 62
     0
370
    -2
100
AcDbLine
 10
0.0
 20
0.0
 30
0.0
 11
-1.0
 21
0.0000000000000001
 31
0.0
  0
LINE
  5
94
330
90
100
AcDbEntity
  8
0
  6
Continuous
 62
     0
370
    -2
100
AcDbLine
 10
0.0
 20
0.0
 30
0.0
 11
-0.9659258262890683
 21
-0.2588190451025206
 31
0.0
  0
LINE
  5
95
330
90
100
AcDbEntity
  8
0
  6
Continuous
 62
     0
370
    -2
100
AcDbLine
 10
0.0
 20
0.0
 30
0.0
 11
-0.9659258262890683
 21
0.2588190451025209
 31
0.0
  0
LINE
  5
96
330
90
100
AcDbEntity
  8
0
  6
Continuous
 62
     0
370
    -2
100
AcDbLine
 10
-0.9659258262890683
 20
-0.2588190451025206
 30
0.0
 11
-0.9659258262890683
 21
0.2588190451025209
 31
0.0
  0
ENDBLK
  5
92
330
90
100
AcDbEntity
  8
0
100
AcDbBlockEnd
  0
BLOCK
  5
98
330
97
100
AcDbEntity
  8
0
100
AcDbBlockBegin
  2
FXTIP_TRIANGLE_E
 70
     0
 10
0.0
 20
0.0
 30
0.0
  3
FXTIP_TRIANGLE_E
  1

  0
LINE
  5
9A
330
97
100
AcDbEntity
  8
0
  6
Continuous
 62
     0
370
    -2
100
AcDbLine
 10
0.0
 20
0.0
 30
0.0
 11
-1.0
 21
0.0
 31
0.0
  0
LINE
  5
9B
330
97
100
AcDbEntity
  8
0
  6
Continuous
 62
     0
370
    -2
100
AcDbLine
 10
0.0
 20
0.0
 30
0.0
 11
-0.9659258262890683
 21
0.2588190451025207
 31
0.0
  0
LINE
  5
9C
330
97
100
AcDbEntity
  8
0
  6
Continuous
 62
     0
370
    -2
100
AcDbLine
 10
0.0
 20
0.0
 30
0.0
 11
-0.9659258262890683
 21
-0.2588190451025207
 31
0.0
  0
LINE
  5
9D
330
97
100
AcDbEntity
  8
0
  6
Continuous
 62
     0
370
    -2
100
AcDbLine
 10
-0.9659258262890683
 20
0.2588190451025207
 30
0.0
 11
-0.9659258262890683
 21
-0.2588190451025207
 31
0.0
  0
ENDBLK
  5
99
330
97
100
AcDbEntity
  8
0
100
AcDbBlockEnd
  0
BLOCK
  5
9F
330
9E
100
AcDbEntity
  8
0
100
AcDbBlockBegin
  2
FXTIP_ARCHITECT_S
 70
     0
 10
0.0
 20
0.0
 30
0.0
  3
FXTIP_ARCHITECT_S
  1

  0
LINE
  5
A1
330
9E
100
AcDbEntity
  8
0
  6
Continuous
 62
     0
370
    -2
100
AcDbLine
 10
0.0
 20
0.0
 30
0.0
 11
-1.0
 21
0.0000000000000001
 31
0.0
  0
LINE
  5
A2
330
9E
100
AcDbEntity
  8
0
  6
Continuous
 62
     0
370
    -2
100
AcDbLine
 10
0.0
 20
0.0
 30
0.0
 11
-0.7071067811865476
 21
-0.7071067811865474
 31
0.0
  0
LINE
  5
A3
330
9E
100
AcDbEntity
  8
0
  6
Continuous
 62
     0
370
    -2
100
AcDbLine
 10
0.0
 20
0.0
 30
0.0
 11
0.7071067811865476
 21
0.7071067811865474
 31
0.0
  0
ENDBLK
  5
A0
330
9E
100
AcDbEntity
  8
0
100
AcDbBlockEnd
  0
BLOCK
  5
A5
330
A4
100
AcDbEntity
  8
0
100
AcDbBlockBegin
  2
FXTIP_ARCHITECT_E
 70
     0
 10
0.0
 20
0.0
 30
0.0
  3
FXTIP_ARCHITECT_E
  1

  0
LINE
  5
A7
330
A4
100
AcDbEntity
  8
0
  6
Continuous
 62
     0
370
    -2
100
AcDbLine
 10
0.0
 20
0.0
 30
0.0
 11
-1.0
 21
0.0
 31
0.0
  0
LINE
  5
A8
330
A4
100
AcDbEntity
  8
0
  6
Continuous
 62
     0
370
    -2
100
AcDbLine
 10
0.0
 20
0.0
 30
0.0
 11
0.7071067811865475
 21
0.7071067811865475
 31
0.0
  0
LINE
  5
A9
330
A4
100
AcDbEntity
  8
0
  6
Continuous
 62
     0
370
    -2
100
AcDbLine
 10
0.0
 20
0.0
 30
0.0
 11
-0.7071067811865475
 21
-0.7071067811865475
 31
0.0
  0
ENDBLK
  5
A6
330
A4
100
AcDbEntity
  8
0
100
AcDbBlockEnd
  0
BLOCK
  5
AB
330
AA
100
AcDbEntity
  8
0
100
AcDbBlockBegin
  2
FXTIP_CIVIL_S
 70
     0
 10
0.0
 20
0.0
 30
0.0
  3
FXTIP_CIVIL_S
  1

  0
LINE
  5
AD
330
AA
100
AcDbEntity
  8
0
  6
Continuous
 62
     0
370
    -2
100
AcDbLine
 10
0.0
 20
0.0
 30
0.0
 11
-1.0
 21
0.0000000000000002
 31
0.0
  0
LINE
  5
AE
330
AA
100
AcDbEntity
  8
0
  6
Continuous
 62
     0
370
    -2
100
AcDbLine
 10
0.0
 20
-0.125
 30
0.0
 11
-1.0
 21
-0.1249999999999998
 31
0.0
  0
LINE
  5
AF
330
AA
100
AcDbEntity
  8
0
  6
Continuous
 62
     0
370
    -2
100
AcDbLine
 10
0.0
 20
-0.25
 30
0.0
 11
-1.0
 21
-0.2499999999999999
 31
0.0
  0
ENDBLK
  5
AC
330
AA
100
AcDbEntity
  8
0
100
AcDbBlockEnd
  0
BLOCK
  5
B1
330
B0
100
AcDbEntity
  8
0
100
AcDbBlockBegin
  2
FXTIP_CIVIL_E
 70
     0
 10
0.0
 20
0.0
 30
0.0
  3
FXTIP_CIVIL_E
  1

  0
LINE
  5
B3
330
B0
100
AcDbEntity
  8
0
  6
Continuous
 62
     0
370
    -2
100
AcDbLine
 10
0.0
 20
0.0
 30
0.0
 11
-1.0
 21
0.0
 31
0.0
  0
LINE
  5
B4
330
B0
100
AcDbEntity
  8
0
  6
Continuous
 62
     0
370
    -2
100
AcDbLine
 10
0.0
 20
0.125
 30
0.0
 11
-1.0
 21
0.125
 31
0.0
  0
LINE
  5
B5
330
B0
100
AcDbEntity
  8
0
  6
Continuous
 62
     0
370
    -2
100
AcDbLine
 10
0.0
 20
0.25
 30
0.0
 11
-1.0
 21
0.25
 31
0.0
  0
ENDBLK
  5
B2
330
B0
100
AcDbEntity
  8
0
100
AcDbBlockEnd
  0
BLOCK
  5
B7
330
B6
100
AcDbEntity
  8
0
100
AcDbBlockBegin
  2
FXTIP_WHITEDOT_S
 70
     0
 10
0.0
 20
0.0
 30
0.0
  3
FXTIP_WHITEDOT_S
  1

  0
LINE
  5
B9
330
B6
100
AcDbEntity
  8
0
  6
Continuous
 62
     0
370
    -2
100
AcDbLine
 10
0.0
 20
0.0
 30
0.0
 11
-1.0
 21
0.0000000000000001
 31
0.0
  0
CIRCLE
  5
BA
330
B6
100
AcDbEntity
  8
0
  6
Continuous
 62
     0
370
    -2
100
AcDbCircle
 10
0.0
 20
0.0
 30
0.0
 40
0.25
  0
ENDBLK
  5
B8
330
B6
100
AcDbEntity
  8
0
100
AcDbBlockEnd
  0
BLOCK
  5
BC
330
BB
100
AcDbEntity
  8
0
100
AcDbBlockBegin
  2
FXTIP_WHITEDOT_E
 70
     0
 10
0.0
 20
0.0
 30
0.0
  3
FXTIP_WHITEDOT_E
  1

  0
LINE
  5
BE
330
BB
100
AcDbEntity
  8
0
  6
Continuous
 62
     0
370
    -2
100
AcDbLine
 10
0.0
 20
0.0
 30
0.0
 11
-1.0
 21
0.0
 31
0.0
  0
CIRCLE
  5
BF
330
BB
100
AcDbEntity
  8
0
  6
Continuous
 62
     0
370
    -2
100
AcDbCircle
 10
0.0
 20
0.0
 30
0.0
 40
0.25
  0
ENDBLK
  5
BD
330
BB
100
AcDbEntity
  8
0
100
AcDbBlockEnd
  0
BLOCK
  5
C1
330
C0
100
AcDbEntity
  8
0
100
AcDbBlockBegin
  2
FXTIP_UPARROW_S
 70
     0
 10
0.0
 20
0.0
 30
0.0
  3
FXTIP_UPARROW_S
  1

  0
LINE
  5
C3
330
C0
100
AcDbEntity
  8
0
  6
Continuous
 62
     0
370
    -2
100
AcDbLine
 10
0.0
 20
0.0
 30
0.0
 11
-1.0
 21
0.0000000000000001
 31
0.0
  0
LINE
  5
C4
330
C0
100
AcDbEntity
  8
0
  6
Continuous
 62
     0
370
    -2
100
AcDbLine
 10
0.0
 20
0.0
 30
0.0
 11
-0.9659258262890683
 21
-0.2588190451025206
 31
0.0
  0
ENDBLK
  5
C2
330
C0
100
AcDbEntity
  8
0
100
AcDbBlockEnd
  0
BLOCK
  5
C6
330
C5
100
AcDbEntity
  8
0
100
AcDbBlockBegin
  2
FXTIP_UPARROW_E
 70
     0
 10
0.0
 20
0.0
 30
0.0
  3
FXTIP_UPARROW_E
  1

  0
LINE
  5
C8
330
C5
100
AcDbEntity
  8
0
  6
Continuous
 62
     0
370
    -2
100
AcDbLine
 10
0.0
 20
0.0
 30
0.0
 11
-1.0
 21
0.0
 31
0.0
  0
LINE
  5
C9
330
C5
100
AcDbEntity
  8
0
  6
Continuous
 62
     0
370
    -2
100
AcDbLine
 10
0.0
 20
0.0
 30
0.0
 11
-0.9659258262890683
 21
0.2588190451025207
 31
0.0
  0
ENDBLK
  5
C7
330
C5
100
AcDbEntity
  8
0
100
AcDbBlockEnd
  0
BLOCK
  5
CB
330
CA
100
AcDbEntity
  8
0
100
AcDbBlockBegin
  2
FXTIP_DOWNARROW_S
 70
     0
 10
0.0
 20
0.0
 30
0.0
  3
FXTIP_DOWNARROW_S
  1

  0
LINE
  5
CD
330
CA
100
AcDbEntity
  8
0
  6
Continuous
 62
     0
370
    -2
100
AcDbLine
 10
0.0
 20
0.0
 30
0.0
 11
-1.0
 21
0.0000000000000001
 31
0.0
  0
LINE
  5
CE
330
CA
100
AcDbEntity
  8
0
  6
Continuous
 62
     0
370
    -2
100
AcDbLine
 10
0.0
 20
0.0
 30
0.0
 11
-0.9659258262890683
 21
0.2588190451025209
 31
0.0
  0
ENDBLK
  5
CC
330
CA
100
AcDbEntity
  8
0
100
AcDbBlockEnd
  0
BLOCK
  5
D0
330
CF
100
AcDbEntity
  8
0
100
AcDbBlockBegin
  2
FXTIP_DOWNARROW_E
 70
     0
 10
0.0
 20
0.0
 30
0.0
  3
FXTIP_DOWNARROW_E
  1

  0
LINE
  5
D2
330
CF
100
AcDbEntity
  8
0
  6
Continuous
 62
     0
370
    -2
100
AcDbLine
 10
0.0
 20
0.0
 30
0.0
 11
-1.0
 21
0.0
 31
0.0
  0
LINE
  5
D3
330
CF
100
AcDbEntity
  8
0
  6
Continuous
 62
     0
370
    -2
100
AcDbLine
 10
0.0
 20
0.0
 30
0.0
 11
-0.9659258262890683
 21
-0.2588190451025207
 31
0.0
  0
ENDBLK
  5
D1
330
CF
100
AcDbEntity
  8
0
100
AcDbBlockEnd
  0
BLOCK
  5
D5
330
D4
100
AcDbEntity
  8
0
100
AcDbBlockBegin
  2
FXTIP_BLACKTRIANGLE_S
 70
     0
 10
0.0
 20
0.0
 30
0.0
  3
FXTIP_BLACKTRIANGLE_S
  1

  0
LINE
  5
D7
330
D4
100
AcDbEntity
  8
0
  6
Continuous
 62
     0
370
    -2
100
AcDbLine
 10
0.0
 20
0.0
 30
0.0
 11
-1.0
 21
0.0000000000000001
 31
0.0
  0
SOLID
  5
D8
330
D4
100
AcDbEntity
  8
0
  6
Continuous
 62
     0
370
    -2
100
AcDbTrace
 10
0.0
 20
0.0
 30
0.0
 11
-0.9659258262890683
 21
-0.2588190451025206
 31
0.0
 12
-0.9659258262890683
 22
0.2588190451025209
 32
0.0
 13
-0.9659258262890683
 23
0.2588190451025209
 33
0.0
  0
ENDBLK
  5
D6
330
D4
100
AcDbEntity
  8
0
100
AcDbBlockEnd
  0
BLOCK
  5
DA
330
D9
100
AcDbEntity
  8
0
100
AcDbBlockBegin
  2
FXTIP_BLACKTRIANGLE_E
 70
     0
 10
0.0
 20
0.0
 30
0.0
  3
FXTIP_BLACKTRIANGLE_E
  1

  0
LINE
  5
DC
330
D9
100
AcDbEntity
  8
0
  6
Continuous
 62
     0
370
    -2
100
AcDbLine
 10
0.0
 20
0.0
 30
0.0
 11
-1.0
 21
0.0
 31
0.0
  0
SOLID
  5
DD
330
D9
100
AcDbEntity
  8
0
  6
Continuous
 62
     0
370
    -2
100
AcDbTrace
 10
0.0
 20
0.0
 30
0.0
 11
-0.9659258262890683
 21
0.2588190451025207
 31
0.0
 12
-0.9659258262890683
 22
-0.2588190451025207
 32
0.0
 13
-0.9659258262890683
 23
-0.2588190451025207
 33
0.0
  0
ENDBLK
  5
DB
330
D9
100
AcDbEntity
  8
0
100
AcDbBlockEnd
  0
BLOCK
  5
1CC
330
1CB
100
AcDbEntity
  8
0
100
AcDbBlockBegin
  2
FXDIM023
 70
     0
 10
0.0
 20
0.0
 30
0.0
  3
FXDIM023
  1

  0
LINE
  5
1CF
330
1CB
100
AcDbEntity
  8
作図レイヤ
  6
Continuous
 62
     4
370
    13
100
AcDbLine
 10
371.1521352065515
 20
174.8923975782686
 30
0.0
 11
376.416381580387
 21
150.4008221776599
 31
0.0
  0
INSERT
  5
1D0
330
1CB
100
AcDbEntity
  8
作図レイヤ
  6
Continuous
 62
     4
370
    13
100
AcDbBlockReference
  2
FXTIP_ARROW_S
 10
371.1521352065515
 20
174.8923975782686
 30
0.0
 41
2.0
 42
2.0
 50
102.130654998444
  0
LINE
  5
1D1
330
1CB
100
AcDbEntity
  8
作図レイヤ
  6
Continuous
 62
     4
370
    13
100
AcDbLine
 10
376.416381580387
 20
150.4008221776599
 30
0.0
 11
398.416381580387
 21
150.4008221776599
 31
0.0
  0
TEXT
  5
1D2
330
1CB
100
AcDbEntity
  8
作図レイヤ
  6
Continuous
 62
     7
370
    25
100
AcDbText
 10
377.4206030263132
 20
151.949446046628
 30
0.0
 40
2.666666666666667
  1
ｺﾚｯﾄ：SG10
 41
1.024965800273598
  7
ＭＳ 明朝
 72
     1
 11
387.4163818359375
 21
151.40087890625
 31
0.0
100
AcDbText
 73
     1
  0
ENDBLK
  5
1CD
330
1CB
100
AcDbEntity
  8
0
100
AcDbBlockEnd
  0
BLOCK
  5
2C0
330
2BF
100
AcDbEntity
  8
0
100
AcDbBlockBegin
  2
BLKF024
 70
     0
 10
0.0
 20
0.0
 30
0.0
  3
BLKF024
  1

  0
LINE
  5
2C3
330
2BF
100
AcDbEntity
  8
作図レイヤ
  6
Continuous
 62
     7
370
    13
100
AcDbLine
 10
411.8928571428571
 20
289.0360316519971
 30
0.0
 11
411.8928571428571
 21
8.036031651997291
 31
0.0
  0
LINE
  5
2C4
330
2BF
100
AcDbEntity
  8
作図レイヤ
  6
Continuous
 62
     7
370
    13
100
AcDbLine
 10
411.8928571428571
 20
8.036031651997291
 30
0.0
 11
7.892857142857565
 21
8.036031651997291
 31
0.0
  0
LINE
  5
2C5
330
2BF
100
AcDbEntity
  8
作図レイヤ
  6
Continuous
 62
     7
370
    13
100
AcDbLine
 10
7.892857142857565
 20
8.036031651997291
 30
0.0
 11
7.892857142857565
 21
289.0360316519971
 31
0.0
  0
LINE
  5
2C6
330
2BF
100
AcDbEntity
  8
作図レイヤ
  6
Continuous
 62
     7
370
    13
100
AcDbLine
 10
7.892857142857565
 20
289.0360316519971
 30
0.0
 11
411.8928571428571
 21
289.0360316519971
 31
0.0
  0
ENDBLK
  5
2C1
330
2BF
100
AcDbEntity
  8
0
100
AcDbBlockEnd
  0
BLOCK
  5
2EB
330
2EA
100
AcDbEntity
  8
0
100
AcDbBlockBegin
  2
FXDIM025
 70
     0
 10
0.0
 20
0.0
 30
0.0
  3
FXDIM025
  1

  0
LINE
  5
2EE
330
2EA
100
AcDbEntity
  8
作図レイヤ
  6
Continuous
 62
     4
370
    13
100
AcDbLine
 10
381.3359737004373
 20
196.9683892072088
 30
0.0
 11
373.5520898585469
 21
212.875996090967
 31
0.0
  0
INSERT
  5
2EF
330
2EA
100
AcDbEntity
  8
作図レイヤ
  6
Continuous
 62
     4
370
    13
100
AcDbBlockReference
  2
FXTIP_ARROW_S
 10
381.3359737004373
 20
196.9683892072088
 30
0.0
 41
2.0
 42
2.0
 50
296.0733512383745
  0
LINE
  5
2F0
330
2EA
100
AcDbEntity
  8
作図レイヤ
  6
Continuous
 62
     4
370
    13
100
AcDbLine
 10
373.5520898585469
 20
212.875996090967
 30
0.0
 11
351.5520898585469
 21
212.875996090967
 31
0.0
  0
TEXT
  5
2F1
330
2EA
100
AcDbEntity
  8
作図レイヤ
  6
Continuous
 62
     7
370
    25
100
AcDbText
 10
352.5563146962351
 20
214.4245894792452
 30
0.0
 40
2.666666666666667
  1
ﾅｯﾄ：SGN10
 41
1.024965800273598
  7
ＭＳ 明朝
 72
     1
 11
362.5520935058594
 21
213.8760223388672
 31
0.0
100
AcDbText
 73
     1
  0
ENDBLK
  5
2EC
330
2EA
100
AcDbEntity
  8
0
100
AcDbBlockEnd
  0
BLOCK
  5
327
330
326
100
AcDbEntity
  8
0
100
AcDbBlockBegin
  2
BLKF026
 70
     0
 10
0.0
 20
0.0
 30
0.0
  3
BLKF026
  1

  0
CIRCLE
  5
32A
330
326
100
AcDbEntity
  8
作図レイヤ
  6
Continuous
 62
     4
370
    13
100
AcDbCircle
 10
115.6323026277444
 20
181.7683892072088
 30
0.0
 40
2.75
  0
LINE
  5
32B
330
326
100
AcDbEntity
  8
作図レイヤ
  6
Continuous
 62
     4
370
    13
100
AcDbLine
 10
115.2323026277444
 20
183.3683892072088
 30
0.0
 11
116.0323026277444
 21
183.3683892072088
 31
0.0
  0
LINE
  5
32C
330
326
100
AcDbEntity
  8
作図レイヤ
  6
Continuous
 62
     4
370
    13
100
AcDbLine
 10
117.2323026277444
 20
182.1683892072088
 30
0.0
 11
117.2323026277444
 21
181.3683892072088
 31
0.0
  0
LINE
  5
32D
330
326
100
AcDbEntity
  8
作図レイヤ
  6
Continuous
 62
     4
370
    13
100
AcDbLine
 10
115.2323026277444
 20
180.1683892072088
 30
0.0
 11
116.0323026277444
 21
180.1683892072088
 31
0.0
  0
LINE
  5
32E
330
326
100
AcDbEntity
  8
作図レイヤ
  6
Continuous
 62
     4
370
    13
100
AcDbLine
 10
114.0323026277444
 20
182.1683892072088
 30
0.0
 11
114.0323026277444
 21
181.3683892072088
 31
0.0
  0
LINE
  5
32F
330
326
100
AcDbEntity
  8
作図レイヤ
  6
Continuous
 62
     4
370
    13
100
AcDbLine
 10
116.0323026277444
 20
183.3683892072088
 30
0.0
 11
116.0323026277444
 21
182.5683892072088
 31
0.0
  0
LINE
  5
330
330
326
100
AcDbEntity
  8
作図レイヤ
  6
Continuous
 62
     4
370
    13
100
AcDbLine
 10
115.2323026277444
 20
183.3683892072088
 30
0.0
 11
115.2323026277444
 21
182.5683892072088
 31
0.0
  0
LINE
  5
331
330
326
100
AcDbEntity
  8
作図レイヤ
  6
Continuous
 62
     4
370
    13
100
AcDbLine
 10
116.0323026277444
 20
180.9683892072088
 30
0.0
 11
116.0323026277444
 21
180.1683892072088
 31
0.0
  0
LINE
  5
332
330
326
100
AcDbEntity
  8
作図レイヤ
  6
Continuous
 62
     4
370
    13
100
AcDbLine
 10
115.2323026277444
 20
180.9683892072088
 30
0.0
 11
115.2323026277444
 21
180.1683892072088
 31
0.0
  0
LINE
  5
333
330
326
100
AcDbEntity
  8
作図レイヤ
  6
Continuous
 62
     4
370
    13
100
AcDbLine
 10
114.0323026277444
 20
182.1683892072088
 30
0.0
 11
114.8323026277444
 21
182.1683892072088
 31
0.0
  0
LINE
  5
334
330
326
100
AcDbEntity
  8
作図レイヤ
  6
Continuous
 62
     4
370
    13
100
AcDbLine
 10
114.0323026277444
 20
181.3683892072088
 30
0.0
 11
114.8323026277444
 21
181.3683892072088
 31
0.0
  0
LINE
  5
335
330
326
100
AcDbEntity
  8
作図レイヤ
  6
Continuous
 62
     4
370
    13
100
AcDbLine
 10
116.4323026277444
 20
182.1683892072088
 30
0.0
 11
117.2323026277444
 21
182.1683892072088
 31
0.0
  0
LINE
  5
336
330
326
100
AcDbEntity
  8
作図レイヤ
  6
Continuous
 62
     4
370
    13
100
AcDbLine
 10
116.4323026277444
 20
181.3683892072088
 30
0.0
 11
117.2323026277444
 21
181.3683892072088
 31
0.0
  0
ARC
  5
337
330
326
100
AcDbEntity
  8
作図レイヤ
  6
Continuous
 62
     4
370
    13
100
AcDbCircle
 10
116.4323026277444
 20
182.5683892072088
 30
0.0
 40
0.4
100
AcDbArc
 50
180.0
 51
270.0
  0
ARC
  5
338
330
326
100
AcDbEntity
  8
作図レイヤ
  6
Continuous
 62
     4
370
    13
100
AcDbCircle
 10
114.8323026277444
 20
182.5683892072088
 30
0.0
 40
0.4
100
AcDbArc
 50
270.0
 51
0.0
  0
ARC
  5
339
330
326
100
AcDbEntity
  8
作図レイヤ
  6
Continuous
 62
     4
370
    13
100
AcDbCircle
 10
114.8323026277444
 20
180.9683892072088
 30
0.0
 40
0.4
100
AcDbArc
 50
0.0
 51
90.0
  0
ARC
  5
33A
330
326
100
AcDbEntity
  8
作図レイヤ
  6
Continuous
 62
     4
370
    13
100
AcDbCircle
 10
116.4323026277444
 20
180.9683892072088
 30
0.0
 40
0.4
100
AcDbArc
 50
90.0
 51
180.0
  0
ENDBLK
  5
328
330
326
100
AcDbEntity
  8
0
100
AcDbBlockEnd
  0
BLOCK
  5
33C
330
33B
100
AcDbEntity
  8
0
100
AcDbBlockBegin
  2
BLKF027
 70
     0
 10
0.0
 20
0.0
 30
0.0
  3
BLKF027
  1

  0
CIRCLE
  5
33F
330
33B
100
AcDbEntity
  8
作図レイヤ
  6
Continuous
 62
     4
370
    13
100
AcDbCircle
 10
126.6323026277477
 20
181.7683892072088
 30
0.0
 40
2.75
  0
LINE
  5
340
330
33B
100
AcDbEntity
  8
作図レイヤ
  6
Continuous
 62
     4
370
    13
100
AcDbLine
 10
126.2323026277477
 20
183.3683892072088
 30
0.0
 11
127.0323026277477
 21
183.3683892072088
 31
0.0
  0
LINE
  5
341
330
33B
100
AcDbEntity
  8
作図レイヤ
  6
Continuous
 62
     4
370
    13
100
AcDbLine
 10
128.2323026277477
 20
182.1683892072088
 30
0.0
 11
128.2323026277477
 21
181.3683892072088
 31
0.0
  0
LINE
  5
342
330
33B
100
AcDbEntity
  8
作図レイヤ
  6
Continuous
 62
     4
370
    13
100
AcDbLine
 10
126.2323026277477
 20
180.1683892072088
 30
0.0
 11
127.0323026277477
 21
180.1683892072088
 31
0.0
  0
LINE
  5
343
330
33B
100
AcDbEntity
  8
作図レイヤ
  6
Continuous
 62
     4
370
    13
100
AcDbLine
 10
125.0323026277477
 20
182.1683892072088
 30
0.0
 11
125.0323026277477
 21
181.3683892072088
 31
0.0
  0
LINE
  5
344
330
33B
100
AcDbEntity
  8
作図レイヤ
  6
Continuous
 62
     4
370
    13
100
AcDbLine
 10
127.0323026277477
 20
183.3683892072088
 30
0.0
 11
127.0323026277477
 21
182.5683892072088
 31
0.0
  0
LINE
  5
345
330
33B
100
AcDbEntity
  8
作図レイヤ
  6
Continuous
 62
     4
370
    13
100
AcDbLine
 10
126.2323026277477
 20
183.3683892072088
 30
0.0
 11
126.2323026277477
 21
182.5683892072088
 31
0.0
  0
LINE
  5
346
330
33B
100
AcDbEntity
  8
作図レイヤ
  6
Continuous
 62
     4
370
    13
100
AcDbLine
 10
127.0323026277477
 20
180.9683892072088
 30
0.0
 11
127.0323026277477
 21
180.1683892072088
 31
0.0
  0
LINE
  5
347
330
33B
100
AcDbEntity
  8
作図レイヤ
  6
Continuous
 62
     4
370
    13
100
AcDbLine
 10
126.2323026277477
 20
180.9683892072088
 30
0.0
 11
126.2323026277477
 21
180.1683892072088
 31
0.0
  0
LINE
  5
348
330
33B
100
AcDbEntity
  8
作図レイヤ
  6
Continuous
 62
     4
370
    13
100
AcDbLine
 10
125.0323026277477
 20
182.1683892072088
 30
0.0
 11
125.8323026277477
 21
182.1683892072088
 31
0.0
  0
LINE
  5
349
330
33B
100
AcDbEntity
  8
作図レイヤ
  6
Continuous
 62
     4
370
    13
100
AcDbLine
 10
125.0323026277477
 20
181.3683892072088
 30
0.0
 11
125.8323026277477
 21
181.3683892072088
 31
0.0
  0
LINE
  5
34A
330
33B
100
AcDbEntity
  8
作図レイヤ
  6
Continuous
 62
     4
370
    13
100
AcDbLine
 10
127.4323026277477
 20
182.1683892072088
 30
0.0
 11
128.2323026277477
 21
182.1683892072088
 31
0.0
  0
LINE
  5
34B
330
33B
100
AcDbEntity
  8
作図レイヤ
  6
Continuous
 62
     4
370
    13
100
AcDbLine
 10
127.4323026277477
 20
181.3683892072088
 30
0.0
 11
128.2323026277477
 21
181.3683892072088
 31
0.0
  0
ARC
  5
34C
330
33B
100
AcDbEntity
  8
作図レイヤ
  6
Continuous
 62
     4
370
    13
100
AcDbCircle
 10
127.4323026277477
 20
182.5683892072088
 30
0.0
 40
0.4
100
AcDbArc
 50
180.0
 51
270.0
  0
ARC
  5
34D
330
33B
100
AcDbEntity
  8
作図レイヤ
  6
Continuous
 62
     4
370
    13
100
AcDbCircle
 10
125.8323026277477
 20
182.5683892072088
 30
0.0
 40
0.4
100
AcDbArc
 50
270.0
 51
0.0
  0
ARC
  5
34E
330
33B
100
AcDbEntity
  8
作図レイヤ
  6
Continuous
 62
     4
370
    13
100
AcDbCircle
 10
125.8323026277477
 20
180.9683892072088
 30
0.0
 40
0.4
100
AcDbArc
 50
0.0
 51
90.0
  0
ARC
  5
34F
330
33B
100
AcDbEntity
  8
作図レイヤ
  6
Continuous
 62
     4
370
    13
100
AcDbCircle
 10
127.4323026277477
 20
180.9683892072088
 30
0.0
 40
0.4
100
AcDbArc
 50
90.0
 51
180.0
  0
ENDBLK
  5
33D
330
33B
100
AcDbEntity
  8
0
100
AcDbBlockEnd
  0
BLOCK
  5
363
330
362
100
AcDbEntity
  8
0
100
AcDbBlockBegin
  2
*D25
 70
     1
 10
0.0
 20
0.0
 30
0.0
  3
*D25
  1

  0
LINE
  5
365
330
362
100
AcDbEntity
  8
作図レイヤ
  6
Continuous
 62
     0
370
    -2
100
AcDbLine
 10
608.0323026277467
 20
242.288966207208
 30
0.0
 11
608.0323026277467
 21
262.8486434761035
 31
0.0
  0
LINE
  5
366
330
362
100
AcDbEntity
  8
作図レイヤ
  6
Continuous
 62
     0
370
    -2
100
AcDbLine
 10
658.0323026277468
 20
213.7889662072087
 30
0.0
 11
658.0323026277468
 21
262.8486434761035
 31
0.0
  0
LINE
  5
367
330
362
100
AcDbEntity
  8
作図レイヤ
  6
Continuous
 62
     0
370
    -2
100
AcDbLine
 10
610.0323026277467
 20
261.8486434761035
 30
0.0
 11
656.0323026277468
 21
261.8486434761035
 31
0.0
  0
INSERT
  5
368
330
362
100
AcDbEntity
  8
作図レイヤ
 62
     0
370
    -2
100
AcDbBlockReference
  2
FXTIP_ARROW_S
 10
608.0323026277467
 20
261.8486434761035
 30
0.0
 41
2.0
 42
2.0
 43
2.0
 50
180.0
  0
INSERT
  5
369
330
362
100
AcDbEntity
  8
作図レイヤ
 62
     0
370
    -2
100
AcDbBlockReference
  2
FXTIP_ARROW_E
 10
658.0323026277468
 20
261.8486434761035
 30
0.0
 41
2.0
 42
2.0
 43
2.0
  0
MTEXT
  5
92A
330
362
100
AcDbEntity
  8
作図レイヤ
 62
     7
370
    13
100
AcDbMText
 10
633.0323026277467
 20
264.8486434761035
 30
0.0
 40
4.0
 41
0.0
 46
0.0
 71
     5
 72
     1
  1
\A1;50
  7
ＭＳ 明朝
 73
     1
 44
1.0
  0
POINT
  5
92B
330
362
100
AcDbEntity
  8
Defpoints
 62
     0
100
AcDbPoint
 10
608.0323026277467
 20
241.288966207208
 30
0.0
  0
POINT
  5
92C
330
362
100
AcDbEntity
  8
Defpoints
 62
     0
100
AcDbPoint
 10
658.0323026277468
 20
212.7889662072087
 30
0.0
  0
POINT
  5
92D
330
362
100
AcDbEntity
  8
Defpoints
 62
     0
100
AcDbPoint
 10
658.0323026277468
 20
261.8486434761035
 30
0.0
  0
ENDBLK
  5
364
330
362
100
AcDbEntity
  8
0
100
AcDbBlockEnd
  0
BLOCK
  5
36C
330
36B
100
AcDbEntity
  8
0
100
AcDbBlockBegin
  2
*D26
 70
     1
 10
0.0
 20
0.0
 30
0.0
  3
*D26
  1

  0
LINE
  5
36E
330
36B
100
AcDbEntity
  8
作図レイヤ
  6
Continuous
 62
     0
370
    -2
100
AcDbLine
 10
396.5323026277467
 20
224.7889661990608
 30
0.0
 11
396.5323026277467
 21
262.8486434761035
 31
0.0
  0
LINE
  5
36F
330
36B
100
AcDbEntity
  8
作図レイヤ
  6
Continuous
 62
     0
370
    -2
100
AcDbLine
 10
608.0323026277467
 20
242.288966207208
 30
0.0
 11
608.0323026277467
 21
262.8486434761035
 31
0.0
  0
LINE
  5
370
330
36B
100
AcDbEntity
  8
作図レイヤ
  6
Continuous
 62
     0
370
    -2
100
AcDbLine
 10
398.5323026277467
 20
261.8486434761035
 30
0.0
 11
606.0323026277467
 21
261.8486434761035
 31
0.0
  0
INSERT
  5
371
330
36B
100
AcDbEntity
  8
作図レイヤ
 62
     0
370
    -2
100
AcDbBlockReference
  2
FXTIP_ARROW_S
 10
396.5323026277467
 20
261.8486434761035
 30
0.0
 41
2.0
 42
2.0
 43
2.0
 50
180.0
  0
INSERT
  5
372
330
36B
100
AcDbEntity
  8
作図レイヤ
 62
     0
370
    -2
100
AcDbBlockReference
  2
FXTIP_ARROW_E
 10
608.0323026277467
 20
261.8486434761035
 30
0.0
 41
2.0
 42
2.0
 43
2.0
  0
MTEXT
  5
373
330
36B
100
AcDbEntity
  8
作図レイヤ
 62
     7
370
    13
100
AcDbMText
 10
502.2823026277467
 20
264.8486434761035
 30
0.0
 40
4.0
 41
0.0
 46
0.0
 71
     5
 72
     1
  1
\A1;211.5
  7
ＭＳ 明朝
 73
     1
 44
1.0
  0
POINT
  5
92E
330
36B
100
AcDbEntity
  8
Defpoints
 62
     0
100
AcDbPoint
 10
396.5323026277467
 20
223.7889661990608
 30
0.0
  0
POINT
  5
92F
330
36B
100
AcDbEntity
  8
Defpoints
 62
     0
100
AcDbPoint
 10
608.0323026277467
 20
241.288966207208
 30
0.0
  0
POINT
  5
930
330
36B
100
AcDbEntity
  8
Defpoints
 62
     0
100
AcDbPoint
 10
608.0323026277467
 20
261.8486434761035
 30
0.0
  0
ENDBLK
  5
36D
330
36B
100
AcDbEntity
  8
0
100
AcDbBlockEnd
  0
BLOCK
  5
376
330
375
100
AcDbEntity
  8
0
100
AcDbBlockBegin
  2
*D27
 70
     1
 10
0.0
 20
0.0
 30
0.0
  3
*D27
  1

  0
LINE
  5
378
330
375
100
AcDbEntity
  8
作図レイヤ
  6
Continuous
 62
     0
370
    -2
100
AcDbLine
 10
593.0323026277468
 20
242.288966207208
 30
0.0
 11
593.0323026277468
 21
248.7949247863135
 31
0.0
  0
LINE
  5
379
330
375
100
AcDbEntity
  8
作図レイヤ
  6
Continuous
 62
     0
370
    -2
100
AcDbLine
 10
608.0323026277467
 20
242.288966207208
 30
0.0
 11
608.0323026277467
 21
248.7949247863135
 31
0.0
  0
LINE
  5
37A
330
375
100
AcDbEntity
  8
作図レイヤ
  6
Continuous
 62
     0
370
    -2
100
AcDbLine
 10
595.0323026277468
 20
247.7949247863135
 30
0.0
 11
606.0323026277467
 21
247.7949247863135
 31
0.0
  0
INSERT
  5
37B
330
375
100
AcDbEntity
  8
作図レイヤ
 62
     0
370
    -2
100
AcDbBlockReference
  2
FXTIP_ARROW_S
 10
593.0323026277468
 20
247.7949247863135
 30
0.0
 41
2.0
 42
2.0
 43
2.0
 50
180.0
  0
INSERT
  5
37C
330
375
100
AcDbEntity
  8
作図レイヤ
 62
     0
370
    -2
100
AcDbBlockReference
  2
FXTIP_ARROW_E
 10
608.0323026277467
 20
247.7949247863135
 30
0.0
 41
2.0
 42
2.0
 43
2.0
  0
MTEXT
  5
37D
330
375
100
AcDbEntity
  8
作図レイヤ
 62
     7
370
    13
100
AcDbMText
 10
600.5323026277467
 20
250.7949247863135
 30
0.0
 40
4.0
 41
0.0
 46
0.0
 71
     5
 72
     1
  1
\A1;15
  7
ＭＳ 明朝
 73
     1
 44
1.0
  0
POINT
  5
931
330
375
100
AcDbEntity
  8
Defpoints
 62
     0
100
AcDbPoint
 10
593.0323026277468
 20
241.288966207208
 30
0.0
  0
POINT
  5
932
330
375
100
AcDbEntity
  8
Defpoints
 62
     0
100
AcDbPoint
 10
608.0323026277467
 20
241.288966207208
 30
0.0
  0
POINT
  5
933
330
375
100
AcDbEntity
  8
Defpoints
 62
     0
100
AcDbPoint
 10
608.0323026277467
 20
247.7949247863135
 30
0.0
  0
ENDBLK
  5
377
330
375
100
AcDbEntity
  8
0
100
AcDbBlockEnd
  0
BLOCK
  5
380
330
37F
100
AcDbEntity
  8
0
100
AcDbBlockBegin
  2
*D28
 70
     1
 10
0.0
 20
0.0
 30
0.0
  3
*D28
  1

  0
LINE
  5
382
330
37F
100
AcDbEntity
  8
作図レイヤ
  6
Continuous
 62
     0
370
    -2
100
AcDbLine
 10
396.5323026277467
 20
224.7889661990608
 30
0.0
 11
396.5323026277467
 21
277.8703197766836
 31
0.0
  0
LINE
  5
383
330
37F
100
AcDbEntity
  8
作図レイヤ
  6
Continuous
 62
     0
370
    -2
100
AcDbLine
 10
658.0323026277468
 20
213.7889662072087
 30
0.0
 11
658.0323026277468
 21
277.8703197766836
 31
0.0
  0
LINE
  5
384
330
37F
100
AcDbEntity
  8
作図レイヤ
  6
Continuous
 62
     0
370
    -2
100
AcDbLine
 10
398.5323026277467
 20
276.8703197766836
 30
0.0
 11
656.0323026277468
 21
276.8703197766836
 31
0.0
  0
INSERT
  5
385
330
37F
100
AcDbEntity
  8
作図レイヤ
 62
     0
370
    -2
100
AcDbBlockReference
  2
FXTIP_ARROW_S
 10
396.5323026277467
 20
276.8703197766836
 30
0.0
 41
2.0
 42
2.0
 43
2.0
 50
180.0
  0
INSERT
  5
386
330
37F
100
AcDbEntity
  8
作図レイヤ
 62
     0
370
    -2
100
AcDbBlockReference
  2
FXTIP_ARROW_E
 10
658.0323026277468
 20
276.8703197766836
 30
0.0
 41
2.0
 42
2.0
 43
2.0
  0
MTEXT
  5
387
330
37F
100
AcDbEntity
  8
作図レイヤ
 62
     7
370
    13
100
AcDbMText
 10
527.2823026277467
 20
279.8703197766836
 30
0.0
 40
4.0
 41
0.0
 46
0.0
 71
     5
 72
     1
  1
\A1;261.5
  7
ＭＳ 明朝
 73
     1
 44
1.0
  0
POINT
  5
388
330
37F
100
AcDbEntity
  8
Defpoints
 62
     0
100
AcDbPoint
 10
396.5323026277467
 20
223.7889661990608
 30
0.0
  0
POINT
  5
389
330
37F
100
AcDbEntity
  8
Defpoints
 62
     0
100
AcDbPoint
 10
658.0323026277468
 20
212.7889662072087
 30
0.0
  0
POINT
  5
934
330
37F
100
AcDbEntity
  8
Defpoints
 62
     0
100
AcDbPoint
 10
658.0323026277468
 20
276.8703197766836
 30
0.0
  0
ENDBLK
  5
381
330
37F
100
AcDbEntity
  8
0
100
AcDbBlockEnd
  0
BLOCK
  5
38C
330
38B
100
AcDbEntity
  8
0
100
AcDbBlockBegin
  2
*D29
 70
     1
 10
0.0
 20
0.0
 30
0.0
  3
*D29
  1

  0
LINE
  5
38E
330
38B
100
AcDbEntity
  8
作図レイヤ
  6
Continuous
 62
     0
370
    -2
100
AcDbLine
 10
405.6101227813448
 20
123.2161189163694
 30
0.0
 11
413.3822768999656
 21
136.8754226431379
 31
0.0
  0
LINE
  5
38F
330
38B
100
AcDbEntity
  8
作図レイヤ
  6
Continuous
 62
     0
370
    -2
100
AcDbLine
 10
347.2535313097943
 20
20.65634009532007
 30
0.0
 11
346.2644365390901
 21
18.91803875937008
 31
0.0
  0
MTEXT
  5
390
330
38B
100
AcDbEntity
  8
作図レイヤ
 62
     7
370
    13
100
AcDbMText
 10
407.3960732959469
 20
132.5828150684791
 30
0.0
 40
4.0
 41
0.0
 46
0.0
 71
     5
 72
     1
  1
\A1;%%c114
  7
ＭＳ 明朝
 11
0.4945473853521228
 21
0.8691506679749943
 31
0.0
 73
     1
 44
1.0
  0
LINE
  5
391
330
38B
100
AcDbEntity
  8
作図レイヤ
  6
Continuous
 62
     0
370
    -2
100
AcDbLine
 10
348.2426260804986
 20
22.39464143127006
 30
0.0
 11
404.6210280106405
 21
121.4778175804194
 31
0.0
  0
INSERT
  5
392
330
38B
100
AcDbEntity
  8
作図レイヤ
 62
     0
370
    -2
100
AcDbBlockReference
  2
FXTIP_ARROW_S
 10
348.2426260804986
 20
22.39464143127006
 30
0.0
 41
2.0
 42
2.0
 43
2.0
 50
60.360091155479
  0
INSERT
  5
393
330
38B
100
AcDbEntity
  8
作図レイヤ
 62
     0
370
    -2
100
AcDbBlockReference
  2
FXTIP_ARROW_E
 10
404.6210280106405
 20
121.4778175804194
 30
0.0
 41
2.0
 42
2.0
 43
2.0
 50
240.360091155479
  0
POINT
  5
394
330
38B
100
AcDbEntity
  8
Defpoints
 62
     0
100
AcDbPoint
 10
404.6210280106405
 20
121.4778175804194
 30
0.0
  0
POINT
  5
935
330
38B
100
AcDbEntity
  8
Defpoints
 62
     0
100
AcDbPoint
 10
348.2426260804986
 20
22.39464143127006
 30
0.0
  0
ENDBLK
  5
38D
330
38B
100
AcDbEntity
  8
0
100
AcDbBlockEnd
  0
BLOCK
  5
397
330
396
100
AcDbEntity
  8
0
100
AcDbBlockBegin
  2
*D30
 70
     1
 10
0.0
 20
0.0
 30
0.0
  3
*D30
  1

  0
LINE
  5
399
330
396
100
AcDbEntity
  8
作図レイヤ
  6
Continuous
 62
     0
370
    -2
100
AcDbLine
 10
358.3959382052362
 20
119.6405973744072
 30
0.0
 11
352.0225171798684
 21
136.4980987632748
 31
0.0
  0
LINE
  5
39A
330
396
100
AcDbEntity
  8
作図レイヤ
  6
Continuous
 62
     0
370
    -2
100
AcDbLine
 10
394.4677158859029
 20
24.23186163728221
 30
0.0
 11
395.1750056443473
 21
22.36110211302486
 31
0.0
  0
MTEXT
  5
39B
330
396
100
AcDbEntity
  8
作図レイヤ
 62
     7
370
    13
100
AcDbMText
 10
356.7282969627169
 20
132.7608011438643
 30
0.0
 40
4.0
 41
0.0
 46
0.0
 71
     5
 72
     1
  1
\A1;%%c98
  7
ＭＳ 明朝
 11
0.3536448792222216
 21
-0.9353797621286769
 31
0.0
 73
     1
 44
1.0
  0
LINE
  5
39C
330
396
100
AcDbEntity
  8
作図レイヤ
  6
Continuous
 62
     0
370
    -2
100
AcDbLine
 10
393.7604261274584
 20
26.10262116153957
 30
0.0
 11
359.1032279636807
 21
117.7698378501499
 31
0.0
  0
INSERT
  5
39D
330
396
100
AcDbEntity
  8
作図レイヤ
 62
     0
370
    -2
100
AcDbBlockReference
  2
FXTIP_ARROW_S
 10
393.7604261274584
 20
26.10262116153957
 30
0.0
 41
2.0
 42
2.0
 43
2.0
 50
110.7104149982049
  0
INSERT
  5
39E
330
396
100
AcDbEntity
  8
作図レイヤ
 62
     0
370
    -2
100
AcDbBlockReference
  2
FXTIP_ARROW_E
 10
359.1032279636807
 20
117.7698378501499
 30
0.0
 41
2.0
 42
2.0
 43
2.0
 50
290.7104149982049
  0
POINT
  5
39F
330
396
100
AcDbEntity
  8
Defpoints
 62
     0
100
AcDbPoint
 10
359.1032279636807
 20
117.7698378501499
 30
0.0
  0
POINT
  5
936
330
396
100
AcDbEntity
  8
Defpoints
 62
     0
100
AcDbPoint
 10
393.7604261274584
 20
26.10262116153957
 30
0.0
  0
ENDBLK
  5
398
330
396
100
AcDbEntity
  8
0
100
AcDbBlockEnd
  0
BLOCK
  5
3A1
330
3A0
100
AcDbEntity
  8
0
100
AcDbBlockBegin
  2
FXDIM034
 70
     0
 10
0.0
 20
0.0
 30
0.0
  3
FXDIM034
  1

  0
LINE
  5
3A4
330
3A0
100
AcDbEntity
  8
作図レイヤ
  6
Continuous
 62
     4
370
    13
100
AcDbLine
 10
57.11103642680887
 20
122.0916865341121
 30
0.0
 11
64.34752941144406
 21
130.8389011236648
 31
0.0
  0
INSERT
  5
3A5
330
3A0
100
AcDbEntity
  8
作図レイヤ
  6
Continuous
 62
     4
370
    13
100
AcDbBlockReference
  2
FXTIP_ARROW_S
 10
57.11103642680887
 20
122.0916865341121
 30
0.0
 41
2.0
 42
2.0
 50
230.3993476664958
  0
LINE
  5
3A6
330
3A0
100
AcDbEntity
  8
作図レイヤ
  6
Continuous
 62
     4
370
    13
100
AcDbLine
 10
64.34752941144406
 20
130.8389011236648
 30
0.0
 11
78.34752941144406
 21
130.8389011236648
 31
0.0
  0
TEXT
  5
3A7
330
3A0
100
AcDbEntity
  8
作図レイヤ
  6
Continuous
 62
     7
370
    25
100
AcDbText
 10
66.34964477487534
 20
132.3874648454561
 30
0.0
 40
2.666666666666667
  1
2-%%c11
 41
1.024965800273598
  7
ＭＳ 明朝
 72
     1
 11
71.3475341796875
 21
131.8388977050781
 31
0.0
100
AcDbText
 73
     1
  0
ENDBLK
  5
3A2
330
3A0
100
AcDbEntity
  8
0
100
AcDbBlockEnd
  0
BLOCK
  5
3AA
330
3A9
100
AcDbEntity
  8
0
100
AcDbBlockBegin
  2
*D32
 70
     1
 10
0.0
 20
0.0
 30
0.0
  3
*D32
  1

  0
LINE
  5
3AC
330
3A9
100
AcDbEntity
  8
作図レイヤ
  6
Continuous
 62
     0
370
    -2
100
AcDbLine
 10
592.0323026277468
 20
144.7889662072087
 30
0.0
 11
507.5013201236095
 21
144.7889662072087
 31
0.0
  0
LINE
  5
3AD
330
3A9
100
AcDbEntity
  8
作図レイヤ
  6
Continuous
 62
     0
370
    -2
100
AcDbLine
 10
592.0323026277468
 20
224.788966207209
 30
0.0
 11
507.5013201236095
 21
224.788966207209
 31
0.0
  0
LINE
  5
3AE
330
3A9
100
AcDbEntity
  8
作図レイヤ
  6
Continuous
 62
     0
370
    -2
100
AcDbLine
 10
508.5013201236095
 20
146.7889662072087
 30
0.0
 11
508.5013201236095
 21
222.788966207209
 31
0.0
  0
INSERT
  5
3AF
330
3A9
100
AcDbEntity
  8
作図レイヤ
 62
     0
370
    -2
100
AcDbBlockReference
  2
FXTIP_ARROW_S
 10
508.5013201236095
 20
144.7889662072087
 30
0.0
 41
2.0
 42
2.0
 43
2.0
 50
270.0
  0
INSERT
  5
3B0
330
3A9
100
AcDbEntity
  8
作図レイヤ
 62
     0
370
    -2
100
AcDbBlockReference
  2
FXTIP_ARROW_E
 10
508.5013201236095
 20
224.788966207209
 30
0.0
 41
2.0
 42
2.0
 43
2.0
 50
90.0
  0
MTEXT
  5
3B1
330
3A9
100
AcDbEntity
  8
作図レイヤ
 62
     7
370
    13
100
AcDbMText
 10
505.5013201236095
 20
184.7889662072088
 30
0.0
 40
4.0
 41
0.0
 46
0.0
 71
     5
 72
     1
  1
\A1;80
  7
ＭＳ 明朝
 11
0.0
 21
1.0
 31
0.0
 73
     1
 44
1.0
  0
POINT
  5
3B2
330
3A9
100
AcDbEntity
  8
Defpoints
 62
     0
100
AcDbPoint
 10
593.0323026277468
 20
144.7889662072087
 30
0.0
  0
POINT
  5
937
330
3A9
100
AcDbEntity
  8
Defpoints
 62
     0
100
AcDbPoint
 10
593.0323026277468
 20
224.788966207209
 30
0.0
  0
POINT
  5
938
330
3A9
100
AcDbEntity
  8
Defpoints
 62
     0
100
AcDbPoint
 10
508.5013201236095
 20
224.788966207209
 30
0.0
  0
ENDBLK
  5
3AB
330
3A9
100
AcDbEntity
  8
0
100
AcDbBlockEnd
  0
BLOCK
  5
3B5
330
3B4
100
AcDbEntity
  8
0
100
AcDbBlockBegin
  2
*D33
 70
     1
 10
0.0
 20
0.0
 30
0.0
  3
*D33
  1

  0
LINE
  5
3B7
330
3B4
100
AcDbEntity
  8
作図レイヤ
  6
Continuous
 62
     0
370
    -2
100
AcDbLine
 10
646.232302627747
 20
150.7889662072087
 30
0.0
 11
635.6862912218938
 21
150.7889662072087
 31
0.0
  0
LINE
  5
3B8
330
3B4
100
AcDbEntity
  8
作図レイヤ
  6
Continuous
 62
     0
370
    -2
100
AcDbLine
 10
646.232302627747
 20
218.7889662072087
 30
0.0
 11
635.6862912218938
 21
218.7889662072087
 31
0.0
  0
LINE
  5
3B9
330
3B4
100
AcDbEntity
  8
作図レイヤ
  6
Continuous
 62
     0
370
    -2
100
AcDbLine
 10
636.6862912218938
 20
152.7889662072087
 30
0.0
 11
636.6862912218938
 21
216.7889662072087
 31
0.0
  0
INSERT
  5
3BA
330
3B4
100
AcDbEntity
  8
作図レイヤ
 62
     0
370
    -2
100
AcDbBlockReference
  2
FXTIP_ARROW_S
 10
636.6862912218938
 20
150.7889662072087
 30
0.0
 41
2.0
 42
2.0
 43
2.0
 50
270.0
  0
INSERT
  5
3BB
330
3B4
100
AcDbEntity
  8
作図レイヤ
 62
     0
370
    -2
100
AcDbBlockReference
  2
FXTIP_ARROW_E
 10
636.6862912218938
 20
218.7889662072087
 30
0.0
 41
2.0
 42
2.0
 43
2.0
 50
90.0
  0
MTEXT
  5
3BC
330
3B4
100
AcDbEntity
  8
作図レイヤ
 62
     7
370
    13
100
AcDbMText
 10
633.6862912218938
 20
184.7889662072087
 30
0.0
 40
4.0
 41
0.0
 46
0.0
 71
     5
 72
     1
  1
\A1;68
  7
ＭＳ 明朝
 11
0.0
 21
1.0
 31
0.0
 73
     1
 44
1.0
  0
POINT
  5
3BD
330
3B4
100
AcDbEntity
  8
Defpoints
 62
     0
100
AcDbPoint
 10
647.232302627747
 20
150.7889662072087
 30
0.0
  0
POINT
  5
939
330
3B4
100
AcDbEntity
  8
Defpoints
 62
     0
100
AcDbPoint
 10
647.232302627747
 20
218.7889662072087
 30
0.0
  0
POINT
  5
93A
330
3B4
100
AcDbEntity
  8
Defpoints
 62
     0
100
AcDbPoint
 10
636.6862912218938
 20
218.7889662072087
 30
0.0
  0
ENDBLK
  5
3B6
330
3B4
100
AcDbEntity
  8
0
100
AcDbBlockEnd
  0
BLOCK
  5
3C1
330
3C0
100
AcDbEntity
  8
0
100
AcDbBlockBegin
  2
*D34
 70
     1
 10
0.0
 20
0.0
 30
0.0
  3
*D34
  1

  0
LINE
  5
3C3
330
3C0
100
AcDbEntity
  8
作図レイヤ
  6
Continuous
 62
     0
370
    -2
100
AcDbLine
 10
658.0323026277468
 20
213.7889662072087
 30
0.0
 11
658.0323026277468
 21
262.8486434761035
 31
0.0
  0
LINE
  5
3C4
330
3C0
100
AcDbEntity
  8
作図レイヤ
  6
Continuous
 62
     0
370
    -2
100
AcDbLine
 10
708.0323026277465
 20
196.7889662072087
 30
0.0
 11
708.0323026277465
 21
262.8486434761035
 31
0.0
  0
LINE
  5
3C5
330
3C0
100
AcDbEntity
  8
作図レイヤ
  6
Continuous
 62
     0
370
    -2
100
AcDbLine
 10
660.0323026277468
 20
261.8486434761035
 30
0.0
 11
706.0323026277465
 21
261.8486434761035
 31
0.0
  0
INSERT
  5
3C6
330
3C0
100
AcDbEntity
  8
作図レイヤ
 62
     0
370
    -2
100
AcDbBlockReference
  2
FXTIP_ARROW_S
 10
658.0323026277468
 20
261.8486434761035
 30
0.0
 41
2.0
 42
2.0
 43
2.0
 50
180.0
  0
INSERT
  5
3C7
330
3C0
100
AcDbEntity
  8
作図レイヤ
 62
     0
370
    -2
100
AcDbBlockReference
  2
FXTIP_ARROW_E
 10
708.0323026277465
 20
261.8486434761035
 30
0.0
 41
2.0
 42
2.0
 43
2.0
  0
MTEXT
  5
3C8
330
3C0
100
AcDbEntity
  8
作図レイヤ
 62
     7
370
    13
100
AcDbMText
 10
683.0323026277467
 20
264.8486434761035
 30
0.0
 40
4.0
 41
0.0
 46
0.0
 71
     5
 72
     1
  1
\A1;50
  7
ＭＳ 明朝
 73
     1
 44
1.0
  0
POINT
  5
93B
330
3C0
100
AcDbEntity
  8
Defpoints
 62
     0
100
AcDbPoint
 10
658.0323026277468
 20
212.7889662072087
 30
0.0
  0
POINT
  5
93C
330
3C0
100
AcDbEntity
  8
Defpoints
 62
     0
100
AcDbPoint
 10
708.0323026277465
 20
195.7889662072087
 30
0.0
  0
POINT
  5
93D
330
3C0
100
AcDbEntity
  8
Defpoints
 62
     0
100
AcDbPoint
 10
708.0323026277465
 20
261.8486434761035
 30
0.0
  0
ENDBLK
  5
3C2
330
3C0
100
AcDbEntity
  8
0
100
AcDbBlockEnd
  0
BLOCK
  5
405
330
404
100
AcDbEntity
  8
0
100
AcDbBlockBegin
  2
*D35
 70
     1
 10
0.0
 20
0.0
 30
0.0
  3
*D35
  1

  0
LINE
  5
407
330
404
100
AcDbEntity
  8
作図レイヤ
  6
Continuous
 62
     0
370
    -2
100
AcDbLine
 10
715.4343021698314
 20
169.2889662072088
 30
0.0
 11
731.8426324231862
 21
169.2889662072088
 31
0.0
  0
LINE
  5
408
330
404
100
AcDbEntity
  8
作図レイヤ
  6
Continuous
 62
     0
370
    -2
100
AcDbLine
 10
715.4343021698314
 20
200.2889662072087
 30
0.0
 11
731.8426324231862
 21
200.2889662072087
 31
0.0
  0
LINE
  5
409
330
404
100
AcDbEntity
  8
作図レイヤ
  6
Continuous
 62
     0
370
    -2
100
AcDbLine
 10
730.8426324231862
 20
171.2889662072088
 30
0.0
 11
730.8426324231862
 21
198.2889662072087
 31
0.0
  0
INSERT
  5
40A
330
404
100
AcDbEntity
  8
作図レイヤ
 62
     0
370
    -2
100
AcDbBlockReference
  2
FXTIP_ARROW_S
 10
730.8426324231862
 20
169.2889662072088
 30
0.0
 41
2.0
 42
2.0
 43
2.0
 50
270.0
  0
INSERT
  5
40B
330
404
100
AcDbEntity
  8
作図レイヤ
 62
     0
370
    -2
100
AcDbBlockReference
  2
FXTIP_ARROW_E
 10
730.8426324231862
 20
200.2889662072087
 30
0.0
 41
2.0
 42
2.0
 43
2.0
 50
90.0
  0
MTEXT
  5
40C
330
404
100
AcDbEntity
  8
作図レイヤ
 62
     7
370
    13
100
AcDbMText
 10
727.8426324231862
 20
184.7889662072087
 30
0.0
 40
4.0
 41
0.0
 46
0.0
 71
     5
 72
     1
  1
\A1;31
  7
ＭＳ 明朝
 11
0.0
 21
1.0
 31
0.0
 73
     1
 44
1.0
  0
POINT
  5
40D
330
404
100
AcDbEntity
  8
Defpoints
 62
     0
100
AcDbPoint
 10
714.4343021698314
 20
169.2889662072088
 30
0.0
  0
POINT
  5
40E
330
404
100
AcDbEntity
  8
Defpoints
 62
     0
100
AcDbPoint
 10
714.4343021698314
 20
200.2889662072087
 30
0.0
  0
POINT
  5
93E
330
404
100
AcDbEntity
  8
Defpoints
 62
     0
100
AcDbPoint
 10
730.8426324231862
 20
200.2889662072087
 30
0.0
  0
ENDBLK
  5
406
330
404
100
AcDbEntity
  8
0
100
AcDbBlockEnd
  0
BLOCK
  5
410
330
40F
100
AcDbEntity
  8
0
100
AcDbBlockBegin
  2
FXDIM039
 70
     0
 10
0.0
 20
0.0
 30
0.0
  3
FXDIM039
  1

  0
LINE
  5
413
330
40F
100
AcDbEntity
  8
作図レイヤ
  6
Continuous
 62
     4
370
    13
100
AcDbLine
 10
53.63757596350042
 20
203.9932999730667
 30
0.0
 11
48.9104696455627
 21
215.2253632626191
 31
0.0
  0
INSERT
  5
414
330
40F
100
AcDbEntity
  8
作図レイヤ
  6
Continuous
 62
     4
370
    13
100
AcDbBlockReference
  2
FXTIP_ARROW_S
 10
53.63757596350042
 20
203.9932999730667
 30
0.0
 41
2.0
 42
2.0
 50
292.8241926254658
  0
LINE
  5
415
330
40F
100
AcDbEntity
  8
作図レイヤ
  6
Continuous
 62
     4
370
    13
100
AcDbLine
 10
48.9104696455627
 20
215.2253632626191
 30
0.0
 11
26.9104696455627
 21
215.2253632626191
 31
0.0
  0
TEXT
  5
416
330
40F
100
AcDbEntity
  8
作図レイヤ
  6
Continuous
 62
     7
370
    25
100
AcDbText
 10
27.91469024555147
 20
216.7739241960421
 30
0.0
 40
2.666666666666667
  1
熱電対（K)
 41
1.024965800273598
  7
ＭＳ 明朝
 72
     1
 11
37.91046905517578
 21
216.2253570556641
 31
0.0
100
AcDbText
 73
     1
  0
ENDBLK
  5
411
330
40F
100
AcDbEntity
  8
0
100
AcDbBlockEnd
  0
BLOCK
  5
418
330
417
100
AcDbEntity
  8
0
100
AcDbBlockBegin
  2
FXDIM040
 70
     0
 10
0.0
 20
0.0
 30
0.0
  3
FXDIM040
  1

  0
LINE
  5
41B
330
417
100
AcDbEntity
  8
作図レイヤ
  6
Continuous
 62
     4
370
    13
100
AcDbLine
 10
49.25851727718799
 20
165.5683892072088
 30
0.0
 11
43.84777075756219
 21
171.6656690644035
 31
0.0
  0
INSERT
  5
41C
330
417
100
AcDbEntity
  8
作図レイヤ
  6
Continuous
 62
     4
370
    13
100
AcDbBlockReference
  2
FXTIP_ARROW_S
 10
49.25851727718799
 20
165.5683892072088
 30
0.0
 41
2.0
 42
2.0
 50
311.5859569170605
  0
LINE
  5
41D
330
417
100
AcDbEntity
  8
作図レイヤ
  6
Continuous
 62
     4
370
    13
100
AcDbLine
 10
43.84777075756219
 20
171.6656690644035
 30
0.0
 11
25.84777075756219
 21
171.6656690644035
 31
0.0
  0
TEXT
  5
41E
330
417
100
AcDbEntity
  8
作図レイヤ
  6
Continuous
 62
     7
370
    25
100
AcDbText
 10
26.85114764321852
 20
173.2142318132296
 30
0.0
 40
2.666666666666667
  1
ﾓｰﾀｹｰﾌﾞﾙ
 41
1.024965800273598
  7
ＭＳ 明朝
 72
     1
 11
34.84777069091797
 21
172.6656646728516
 31
0.0
100
AcDbText
 73
     1
  0
ENDBLK
  5
419
330
417
100
AcDbEntity
  8
0
100
AcDbBlockEnd
  0
BLOCK
  5
420
330
41F
100
AcDbEntity
  8
0
100
AcDbBlockBegin
  2
FXDIM041
 70
     0
 10
0.0
 20
0.0
 30
0.0
  3
FXDIM041
  1

  0
LINE
  5
423
330
41F
100
AcDbEntity
  8
作図レイヤ
  6
Continuous
 62
     4
370
    13
100
AcDbLine
 10
55.20818416844772
 20
184.7683892072089
 30
0.0
 11
47.68784732256117
 21
182.8746211672676
 31
0.0
  0
INSERT
  5
424
330
41F
100
AcDbEntity
  8
作図レイヤ
  6
Continuous
 62
     4
370
    13
100
AcDbBlockReference
  2
FXTIP_ARROW_S
 10
55.20818416844772
 20
184.7683892072089
 30
0.0
 41
2.0
 42
2.0
 50
14.13432284530488
  0
LINE
  5
425
330
41F
100
AcDbEntity
  8
作図レイヤ
  6
Continuous
 62
     4
370
    13
100
AcDbLine
 10
47.68784732256117
 20
182.8746211672676
 30
0.0
 11
23.68784732256117
 21
182.8746211672676
 31
0.0
  0
TEXT
  5
426
330
41F
100
AcDbEntity
  8
作図レイヤ
  6
Continuous
 62
     7
370
    25
100
AcDbText
 10
25.69206832782686
 20
188.4231856706514
 30
0.0
 40
2.666666666666667
  1
冷却ｴｱｰﾎｰｽ
 41
1.024965800273598
  7
ＭＳ 明朝
 72
     1
 11
35.68784713745117
 21
187.8746185302734
 31
0.0
100
AcDbText
 73
     1
  0
TEXT
  5
427
330
41F
100
AcDbEntity
  8
作図レイヤ
  6
Continuous
 62
     7
370
    25
100
AcDbText
 10
24.69249044686443
 20
184.4231856706514
 30
0.0
 40
2.666666666666667
  1
（外径φ6）
 41
1.024965800273598
  7
ＭＳ 明朝
 72
     1
 11
35.68784713745117
 21
183.8746185302734
 31
0.0
100
AcDbText
 73
     1
  0
ENDBLK
  5
421
330
41F
100
AcDbEntity
  8
0
100
AcDbBlockEnd
  0
BLOCK
  5
8A7
330
8A6
100
AcDbEntity
  8
0
100
AcDbBlockBegin
  2
*D39
 70
     1
 10
0.0
 20
0.0
 30
0.0
  3
*D39
  1

  0
LINE
  5
8A9
330
8A6
100
AcDbEntity
  8
作図レイヤ
  6
Continuous
 62
     0
370
    -2
100
AcDbLine
 10
-253.3465883420314
 20
141.7683892072088
 30
0.0
 11
-168.8156058378941
 21
141.7683892072088
 31
0.0
  0
LINE
  5
8AA
330
8A6
100
AcDbEntity
  8
作図レイヤ
  6
Continuous
 62
     0
370
    -2
100
AcDbLine
 10
-253.3465883420314
 20
221.7683892072091
 30
0.0
 11
-168.8156058378941
 21
221.7683892072091
 31
0.0
  0
LINE
  5
8AB
330
8A6
100
AcDbEntity
  8
作図レイヤ
  6
Continuous
 62
     0
370
    -2
100
AcDbLine
 10
-169.8156058378941
 20
143.7683892072088
 30
0.0
 11
-169.8156058378941
 21
219.7683892072091
 31
0.0
  0
INSERT
  5
8AC
330
8A6
100
AcDbEntity
  8
作図レイヤ
 62
     0
370
    -2
100
AcDbBlockReference
  2
FXTIP_ARROW_S
 10
-169.8156058378941
 20
141.7683892072088
 30
0.0
 41
2.0
 42
2.0
 43
2.0
 50
270.0
  0
INSERT
  5
8AD
330
8A6
100
AcDbEntity
  8
作図レイヤ
 62
     0
370
    -2
100
AcDbBlockReference
  2
FXTIP_ARROW_E
 10
-169.8156058378941
 20
221.7683892072091
 30
0.0
 41
2.0
 42
2.0
 43
2.0
 50
90.0
  0
MTEXT
  5
8AE
330
8A6
100
AcDbEntity
  8
作図レイヤ
 62
     7
370
    13
100
AcDbMText
 10
-172.8156058378941
 20
181.7683892072089
 30
0.0
 40
4.0
 41
0.0
 46
0.0
 71
     5
 72
     1
  1
\A1;80
  7
ＭＳ 明朝
 11
0.0
 21
1.0
 31
0.0
 73
     1
 44
1.0
  0
POINT
  5
8AF
330
8A6
100
AcDbEntity
  8
Defpoints
 62
     0
100
AcDbPoint
 10
-254.3465883420314
 20
141.7683892072088
 30
0.0
  0
POINT
  5
8B0
330
8A6
100
AcDbEntity
  8
Defpoints
 62
     0
100
AcDbPoint
 10
-254.3465883420314
 20
221.7683892072091
 30
0.0
  0
POINT
  5
8B1
330
8A6
100
AcDbEntity
  8
Defpoints
 62
     0
100
AcDbPoint
 10
-169.8156058378941
 20
221.7683892072091
 30
0.0
  0
ENDBLK
  5
8A8
330
8A6
100
AcDbEntity
  8
0
100
AcDbBlockEnd
  0
BLOCK
  5
8B3
330
8B2
100
AcDbEntity
  8
0
100
AcDbBlockBegin
  2
*D40
 70
     1
 10
0.0
 20
0.0
 30
0.0
  3
*D40
  1

  0
LINE
  5
8B5
330
8B2
100
AcDbEntity
  8
作図レイヤ
  6
Continuous
 62
     0
370
    -2
100
AcDbLine
 10
-307.5465883420315
 20
147.7683892072088
 30
0.0
 11
-297.0005769361784
 21
147.7683892072088
 31
0.0
  0
LINE
  5
8B6
330
8B2
100
AcDbEntity
  8
作図レイヤ
  6
Continuous
 62
     0
370
    -2
100
AcDbLine
 10
-307.5465883420315
 20
215.7683892072088
 30
0.0
 11
-297.0005769361784
 21
215.7683892072088
 31
0.0
  0
LINE
  5
8B7
330
8B2
100
AcDbEntity
  8
作図レイヤ
  6
Continuous
 62
     0
370
    -2
100
AcDbLine
 10
-298.0005769361784
 20
149.7683892072088
 30
0.0
 11
-298.0005769361784
 21
213.7683892072088
 31
0.0
  0
INSERT
  5
8B8
330
8B2
100
AcDbEntity
  8
作図レイヤ
 62
     0
370
    -2
100
AcDbBlockReference
  2
FXTIP_ARROW_S
 10
-298.0005769361784
 20
147.7683892072088
 30
0.0
 41
2.0
 42
2.0
 43
2.0
 50
270.0
  0
INSERT
  5
8B9
330
8B2
100
AcDbEntity
  8
作図レイヤ
 62
     0
370
    -2
100
AcDbBlockReference
  2
FXTIP_ARROW_E
 10
-298.0005769361784
 20
215.7683892072088
 30
0.0
 41
2.0
 42
2.0
 43
2.0
 50
90.0
  0
MTEXT
  5
8BA
330
8B2
100
AcDbEntity
  8
作図レイヤ
 62
     7
370
    13
100
AcDbMText
 10
-301.0005769361784
 20
181.7683892072088
 30
0.0
 40
4.0
 41
0.0
 46
0.0
 71
     5
 72
     1
  1
\A1;68
  7
ＭＳ 明朝
 11
0.0
 21
1.0
 31
0.0
 73
     1
 44
1.0
  0
POINT
  5
8BB
330
8B2
100
AcDbEntity
  8
Defpoints
 62
     0
100
AcDbPoint
 10
-308.5465883420315
 20
147.7683892072088
 30
0.0
  0
POINT
  5
8BC
330
8B2
100
AcDbEntity
  8
Defpoints
 62
     0
100
AcDbPoint
 10
-308.5465883420315
 20
215.7683892072088
 30
0.0
  0
POINT
  5
8BD
330
8B2
100
AcDbEntity
  8
Defpoints
 62
     0
100
AcDbPoint
 10
-298.0005769361784
 20
215.7683892072088
 30
0.0
  0
ENDBLK
  5
8B4
330
8B2
100
AcDbEntity
  8
0
100
AcDbBlockEnd
  0
BLOCK
  5
8BF
330
8BE
100
AcDbEntity
  8
0
100
AcDbBlockBegin
  2
*D41
 70
     1
 10
0.0
 20
0.0
 30
0.0
  3
*D41
  1

  0
LINE
  5
8C1
330
8BE
100
AcDbEntity
  8
作図レイヤ
  6
Continuous
 62
     0
370
    -2
100
AcDbLine
 10
-376.748587884116
 20
166.2683892072089
 30
0.0
 11
-393.1569181374707
 21
166.2683892072089
 31
0.0
  0
LINE
  5
8C2
330
8BE
100
AcDbEntity
  8
作図レイヤ
  6
Continuous
 62
     0
370
    -2
100
AcDbLine
 10
-376.748587884116
 20
197.2683892072088
 30
0.0
 11
-393.1569181374707
 21
197.2683892072088
 31
0.0
  0
LINE
  5
8C3
330
8BE
100
AcDbEntity
  8
作図レイヤ
  6
Continuous
 62
     0
370
    -2
100
AcDbLine
 10
-392.1569181374707
 20
168.2683892072089
 30
0.0
 11
-392.1569181374707
 21
195.2683892072088
 31
0.0
  0
INSERT
  5
8C4
330
8BE
100
AcDbEntity
  8
作図レイヤ
 62
     0
370
    -2
100
AcDbBlockReference
  2
FXTIP_ARROW_S
 10
-392.1569181374707
 20
166.2683892072089
 30
0.0
 41
2.0
 42
2.0
 43
2.0
 50
270.0
  0
INSERT
  5
8C5
330
8BE
100
AcDbEntity
  8
作図レイヤ
 62
     0
370
    -2
100
AcDbBlockReference
  2
FXTIP_ARROW_E
 10
-392.1569181374707
 20
197.2683892072088
 30
0.0
 41
2.0
 42
2.0
 43
2.0
 50
90.0
  0
MTEXT
  5
8C6
330
8BE
100
AcDbEntity
  8
作図レイヤ
 62
     7
370
    13
100
AcDbMText
 10
-395.1569181374707
 20
181.7683892072089
 30
0.0
 40
4.0
 41
0.0
 46
0.0
 71
     5
 72
     1
  1
\A1;31
  7
ＭＳ 明朝
 11
0.0
 21
1.0
 31
0.0
 73
     1
 44
1.0
  0
POINT
  5
8C7
330
8BE
100
AcDbEntity
  8
Defpoints
 62
     0
100
AcDbPoint
 10
-375.748587884116
 20
166.2683892072089
 30
0.0
  0
POINT
  5
8C8
330
8BE
100
AcDbEntity
  8
Defpoints
 62
     0
100
AcDbPoint
 10
-375.748587884116
 20
197.2683892072088
 30
0.0
  0
POINT
  5
8C9
330
8BE
100
AcDbEntity
  8
Defpoints
 62
     0
100
AcDbPoint
 10
-392.1569181374707
 20
197.2683892072088
 30
0.0
  0
ENDBLK
  5
8C0
330
8BE
100
AcDbEntity
  8
0
100
AcDbBlockEnd
  0
BLOCK
  5
8E3
330
8E2
100
AcDbEntity
  8
0
100
AcDbBlockBegin
  2
*D42
 70
     1
 10
0.0
 20
0.0
 30
0.0
  3
*D42
  1

  0
LINE
  5
8E5
330
8E2
100
AcDbEntity
  8
0
 62
     0
370
    -2
100
AcDbLine
 10
-369.346588342031
 20
193.7683892072088
 30
0.0
 11
-369.346588342031
 21
273.5090879219653
 31
0.0
  0
LINE
  5
8E6
330
8E2
100
AcDbEntity
  8
0
 62
     0
370
    -2
100
AcDbLine
 10
-319.3465883420314
 20
210.7683892072088
 30
0.0
 11
-319.3465883420314
 21
273.5090879219653
 31
0.0
  0
LINE
  5
8E7
330
8E2
100
AcDbEntity
  8
0
 62
     0
370
    -2
100
AcDbLine
 10
-367.346588342031
 20
272.5090879219653
 30
0.0
 11
-321.3465883420314
 21
272.5090879219653
 31
0.0
  0
INSERT
  5
8E8
330
8E2
100
AcDbEntity
  8
0
 62
     0
370
    -2
100
AcDbBlockReference
  2
FXTIP_ARROW_S
 10
-369.346588342031
 20
272.5090879219653
 30
0.0
 41
2.0
 42
2.0
 43
2.0
 50
180.0
  0
INSERT
  5
8E9
330
8E2
100
AcDbEntity
  8
0
 62
     0
370
    -2
100
AcDbBlockReference
  2
FXTIP_ARROW_E
 10
-319.3465883420314
 20
272.5090879219653
 30
0.0
 41
2.0
 42
2.0
 43
2.0
  0
MTEXT
  5
8EA
330
8E2
100
AcDbEntity
  8
0
 62
     0
100
AcDbMText
 10
-341.1112058039694
 20
275.5090879219653
 30
0.0
 40
4.0
 41
0.0
 46
0.0
 71
     5
 72
     1
  1
\A1;50
  7
ＭＳ 明朝
 73
     1
 44
1.0
  0
POINT
  5
8EB
330
8E2
100
AcDbEntity
  8
Defpoints
 62
     0
100
AcDbPoint
 10
-369.346588342031
 20
192.7683892072088
 30
0.0
  0
POINT
  5
8EC
330
8E2
100
AcDbEntity
  8
Defpoints
 62
     0
100
AcDbPoint
 10
-319.3465883420314
 20
209.7683892072088
 30
0.0
  0
POINT
  5
8ED
330
8E2
100
AcDbEntity
  8
Defpoints
 62
     0
100
AcDbPoint
 10
-319.3465883420314
 20
272.5090879219653
 30
0.0
  0
ENDBLK
  5
8E4
330
8E2
100
AcDbEntity
  8
0
100
AcDbBlockEnd
  0
BLOCK
  5
8F2
330
8F1
100
AcDbEntity
  8
0
100
AcDbBlockBegin
  2
*D43
 70
     1
 10
0.0
 20
0.0
 30
0.0
  3
*D43
  1

  0
LINE
  5
8F4
330
8F1
100
AcDbEntity
  8
0
 62
     0
370
    -2
100
AcDbLine
 10
-319.3465883420314
 20
210.7683892072088
 30
0.0
 11
-319.3465883420314
 21
273.8297356952446
 31
0.0
  0
LINE
  5
8F5
330
8F1
100
AcDbEntity
  8
0
 62
     0
370
    -2
100
AcDbLine
 10
-269.3465883420313
 20
239.2683892072081
 30
0.0
 11
-269.3465883420313
 21
273.8297356952446
 31
0.0
  0
LINE
  5
8F6
330
8F1
100
AcDbEntity
  8
0
 62
     0
370
    -2
100
AcDbLine
 10
-317.3465883420314
 20
272.8297356952446
 30
0.0
 11
-271.3465883420313
 21
272.8297356952446
 31
0.0
  0
INSERT
  5
8F7
330
8F1
100
AcDbEntity
  8
0
 62
     0
370
    -2
100
AcDbBlockReference
  2
FXTIP_ARROW_S
 10
-319.3465883420314
 20
272.8297356952446
 30
0.0
 41
2.0
 42
2.0
 43
2.0
 50
180.0
  0
INSERT
  5
8F8
330
8F1
100
AcDbEntity
  8
0
 62
     0
370
    -2
100
AcDbBlockReference
  2
FXTIP_ARROW_E
 10
-269.3465883420313
 20
272.8297356952446
 30
0.0
 41
2.0
 42
2.0
 43
2.0
  0
MTEXT
  5
8F9
330
8F1
100
AcDbEntity
  8
0
 62
     0
100
AcDbMText
 10
-292.0520964922287
 20
275.8297356952446
 30
0.0
 40
4.0
 41
0.0
 46
0.0
 71
     5
 72
     1
  1
\A1;50
  7
ＭＳ 明朝
 73
     1
 44
1.0
  0
POINT
  5
8FA
330
8F1
100
AcDbEntity
  8
Defpoints
 62
     0
100
AcDbPoint
 10
-319.3465883420314
 20
209.7683892072088
 30
0.0
  0
POINT
  5
8FB
330
8F1
100
AcDbEntity
  8
Defpoints
 62
     0
100
AcDbPoint
 10
-269.3465883420313
 20
238.2683892072081
 30
0.0
  0
POINT
  5
8FC
330
8F1
100
AcDbEntity
  8
Defpoints
 62
     0
100
AcDbPoint
 10
-269.3465883420313
 20
272.8297356952446
 30
0.0
  0
ENDBLK
  5
8F3
330
8F1
100
AcDbEntity
  8
0
100
AcDbBlockEnd
  0
BLOCK
  5
901
330
900
100
AcDbEntity
  8
0
100
AcDbBlockBegin
  2
*D44
 70
     1
 10
0.0
 20
0.0
 30
0.0
  3
*D44
  1

  0
LINE
  5
903
330
900
100
AcDbEntity
  8
0
 62
     0
370
    -2
100
AcDbLine
 10
-269.3465883420313
 20
239.2683892072081
 30
0.0
 11
-269.3465883420313
 21
259.7298286152771
 31
0.0
  0
LINE
  5
904
330
900
100
AcDbEntity
  8
0
 62
     0
370
    -2
100
AcDbLine
 10
-254.3465883420314
 20
239.2683892072081
 30
0.0
 11
-254.3465883420314
 21
259.7298286152771
 31
0.0
  0
LINE
  5
905
330
900
100
AcDbEntity
  8
0
 62
     0
370
    -2
100
AcDbLine
 10
-267.3465883420313
 20
258.7298286152771
 30
0.0
 11
-256.3465883420314
 21
258.7298286152771
 31
0.0
  0
INSERT
  5
906
330
900
100
AcDbEntity
  8
0
 62
     0
370
    -2
100
AcDbBlockReference
  2
FXTIP_ARROW_S
 10
-269.3465883420313
 20
258.7298286152771
 30
0.0
 41
2.0
 42
2.0
 43
2.0
 50
180.0
  0
INSERT
  5
907
330
900
100
AcDbEntity
  8
0
 62
     0
370
    -2
100
AcDbBlockReference
  2
FXTIP_ARROW_E
 10
-254.3465883420314
 20
258.7298286152771
 30
0.0
 41
2.0
 42
2.0
 43
2.0
  0
MTEXT
  5
908
330
900
100
AcDbEntity
  8
0
 62
     0
100
AcDbMText
 10
-261.8465883420313
 20
261.7298286152771
 30
0.0
 40
4.0
 41
0.0
 46
0.0
 71
     5
 72
     1
  1
\A1;15
  7
ＭＳ 明朝
 73
     1
 44
1.0
  0
POINT
  5
909
330
900
100
AcDbEntity
  8
Defpoints
 62
     0
100
AcDbPoint
 10
-269.3465883420313
 20
238.2683892072081
 30
0.0
  0
POINT
  5
90A
330
900
100
AcDbEntity
  8
Defpoints
 62
     0
100
AcDbPoint
 10
-254.3465883420314
 20
238.2683892072081
 30
0.0
  0
POINT
  5
90B
330
900
100
AcDbEntity
  8
Defpoints
 62
     0
100
AcDbPoint
 10
-254.3465883420314
 20
258.7298286152771
 30
0.0
  0
ENDBLK
  5
902
330
900
100
AcDbEntity
  8
0
100
AcDbBlockEnd
  0
BLOCK
  5
910
330
90F
100
AcDbEntity
  8
0
100
AcDbBlockBegin
  2
*D45
 70
     1
 10
0.0
 20
0.0
 30
0.0
  3
*D45
  1

  0
LINE
  5
912
330
90F
100
AcDbEntity
  8
0
 62
     0
370
    -2
100
AcDbLine
 10
-57.84658834203128
 20
221.7683891990609
 30
0.0
 11
-57.84658834203128
 21
274.150383468524
 31
0.0
  0
LINE
  5
913
330
90F
100
AcDbEntity
  8
0
 62
     0
370
    -2
100
AcDbLine
 10
-269.3465883420313
 20
239.2683892072081
 30
0.0
 11
-269.3465883420313
 21
274.150383468524
 31
0.0
  0
LINE
  5
914
330
90F
100
AcDbEntity
  8
0
 62
     0
370
    -2
100
AcDbLine
 10
-59.84658834203128
 20
273.150383468524
 30
0.0
 11
-267.3465883420313
 21
273.150383468524
 31
0.0
  0
INSERT
  5
915
330
90F
100
AcDbEntity
  8
0
 62
     0
370
    -2
100
AcDbBlockReference
  2
FXTIP_ARROW_S
 10
-57.84658834203128
 20
273.150383468524
 30
0.0
 41
2.0
 42
2.0
 43
2.0
  0
INSERT
  5
916
330
90F
100
AcDbEntity
  8
0
 62
     0
370
    -2
100
AcDbBlockReference
  2
FXTIP_ARROW_E
 10
-269.3465883420313
 20
273.150383468524
 30
0.0
 41
2.0
 42
2.0
 43
2.0
 50
180.0
  0
MTEXT
  5
917
330
90F
100
AcDbEntity
  8
0
 62
     0
100
AcDbMText
 10
-166.037521593444
 20
276.150383468524
 30
0.0
 40
4.0
 41
0.0
 46
0.0
 71
     5
 72
     1
  1
\A1;211.5
  7
ＭＳ 明朝
 73
     1
 44
1.0
  0
POINT
  5
918
330
90F
100
AcDbEntity
  8
Defpoints
 62
     0
100
AcDbPoint
 10
-57.84658834203128
 20
220.7683891990609
 30
0.0
  0
POINT
  5
919
330
90F
100
AcDbEntity
  8
Defpoints
 62
     0
100
AcDbPoint
 10
-269.3465883420313
 20
238.2683892072081
 30
0.0
  0
POINT
  5
91A
330
90F
100
AcDbEntity
  8
Defpoints
 62
     0
100
AcDbPoint
 10
-269.3465883420313
 20
273.150383468524
 30
0.0
  0
ENDBLK
  5
911
330
90F
100
AcDbEntity
  8
0
100
AcDbBlockEnd
  0
BLOCK
  5
91F
330
91E
100
AcDbEntity
  8
0
100
AcDbBlockBegin
  2
*D46
 70
     1
 10
0.0
 20
0.0
 30
0.0
  3
*D46
  1

  0
LINE
  5
921
330
91E
100
AcDbEntity
  8
0
 62
     0
370
    -2
100
AcDbLine
 10
-319.3465883420314
 20
210.7683892072088
 30
0.0
 11
-319.3465883420331
 21
288.2588854928125
 31
0.0
  0
LINE
  5
922
330
91E
100
AcDbEntity
  8
0
 62
     0
370
    -2
100
AcDbLine
 10
-57.8465883420313
 20
221.7683891990609
 30
0.0
 11
-57.84658834203275
 21
288.2588854928183
 31
0.0
  0
LINE
  5
923
330
91E
100
AcDbEntity
  8
0
 62
     0
370
    -2
100
AcDbLine
 10
-317.3465883420331
 20
287.2588854928125
 30
0.0
 11
-59.84658834203273
 21
287.2588854928182
 31
0.0
  0
INSERT
  5
924
330
91E
100
AcDbEntity
  8
0
 62
     0
370
    -2
100
AcDbBlockReference
  2
FXTIP_ARROW_S
 10
-319.3465883420331
 20
287.2588854928125
 30
0.0
 41
2.0
 42
2.0
 43
2.0
 50
180.0000000000013
  0
INSERT
  5
925
330
91E
100
AcDbEntity
  8
0
 62
     0
370
    -2
100
AcDbBlockReference
  2
FXTIP_ARROW_E
 10
-57.84658834203273
 20
287.2588854928183
 30
0.0
 41
2.0
 42
2.0
 43
2.0
 50
0.0000000000012704
  0
MTEXT
  5
926
330
91E
100
AcDbEntity
  8
0
 62
     0
100
AcDbMText
 10
-188.1622179497192
 20
290.2588854928154
 30
0.0
 40
4.0
 41
0.0
 46
0.0
 71
     5
 72
     1
  1
\A1;261.5
  7
ＭＳ 明朝
 73
     1
 44
1.0
  0
POINT
  5
927
330
91E
100
AcDbEntity
  8
Defpoints
 62
     0
100
AcDbPoint
 10
-319.3465883420314
 20
209.7683892072088
 30
0.0
  0
POINT
  5
928
330
91E
100
AcDbEntity
  8
Defpoints
 62
     0
100
AcDbPoint
 10
-57.84658834203128
 20
220.7683891990609
 30
0.0
  0
POINT
  5
929
330
91E
100
AcDbEntity
  8
Defpoints
 62
     0
100
AcDbPoint
 10
-57.84658834203275
 20
287.2588854928183
 30
0.0
  0
ENDBLK
  5
920
330
91E
100
AcDbEntity
  8
0
100
AcDbBlockEnd
  0
BLOCK
  5
97A
330
979
100
AcDbEntity
  8
0
100
AcDbBlockBegin
  2
*D47
 70
     1
 10
0.0
 20
0.0
 30
0.0
  3
*D47
  1

  0
LINE
  5
97C
330
979
100
AcDbEntity
  8
作図レイヤ
  6
Continuous
 62
     0
370
    -2
100
AcDbLine
 10
-446.4830070073821
 20
233.0482786177335
 30
0.0
 11
-438.7108528887613
 21
246.707582344502
 31
0.0
  0
LINE
  5
97D
330
979
100
AcDbEntity
  8
作図レイヤ
  6
Continuous
 62
     0
370
    -2
100
AcDbLine
 10
-504.8395984789326
 20
130.4884997966842
 30
0.0
 11
-505.8286932496368
 21
128.7501984607342
 31
0.0
  0
MTEXT
  5
97E
330
979
100
AcDbEntity
  8
作図レイヤ
 62
     7
370
    13
100
AcDbMText
 10
-444.69705649278
 20
242.4149747698432
 30
0.0
 40
4.0
 41
0.0
 46
0.0
 71
     5
 72
     1
  1
\A1;%%c114
  7
ＭＳ 明朝
 11
0.4945473853521228
 21
0.8691506679749944
 31
0.0
 73
     1
 44
1.0
  0
LINE
  5
97F
330
979
100
AcDbEntity
  8
作図レイヤ
  6
Continuous
 62
     0
370
    -2
100
AcDbLine
 10
-503.8505037082284
 20
132.2268011326341
 30
0.0
 11
-447.4721017780864
 21
231.3099772817835
 31
0.0
  0
INSERT
  5
980
330
979
100
AcDbEntity
  8
作図レイヤ
 62
     0
370
    -2
100
AcDbBlockReference
  2
FXTIP_ARROW_S
 10
-503.8505037082284
 20
132.2268011326341
 30
0.0
 41
2.0
 42
2.0
 43
2.0
 50
60.36009115547901
  0
INSERT
  5
981
330
979
100
AcDbEntity
  8
作図レイヤ
 62
     0
370
    -2
100
AcDbBlockReference
  2
FXTIP_ARROW_E
 10
-447.4721017780864
 20
231.3099772817835
 30
0.0
 41
2.0
 42
2.0
 43
2.0
 50
240.360091155479
  0
POINT
  5
982
330
979
100
AcDbEntity
  8
Defpoints
 62
     0
100
AcDbPoint
 10
-447.4721017780864
 20
231.3099772817835
 30
0.0
  0
POINT
  5
983
330
979
100
AcDbEntity
  8
Defpoints
 62
     0
100
AcDbPoint
 10
-503.8505037082284
 20
132.2268011326341
 30
0.0
  0
ENDBLK
  5
97B
330
979
100
AcDbEntity
  8
0
100
AcDbBlockEnd
  0
BLOCK
  5
985
330
984
100
AcDbEntity
  8
0
100
AcDbBlockBegin
  2
*D48
 70
     1
 10
0.0
 20
0.0
 30
0.0
  3
*D48
  1

  0
LINE
  5
987
330
984
100
AcDbEntity
  8
作図レイヤ
  6
Continuous
 62
     0
370
    -2
100
AcDbLine
 10
-493.6971915834907
 20
229.4727570757713
 30
0.0
 11
-500.0706126088586
 21
246.3302584646389
 31
0.0
  0
LINE
  5
988
330
984
100
AcDbEntity
  8
作図レイヤ
  6
Continuous
 62
     0
370
    -2
100
AcDbLine
 10
-457.6254139028241
 20
134.0640213386463
 30
0.0
 11
-456.9181241443796
 21
132.193261814389
 31
0.0
  0
MTEXT
  5
989
330
984
100
AcDbEntity
  8
作図レイヤ
 62
     7
370
    13
100
AcDbMText
 10
-495.3648328260101
 20
242.5929608452284
 30
0.0
 40
4.0
 41
0.0
 46
0.0
 71
     5
 72
     1
  1
\A1;%%c98
  7
ＭＳ 明朝
 11
0.3536448792222222
 21
-0.9353797621286768
 31
0.0
 73
     1
 44
1.0
  0
LINE
  5
98A
330
984
100
AcDbEntity
  8
作図レイヤ
  6
Continuous
 62
     0
370
    -2
100
AcDbLine
 10
-458.3327036612685
 20
135.9347808629037
 30
0.0
 11
-492.9899018250463
 21
227.601997551514
 31
0.0
  0
INSERT
  5
98B
330
984
100
AcDbEntity
  8
作図レイヤ
 62
     0
370
    -2
100
AcDbBlockReference
  2
FXTIP_ARROW_S
 10
-458.3327036612685
 20
135.9347808629037
 30
0.0
 41
2.0
 42
2.0
 43
2.0
 50
110.7104149982049
  0
INSERT
  5
98C
330
984
100
AcDbEntity
  8
作図レイヤ
 62
     0
370
    -2
100
AcDbBlockReference
  2
FXTIP_ARROW_E
 10
-492.9899018250463
 20
227.601997551514
 30
0.0
 41
2.0
 42
2.0
 43
2.0
 50
290.7104149982049
  0
POINT
  5
98D
330
984
100
AcDbEntity
  8
Defpoints
 62
     0
100
AcDbPoint
 10
-492.9899018250463
 20
227.601997551514
 30
0.0
  0
POINT
  5
98E
330
984
100
AcDbEntity
  8
Defpoints
 62
     0
100
AcDbPoint
 10
-458.3327036612685
 20
135.9347808629037
 30
0.0
  0
ENDBLK
  5
986
330
984
100
AcDbEntity
  8
0
100
AcDbBlockEnd
  0
ENDSEC
  0
SECTION
  2
ENTITIES
  0
LINE
  5
59E
330
1F
100
AcDbEntity
  8
作図レイヤ
  6
Continuous
 62
     7
370
    13
100
AcDbLine
 10
-267.8465883420315
 20
181.7683892072079
 30
0.0
 11
-267.8464883420316
 21
181.7683892072079
 31
0.0
  0
LINE
  5
59F
330
1F
100
AcDbEntity
  8
作図レイヤ
  6
Continuous
 62
     7
370
    25
100
AcDbLine
 10
-58.84658834203117
 20
141.7683892072088
 30
0.0
 11
-254.3465883420314
 21
141.7683892072088
 31
0.0
  0
LINE
  5
5A0
330
1F
100
AcDbEntity
  8
作図レイヤ
  6
Continuous
 62
     7
370
    25
100
AcDbLine
 10
-104.8465883420324
 20
181.768389207206
 30
0.0
 11
-104.8465883420325
 21
221.7683892057391
 31
0.0
  0
LINE
  5
5A1
330
1F
100
AcDbEntity
  8
作図レイヤ
  6
Continuous
 62
     7
370
    25
100
AcDbLine
 10
-104.8465883420324
 20
141.7683892072088
 30
0.0
 11
-104.8465883420324
 21
181.7683892072088
 31
0.0
  0
LINE
  5
5A2
330
1F
100
AcDbEntity
  8
作図レイヤ
  6
Continuous
 62
     7
370
    25
100
AcDbLine
 10
-105.8465883420317
 20
181.7683892072088
 30
0.0
 11
-105.8465883420317
 21
141.7683892072088
 31
0.0
  0
LINE
  5
5A3
330
1F
100
AcDbEntity
  8
作図レイヤ
  6
Continuous
 62
     7
370
    25
100
AcDbLine
 10
-105.8465883420326
 20
221.7683892072088
 30
0.0
 11
-105.8465883420317
 21
181.7683892072088
 31
0.0
  0
LINE
  5
5A4
330
1F
100
AcDbEntity
  8
作図レイヤ
  6
Continuous
 62
     7
370
    25
100
AcDbLine
 10
-315.3465883420312
 20
181.7683892072088
 30
0.0
 11
-315.3465883420315
 21
213.7683892072088
 31
0.0
  0
LINE
  5
5A5
330
1F
100
AcDbEntity
  8
作図レイヤ
  6
Continuous
 62
     7
370
    25
100
AcDbLine
 10
-313.3465883420318
 20
215.7683892072088
 30
0.0
 11
-315.3465883420317
 21
213.7683892072091
 31
0.0
  0
LINE
  5
5A7
330
1F
100
AcDbEntity
  8
作図レイヤ
  6
Continuous
 62
     7
370
    25
100
AcDbLine
 10
-254.8465883420314
 20
238.7683892072081
 30
0.0
 11
-268.8465883420313
 21
238.7683892072081
 31
0.0
  0
LINE
  5
5A8
102
{ACAD_REACTORS
330
8FF
102
}
330
1F
100
AcDbEntity
  8
作図レイヤ
  6
Continuous
 62
     7
370
    25
100
AcDbLine
 10
-254.3465883420314
 20
125.268389207208
 30
0.0
 11
-254.3465883420314
 21
238.2683892072081
 31
0.0
  0
LINE
  5
5A9
330
1F
100
AcDbEntity
  8
作図レイヤ
  6
Continuous
 62
     7
370
    25
100
AcDbLine
 10
-269.3465883420313
 20
125.268389207208
 30
0.0
 11
-269.3465883420313
 21
238.2683892072081
 31
0.0
  0
LINE
  5
5AA
330
1F
100
AcDbEntity
  8
作図レイヤ
  6
Continuous
 62
     7
370
    25
100
AcDbLine
 10
-269.3465883420313
 20
215.7683892072089
 30
0.0
 11
-308.5465883420315
 21
215.7683892072088
 31
0.0
  0
LINE
  5
5AB
102
{ACAD_REACTORS
330
8F0
330
8FF
330
90E
102
}
330
1F
100
AcDbEntity
  8
作図レイヤ
  6
Continuous
 62
     7
370
    25
100
AcDbLine
 10
-268.8465883420313
 20
238.7683892072081
 30
0.0
 11
-269.3465883420313
 21
238.2683892072081
 31
0.0
  0
LINE
  5
5AC
330
1F
100
AcDbEntity
  8
作図レイヤ
  6
Continuous
 62
     7
370
    25
100
AcDbLine
 10
-254.8465883420314
 20
238.7683892072081
 30
0.0
 11
-254.3465883420314
 21
238.2683892072081
 31
0.0
  0
LINE
  5
5AF
330
1F
100
AcDbEntity
  8
作図レイヤ
  6
Continuous
 62
     7
370
    25
100
AcDbLine
 10
-58.84658834203128
 20
221.7683891999431
 30
0.0
 11
-254.3465883420314
 21
221.7683892072091
 31
0.0
  0
LINE
  5
5B0
330
1F
100
AcDbEntity
  8
作図レイヤ
  6
Continuous
 62
     7
370
    25
100
AcDbLine
 10
-30.4264291014008
 20
165.5683892072088
 30
0.0
 11
-38.0440883420307
 21
165.5683892072089
 31
0.0
  0
LINE
  5
5B1
330
1F
100
AcDbEntity
  8
作図レイヤ
  6
Continuous
 62
     7
370
    25
100
AcDbLine
 10
-30.4264291014008
 20
155.9683892072089
 30
0.0
 11
-38.04408834203059
 21
155.9683892072088
 31
0.0
  0
LINE
  5
5B3
330
1F
100
AcDbEntity
  8
作図レイヤ
  6
Continuous
 62
     7
370
    25
100
AcDbLine
 10
-315.3465883420313
 20
181.7683892072088
 30
0.0
 11
-315.3465883420315
 21
149.7683892072088
 31
0.0
  0
LINE
  5
5B4
330
1F
100
AcDbEntity
  8
作図レイヤ
  6
Continuous
 62
     7
370
    25
100
AcDbLine
 10
-313.3465883420318
 20
147.7683892072088
 30
0.0
 11
-315.3465883420317
 21
149.7683892072086
 31
0.0
  0
LINE
  5
5B5
330
1F
100
AcDbEntity
  8
作図レイヤ
  6
Continuous
 62
     7
370
    25
100
AcDbLine
 10
-269.3465883420313
 20
147.7683892072087
 30
0.0
 11
-308.5465883420315
 21
147.7683892072088
 31
0.0
  0
LINE
  5
5B6
330
1F
100
AcDbEntity
  8
作図レイヤ
  6
Continuous
 62
     7
370
    25
100
AcDbLine
 10
-308.5465883420316
 20
181.7683892072088
 30
0.0
 11
-308.5465883420316
 21
147.7683892072088
 31
0.0
  0
LINE
  5
5B7
330
1F
100
AcDbEntity
  8
作図レイヤ
  6
Continuous
 62
     7
370
    25
100
AcDbLine
 10
-308.5465883420316
 20
181.7683892072088
 30
0.0
 11
-308.5465883420316
 21
215.7683892072088
 31
0.0
  0
LINE
  5
5B8
330
1F
100
AcDbEntity
  8
作図レイヤ
  6
Continuous
 62
     7
370
    25
100
AcDbLine
 10
-308.6465883420316
 20
147.7683892072088
 30
0.0
 11
-308.6465883420316
 21
181.7683892072088
 31
0.0
  0
LINE
  5
5B9
330
1F
100
AcDbEntity
  8
作図レイヤ
  6
Continuous
 62
     7
370
    25
100
AcDbLine
 10
-308.6465883420315
 20
215.7683892072088
 30
0.0
 11
-313.3465883420318
 21
215.7683892072088
 31
0.0
  0
LINE
  5
5BA
330
1F
100
AcDbEntity
  8
作図レイヤ
  6
Continuous
 62
     7
370
    25
100
AcDbLine
 10
-308.6465883420315
 20
147.7683892072088
 30
0.0
 11
-313.3465883420319
 21
147.7683892072088
 31
0.0
  0
LINE
  5
5BB
330
1F
100
AcDbEntity
  8
作図レイヤ
  6
Continuous
 62
     7
370
    25
100
AcDbLine
 10
-50.78408839976669
 20
167.2764313468315
 30
0.0
 11
-51.03408839976692
 21
153.7603470675862
 31
0.0
  0
LINE
  5
5BC
330
1F
100
AcDbEntity
  8
作図レイヤ
  6
Continuous
 62
     7
370
    25
100
AcDbLine
 10
-51.28408839976646
 20
167.2764313468315
 30
0.0
 11
-51.53408839976692
 21
153.7603470675862
 31
0.0
  0
LINE
  5
5BD
330
1F
100
AcDbEntity
  8
作図レイヤ
  6
Continuous
 62
     7
370
    25
100
AcDbLine
 10
-51.78408839976623
 20
167.2764313468315
 30
0.0
 11
-52.03408839976669
 21
153.7603470675862
 31
0.0
  0
LINE
  5
5BE
330
1F
100
AcDbEntity
  8
作図レイヤ
  6
Continuous
 62
     7
370
    25
100
AcDbLine
 10
-52.28408839976623
 20
167.2764313468315
 30
0.0
 11
-52.53408839976669
 21
153.7603470675861
 31
0.0
  0
LINE
  5
5BF
330
1F
100
AcDbEntity
  8
作図レイヤ
  6
Continuous
 62
     7
370
    25
100
AcDbLine
 10
-52.78408839976623
 20
167.2764313468315
 30
0.0
 11
-53.03408839976646
 21
153.7603470675862
 31
0.0
  0
LINE
  5
5C0
330
1F
100
AcDbEntity
  8
作図レイヤ
  6
Continuous
 62
     7
370
    25
100
AcDbLine
 10
-53.28408839976601
 20
167.2764313468315
 30
0.0
 11
-53.53408839976646
 21
153.7603470675862
 31
0.0
  0
LINE
  5
5C1
330
1F
100
AcDbEntity
  8
作図レイヤ
  6
Continuous
 62
     7
370
    25
100
AcDbLine
 10
-53.78408839976601
 20
167.2764313468315
 30
0.0
 11
-54.03408839976623
 21
153.7603470675862
 31
0.0
  0
LINE
  5
5C2
330
1F
100
AcDbEntity
  8
作図レイヤ
  6
Continuous
 62
     7
370
    25
100
AcDbLine
 10
-54.28408839976578
 20
167.2764313468315
 30
0.0
 11
-54.53408839976623
 21
153.7603470675862
 31
0.0
  0
LINE
  5
5C3
330
1F
100
AcDbEntity
  8
作図レイヤ
  6
Continuous
 62
     7
370
    25
100
AcDbLine
 10
-50.47158845750118
 20
166.9877562072089
 30
0.0
 11
-50.44408834203091
 21
167.0353877712091
 31
0.0
  0
LINE
  5
5C4
330
1F
100
AcDbEntity
  8
作図レイヤ
  6
Continuous
 62
     7
370
    25
100
AcDbLine
 10
-50.47158845750118
 20
166.9877562072089
 30
0.0
 11
-50.59658834203105
 21
166.9877562072089
 31
0.0
  0
LINE
  5
5C5
330
1F
100
AcDbEntity
  8
作図レイヤ
  6
Continuous
 62
     7
370
    25
100
AcDbLine
 10
-50.47158845750118
 20
166.9877562072089
 30
0.0
 11
-50.44408834203091
 21
167.0353877712091
 31
0.0
  0
LINE
  5
5C6
330
1F
100
AcDbEntity
  8
作図レイヤ
  6
Continuous
 62
     7
370
    25
100
AcDbLine
 10
-50.97158845750118
 20
166.9877562072089
 30
0.0
 11
-50.94408834203091
 21
167.0353877712091
 31
0.0
  0
LINE
  5
5C7
330
1F
100
AcDbEntity
  8
作図レイヤ
  6
Continuous
 62
     7
370
    25
100
AcDbLine
 10
-50.97158845750118
 20
166.9877562072089
 30
0.0
 11
-51.09658834203105
 21
166.9877562072089
 31
0.0
  0
LINE
  5
5C8
330
1F
100
AcDbEntity
  8
作図レイヤ
  6
Continuous
 62
     7
370
    25
100
AcDbLine
 10
-50.97158845750118
 20
166.9877562072089
 30
0.0
 11
-50.81533831316347
 21
167.2583892072087
 31
0.0
  0
LINE
  5
5C9
330
1F
100
AcDbEntity
  8
作図レイヤ
  6
Continuous
 62
     7
370
    25
100
AcDbLine
 10
-50.75283848636877
 20
167.2583892072087
 30
0.0
 11
-50.59658834203105
 21
166.9877562072089
 31
0.0
  0
LINE
  5
5CA
330
1F
100
AcDbEntity
  8
作図レイヤ
  6
Continuous
 62
     7
370
    25
100
AcDbLine
 10
-50.75283848636877
 20
167.2583892072087
 30
0.0
 11
-50.59658834203105
 21
166.9877562072089
 31
0.0
  0
LINE
  5
5CB
330
1F
100
AcDbEntity
  8
作図レイヤ
  6
Continuous
 62
     7
370
    25
100
AcDbLine
 10
-51.25283848636877
 20
167.2583892072087
 30
0.0
 11
-51.09658834203105
 21
166.9877562072089
 31
0.0
  0
LINE
  5
5CC
330
1F
100
AcDbEntity
  8
作図レイヤ
  6
Continuous
 62
     7
370
    25
100
AcDbLine
 10
-51.25283848636877
 20
167.2583892072087
 30
0.0
 11
-51.09658834203105
 21
166.9877562072089
 31
0.0
  0
LINE
  5
5CD
330
1F
100
AcDbEntity
  8
作図レイヤ
  6
Continuous
 62
     7
370
    25
100
AcDbLine
 10
-51.47158845750118
 20
166.9877562072089
 30
0.0
 11
-51.31533831316347
 21
167.2583892072087
 31
0.0
  0
LINE
  5
5CE
330
1F
100
AcDbEntity
  8
作図レイヤ
  6
Continuous
 62
     7
370
    25
100
AcDbLine
 10
-51.47158845750118
 20
166.9877562072089
 30
0.0
 11
-51.59658834203105
 21
166.9877562072089
 31
0.0
  0
LINE
  5
5CF
330
1F
100
AcDbEntity
  8
作図レイヤ
  6
Continuous
 62
     7
370
    25
100
AcDbLine
 10
-51.47158845750118
 20
166.9877562072089
 30
0.0
 11
-51.44408834203091
 21
167.0353877712091
 31
0.0
  0
LINE
  5
5D0
330
1F
100
AcDbEntity
  8
作図レイヤ
  6
Continuous
 62
     7
370
    25
100
AcDbLine
 10
-51.97158845750118
 20
166.9877562072089
 30
0.0
 11
-51.94408834203091
 21
167.0353877712091
 31
0.0
  0
LINE
  5
5D1
330
1F
100
AcDbEntity
  8
作図レイヤ
  6
Continuous
 62
     7
370
    25
100
AcDbLine
 10
-51.97158845750118
 20
166.9877562072089
 30
0.0
 11
-52.09658834203105
 21
166.9877562072089
 31
0.0
  0
LINE
  5
5D2
330
1F
100
AcDbEntity
  8
作図レイヤ
  6
Continuous
 62
     7
370
    25
100
AcDbLine
 10
-51.97158845750118
 20
166.9877562072089
 30
0.0
 11
-51.81533831316347
 21
167.2583892072087
 31
0.0
  0
LINE
  5
5D3
330
1F
100
AcDbEntity
  8
作図レイヤ
  6
Continuous
 62
     7
370
    25
100
AcDbLine
 10
-51.75283848636877
 20
167.2583892072087
 30
0.0
 11
-51.59658834203105
 21
166.9877562072089
 31
0.0
  0
LINE
  5
5D4
330
1F
100
AcDbEntity
  8
作図レイヤ
  6
Continuous
 62
     7
370
    25
100
AcDbLine
 10
-51.75283848636877
 20
167.2583892072087
 30
0.0
 11
-51.59658834203105
 21
166.9877562072089
 31
0.0
  0
LINE
  5
5D5
330
1F
100
AcDbEntity
  8
作図レイヤ
  6
Continuous
 62
     7
370
    25
100
AcDbLine
 10
-52.25283848636877
 20
167.2583892072087
 30
0.0
 11
-52.09658834203105
 21
166.9877562072089
 31
0.0
  0
LINE
  5
5D6
330
1F
100
AcDbEntity
  8
作図レイヤ
  6
Continuous
 62
     7
370
    25
100
AcDbLine
 10
-52.25283848636877
 20
167.2583892072087
 30
0.0
 11
-52.09658834203105
 21
166.9877562072089
 31
0.0
  0
LINE
  5
5D7
330
1F
100
AcDbEntity
  8
作図レイヤ
  6
Continuous
 62
     7
370
    25
100
AcDbLine
 10
-52.47158845750118
 20
166.9877562072089
 30
0.0
 11
-52.31533831316347
 21
167.2583892072087
 31
0.0
  0
LINE
  5
5D8
330
1F
100
AcDbEntity
  8
作図レイヤ
  6
Continuous
 62
     7
370
    25
100
AcDbLine
 10
-50.14408834202982
 20
162.1074765169589
 30
0.0
 11
-42.28158834203032
 21
162.1074765169589
 31
0.0
  0
LINE
  5
5D9
330
1F
100
AcDbEntity
  8
作図レイヤ
  6
Continuous
 62
     7
370
    25
100
AcDbLine
 10
-42.28158834203032
 20
166.929301897456
 30
0.0
 11
-50.14408834202982
 21
166.929301897456
 31
0.0
  0
LINE
  5
5DA
330
1F
100
AcDbEntity
  8
作図レイヤ
  6
Continuous
 62
     7
370
    25
100
AcDbLine
 10
-42.28158834203032
 20
166.929301897456
 30
0.0
 11
-42.28158834203032
 21
168.2683892072088
 31
0.0
  0
LINE
  5
5DB
330
1F
100
AcDbEntity
  8
作図レイヤ
  6
Continuous
 62
     7
370
    25
100
AcDbLine
 10
-42.28158834203032
 20
162.1074765169589
 30
0.0
 11
-42.28158834203032
 21
160.7683892072088
 31
0.0
  0
LINE
  5
5DC
330
1F
100
AcDbEntity
  8
作図レイヤ
  6
Continuous
 62
     7
370
    25
100
AcDbLine
 10
-50.14408834202982
 20
168.2683892072088
 30
0.0
 11
-50.14408834202982
 21
166.929301897456
 31
0.0
  0
LINE
  5
5DD
330
1F
100
AcDbEntity
  8
作図レイヤ
  6
Continuous
 62
     7
370
    25
100
AcDbLine
 10
-50.14408834202982
 20
160.7683892072088
 30
0.0
 11
-50.14408834202982
 21
162.1074765169589
 31
0.0
  0
LINE
  5
5DE
330
1F
100
AcDbEntity
  8
作図レイヤ
  6
Continuous
 62
     7
370
    25
100
AcDbLine
 10
-39.44408834203068
 20
160.7683892072088
 30
0.0
 11
-39.44408834203068
 21
167.1190757239107
 31
0.0
  0
LINE
  5
5DF
330
1F
100
AcDbEntity
  8
作図レイヤ
  6
Continuous
 62
     7
370
    25
100
AcDbLine
 10
-50.44408834203068
 20
167.9683892072091
 30
0.0
 11
-50.44408834203068
 21
160.7683892072088
 31
0.0
  0
LINE
  5
5E0
330
1F
100
AcDbEntity
  8
作図レイヤ
  6
Continuous
 62
     7
370
    25
100
AcDbLine
 10
-39.44408834203068
 20
167.5177026905068
 30
0.0
 11
-41.1465883420301
 21
168.2683892072088
 31
0.0
  0
LINE
  5
5E1
330
1F
100
AcDbEntity
  8
作図レイヤ
  6
Continuous
 62
     7
370
    25
100
AcDbLine
 10
-39.44408834203068
 20
167.1190757239107
 30
0.0
 11
-39.44408834203068
 21
167.5183892072088
 31
0.0
  0
LINE
  5
5E2
330
1F
100
AcDbEntity
  8
作図レイヤ
  6
Continuous
 62
     7
370
    25
100
AcDbLine
 10
-41.1465883420301
 20
168.2683892072088
 30
0.0
 11
-49.94408834203068
 21
168.2683892072088
 31
0.0
  0
LINE
  5
5E3
330
1F
100
AcDbEntity
  8
作図レイヤ
  6
Continuous
 62
     7
370
    25
100
AcDbLine
 10
-50.14408834202982
 20
168.2683892072088
 30
0.0
 11
-50.44408834203068
 21
167.9683892072091
 31
0.0
  0
LINE
  5
5E4
330
1F
100
AcDbEntity
  8
作図レイヤ
  6
Continuous
 62
     7
370
    25
100
AcDbLine
 10
-49.94408834203068
 20
168.2690757239108
 30
0.0
 11
-50.14408834202982
 21
168.2690757239108
 31
0.0
  0
LINE
  5
5E5
330
1F
100
AcDbEntity
  8
作図レイヤ
  6
Continuous
 62
     7
370
    25
100
AcDbLine
 10
-51.34658834203083
 20
154.0490222072088
 30
0.0
 11
-51.22158845750096
 21
154.0490222072088
 31
0.0
  0
LINE
  5
5E6
330
1F
100
AcDbEntity
  8
作図レイヤ
  6
Continuous
 62
     7
370
    25
100
AcDbLine
 10
-50.84658834203083
 20
154.0490222072088
 30
0.0
 11
-51.00283848636855
 21
153.7783892072088
 31
0.0
  0
LINE
  5
5E7
330
1F
100
AcDbEntity
  8
作図レイヤ
  6
Continuous
 62
     7
370
    25
100
AcDbLine
 10
-51.06533831316347
 20
153.7783892072088
 30
0.0
 11
-51.22158845750096
 21
154.0490222072088
 31
0.0
  0
LINE
  5
5E8
330
1F
100
AcDbEntity
  8
作図レイヤ
  6
Continuous
 62
     7
370
    25
100
AcDbLine
 10
-51.56533831316347
 20
153.7783892072088
 30
0.0
 11
-51.72158845750096
 21
154.0490222072088
 31
0.0
  0
LINE
  5
5E9
330
1F
100
AcDbEntity
  8
作図レイヤ
  6
Continuous
 62
     7
370
    25
100
AcDbLine
 10
-51.34658834203083
 20
154.0490222072088
 30
0.0
 11
-51.50283848636855
 21
153.7783892072088
 31
0.0
  0
LINE
  5
5EA
330
1F
100
AcDbEntity
  8
作図レイヤ
  6
Continuous
 62
     7
370
    25
100
AcDbLine
 10
-51.84658834203083
 20
154.0490222072088
 30
0.0
 11
-51.72158845750096
 21
154.0490222072088
 31
0.0
  0
LINE
  5
5EB
330
1F
100
AcDbEntity
  8
作図レイヤ
  6
Continuous
 62
     7
370
    25
100
AcDbLine
 10
-52.34658834203083
 20
154.0490222072088
 30
0.0
 11
-52.22158845750096
 21
154.0490222072088
 31
0.0
  0
LINE
  5
5EC
330
1F
100
AcDbEntity
  8
作図レイヤ
  6
Continuous
 62
     7
370
    25
100
AcDbLine
 10
-51.84658834203083
 20
154.0490222072088
 30
0.0
 11
-52.00283848636855
 21
153.7783892072088
 31
0.0
  0
LINE
  5
5ED
330
1F
100
AcDbEntity
  8
作図レイヤ
  6
Continuous
 62
     7
370
    25
100
AcDbLine
 10
-52.06533831316347
 20
153.7783892072088
 30
0.0
 11
-52.22158845750096
 21
154.0490222072088
 31
0.0
  0
LINE
  5
5EE
330
1F
100
AcDbEntity
  8
作図レイヤ
  6
Continuous
 62
     7
370
    25
100
AcDbLine
 10
-52.56533831316347
 20
153.7783892072088
 30
0.0
 11
-52.72158845750096
 21
154.0490222072088
 31
0.0
  0
LINE
  5
5EF
330
1F
100
AcDbEntity
  8
作図レイヤ
  6
Continuous
 62
     7
370
    25
100
AcDbLine
 10
-52.34658834203083
 20
154.0490222072088
 30
0.0
 11
-52.50283848636855
 21
153.7783892072088
 31
0.0
  0
LINE
  5
5F0
330
1F
100
AcDbEntity
  8
作図レイヤ
  6
Continuous
 62
     7
370
    25
100
AcDbLine
 10
-52.84658834203083
 20
154.0490222072088
 30
0.0
 11
-52.72158845750096
 21
154.0490222072088
 31
0.0
  0
LINE
  5
5F1
330
1F
100
AcDbEntity
  8
作図レイヤ
  6
Continuous
 62
     7
370
    25
100
AcDbLine
 10
-53.34658834203083
 20
154.0490222072088
 30
0.0
 11
-53.22158845750096
 21
154.0490222072088
 31
0.0
  0
LINE
  5
5F2
330
1F
100
AcDbEntity
  8
作図レイヤ
  6
Continuous
 62
     7
370
    25
100
AcDbLine
 10
-53.34658834203083
 20
154.0490222072088
 30
0.0
 11
-53.50283848636855
 21
153.7783892072088
 31
0.0
  0
LINE
  5
5F3
330
1F
100
AcDbEntity
  8
作図レイヤ
  6
Continuous
 62
     7
370
    25
100
AcDbLine
 10
-52.84658834203083
 20
154.0490222072088
 30
0.0
 11
-53.00283848636855
 21
153.7783892072088
 31
0.0
  0
LINE
  5
5F4
330
1F
100
AcDbEntity
  8
作図レイヤ
  6
Continuous
 62
     7
370
    25
100
AcDbLine
 10
-53.06533831316347
 20
153.7783892072088
 30
0.0
 11
-53.22158845750096
 21
154.0490222072088
 31
0.0
  0
LINE
  5
5F5
330
1F
100
AcDbEntity
  8
作図レイヤ
  6
Continuous
 62
     7
370
    25
100
AcDbLine
 10
-57.84658834203128
 20
168.2683892072088
 30
0.0
 11
-56.34658834203128
 21
168.2683892072088
 31
0.0
  0
LINE
  5
5F6
330
1F
100
AcDbEntity
  8
作図レイヤ
  6
Continuous
 62
     7
370
    25
100
AcDbLine
 10
-55.84658834203128
 20
167.7683892072088
 30
0.0
 11
-56.34658834203128
 21
168.2683892072088
 31
0.0
  0
LINE
  5
5F7
330
1F
100
AcDbEntity
  8
作図レイヤ
  6
Continuous
 62
     7
370
    25
100
AcDbLine
 10
-57.84658834203128
 20
166.929301897456
 30
0.0
 11
-56.34658834203128
 21
166.929301897456
 31
0.0
  0
LINE
  5
5F8
330
1F
100
AcDbEntity
  8
作図レイヤ
  6
Continuous
 62
     7
370
    25
100
AcDbLine
 10
-56.34658834203128
 20
166.929301897456
 30
0.0
 11
-56.34658834203128
 21
168.2683892072088
 31
0.0
  0
LINE
  5
5F9
330
1F
100
AcDbEntity
  8
作図レイヤ
  6
Continuous
 62
     7
370
    25
100
AcDbLine
 10
-56.34658834203128
 20
162.1074765169589
 30
0.0
 11
-56.34658834203128
 21
160.7683892072088
 31
0.0
  0
LINE
  5
5FA
330
1F
100
AcDbEntity
  8
作図レイヤ
  6
Continuous
 62
     7
370
    25
100
AcDbLine
 10
-57.84658834203128
 20
162.1074765169589
 30
0.0
 11
-56.34658834203128
 21
162.1074765169589
 31
0.0
  0
LINE
  5
5FB
330
1F
100
AcDbEntity
  8
作図レイヤ
  6
Continuous
 62
     7
370
    25
100
AcDbLine
 10
-55.84658834203128
 20
167.7683892072088
 30
0.0
 11
-55.84658834203105
 21
160.7683892072088
 31
0.0
  0
LINE
  5
5FC
330
1F
100
AcDbEntity
  8
作図レイヤ
  6
Continuous
 62
     7
370
    25
100
AcDbLine
 10
-52.75283848636877
 20
167.2583892072087
 30
0.0
 11
-52.59658834203105
 21
166.9877562072089
 31
0.0
  0
LINE
  5
5FD
330
1F
100
AcDbEntity
  8
作図レイヤ
  6
Continuous
 62
     7
370
    25
100
AcDbLine
 10
-52.47158845750118
 20
166.9877562072089
 30
0.0
 11
-52.59658834203105
 21
166.9877562072089
 31
0.0
  0
LINE
  5
5FE
330
1F
100
AcDbEntity
  8
作図レイヤ
  6
Continuous
 62
     7
370
    25
100
AcDbLine
 10
-52.47158845750118
 20
166.9877562072089
 30
0.0
 11
-52.44408834203091
 21
167.0353877712091
 31
0.0
  0
LINE
  5
5FF
330
1F
100
AcDbEntity
  8
作図レイヤ
  6
Continuous
 62
     7
370
    25
100
AcDbLine
 10
-39.44408834203068
 20
167.0683892072087
 30
0.0
 11
-39.04408834203059
 21
167.0683892072087
 31
0.0
  0
LINE
  5
600
330
1F
100
AcDbEntity
  8
作図レイヤ
  6
Continuous
 62
     7
370
    25
100
AcDbLine
 10
-39.04408834203059
 20
167.0683892072087
 30
0.0
 11
-38.04408834203059
 21
166.8683892072086
 31
0.0
  0
LINE
  5
601
330
1F
100
AcDbEntity
  8
作図レイヤ
  6
Continuous
 62
     7
370
    25
100
AcDbLine
 10
-39.04408834203059
 20
167.0683892072087
 30
0.0
 11
-39.04408834203059
 21
160.7683892072087
 31
0.0
  0
LINE
  5
602
330
1F
100
AcDbEntity
  8
作図レイヤ
  6
Continuous
 62
     7
370
    25
100
AcDbLine
 10
-52.75283848636877
 20
167.2583892072087
 30
0.0
 11
-52.59658834203105
 21
166.9877562072089
 31
0.0
  0
LINE
  5
603
330
1F
100
AcDbEntity
  8
作図レイヤ
  6
Continuous
 62
     7
370
    25
100
AcDbLine
 10
-52.97158845750118
 20
166.9877562072089
 30
0.0
 11
-52.81533831316347
 21
167.2583892072087
 31
0.0
  0
LINE
  5
604
330
1F
100
AcDbEntity
  8
作図レイヤ
  6
Continuous
 62
     7
370
    25
100
AcDbLine
 10
-52.97158845750118
 20
166.9877562072089
 30
0.0
 11
-53.09658834203105
 21
166.9877562072089
 31
0.0
  0
LINE
  5
605
330
1F
100
AcDbEntity
  8
作図レイヤ
  6
Continuous
 62
     7
370
    25
100
AcDbLine
 10
-53.47158845750118
 20
166.9877562072089
 30
0.0
 11
-53.59658834203105
 21
166.9877562072089
 31
0.0
  0
LINE
  5
606
330
1F
100
AcDbEntity
  8
作図レイヤ
  6
Continuous
 62
     7
370
    25
100
AcDbLine
 10
-53.47158845750118
 20
166.9877562072089
 30
0.0
 11
-53.31533831316347
 21
167.2583892072087
 31
0.0
  0
LINE
  5
607
330
1F
100
AcDbEntity
  8
作図レイヤ
  6
Continuous
 62
     7
370
    25
100
AcDbLine
 10
-53.25283848636855
 20
167.2583892072087
 30
0.0
 11
-53.09658834203105
 21
166.9877562072089
 31
0.0
  0
LINE
  5
608
330
1F
100
AcDbEntity
  8
作図レイヤ
  6
Continuous
 62
     7
370
    25
100
AcDbLine
 10
-55.65185597352502
 20
166.9877562072089
 30
0.0
 11
-54.97158845750096
 21
166.9877562072089
 31
0.0
  0
LINE
  5
609
330
1F
100
AcDbEntity
  8
作図レイヤ
  6
Continuous
 62
     7
370
    25
100
AcDbLine
 10
-54.78408839976578
 20
167.2764313468315
 30
0.0
 11
-55.03408839976601
 21
153.7603470675863
 31
0.0
  0
LINE
  5
60A
330
1F
100
AcDbEntity
  8
作図レイヤ
  6
Continuous
 62
     7
370
    25
100
AcDbLine
 10
-53.97158845750096
 20
166.9877562072089
 30
0.0
 11
-54.09658834203105
 21
166.9877562072089
 31
0.0
  0
LINE
  5
60B
330
1F
100
AcDbEntity
  8
作図レイヤ
  6
Continuous
 62
     7
370
    25
100
AcDbLine
 10
-53.75283848636877
 20
167.2583892072087
 30
0.0
 11
-53.59658834203105
 21
166.9877562072089
 31
0.0
  0
LINE
  5
60C
330
1F
100
AcDbEntity
  8
作図レイヤ
  6
Continuous
 62
     7
370
    25
100
AcDbLine
 10
-53.97158845750096
 20
166.9877562072089
 30
0.0
 11
-53.81533831316347
 21
167.2583892072087
 31
0.0
  0
LINE
  5
60D
330
1F
100
AcDbEntity
  8
作図レイヤ
  6
Continuous
 62
     7
370
    25
100
AcDbLine
 10
-53.97158845750096
 20
166.9877562072089
 30
0.0
 11
-54.09658834203105
 21
166.9877562072089
 31
0.0
  0
LINE
  5
60E
330
1F
100
AcDbEntity
  8
作図レイヤ
  6
Continuous
 62
     7
370
    25
100
AcDbLine
 10
-54.47158845750096
 20
166.9877562072089
 30
0.0
 11
-54.59658834203105
 21
166.9877562072089
 31
0.0
  0
LINE
  5
60F
330
1F
100
AcDbEntity
  8
作図レイヤ
  6
Continuous
 62
     7
370
    25
100
AcDbLine
 10
-54.25283848636855
 20
167.2583892072087
 30
0.0
 11
-54.09658834203105
 21
166.9877562072089
 31
0.0
  0
LINE
  5
610
330
1F
100
AcDbEntity
  8
作図レイヤ
  6
Continuous
 62
     7
370
    25
100
AcDbLine
 10
-54.47158845750096
 20
166.9877562072089
 30
0.0
 11
-54.31533831316347
 21
167.2583892072087
 31
0.0
  0
LINE
  5
611
330
1F
100
AcDbEntity
  8
作図レイヤ
  6
Continuous
 62
     7
370
    25
100
AcDbLine
 10
-54.47158845750096
 20
166.9877562072089
 30
0.0
 11
-54.59658834203105
 21
166.9877562072089
 31
0.0
  0
LINE
  5
612
330
1F
100
AcDbEntity
  8
作図レイヤ
  6
Continuous
 62
     7
370
    25
100
AcDbLine
 10
-54.47158845750096
 20
166.9877562072089
 30
0.0
 11
-54.59658834203105
 21
166.9877562072089
 31
0.0
  0
LINE
  5
613
330
1F
100
AcDbEntity
  8
作図レイヤ
  6
Continuous
 62
     7
370
    25
100
AcDbLine
 10
-54.75283848636855
 20
167.2583892072087
 30
0.0
 11
-54.59658834203105
 21
166.9877562072089
 31
0.0
  0
LINE
  5
614
330
1F
100
AcDbEntity
  8
作図レイヤ
  6
Continuous
 62
     7
370
    25
100
AcDbLine
 10
-54.97158845750096
 20
166.9877562072089
 30
0.0
 11
-54.81533831316347
 21
167.2583892072087
 31
0.0
  0
LINE
  5
615
330
1F
100
AcDbEntity
  8
作図レイヤ
  6
Continuous
 62
     7
370
    25
100
AcDbLine
 10
-55.06533831316347
 20
153.7783892072088
 30
0.0
 11
-55.22158845750096
 21
154.0490222072088
 31
0.0
  0
LINE
  5
616
330
1F
100
AcDbEntity
  8
作図レイヤ
  6
Continuous
 62
     7
370
    25
100
AcDbLine
 10
-54.84658834203083
 20
154.0490222072088
 30
0.0
 11
-55.00283848636855
 21
153.7783892072088
 31
0.0
  0
LINE
  5
617
330
1F
100
AcDbEntity
  8
作図レイヤ
  6
Continuous
 62
     7
370
    25
100
AcDbLine
 10
-54.84658834203083
 20
154.0490222072088
 30
0.0
 11
-54.72158845750096
 21
154.0490222072088
 31
0.0
  0
LINE
  5
618
330
1F
100
AcDbEntity
  8
作図レイヤ
  6
Continuous
 62
     7
370
    25
100
AcDbLine
 10
-54.84658834203083
 20
154.0490222072088
 30
0.0
 11
-54.72158845750096
 21
154.0490222072088
 31
0.0
  0
LINE
  5
619
330
1F
100
AcDbEntity
  8
作図レイヤ
  6
Continuous
 62
     7
370
    25
100
AcDbLine
 10
-54.56533831316347
 20
153.7783892072088
 30
0.0
 11
-54.72158845750096
 21
154.0490222072088
 31
0.0
  0
LINE
  5
61A
330
1F
100
AcDbEntity
  8
作図レイヤ
  6
Continuous
 62
     7
370
    25
100
AcDbLine
 10
-54.34658834203083
 20
154.0490222072088
 30
0.0
 11
-54.50283848636855
 21
153.7783892072088
 31
0.0
  0
LINE
  5
61B
330
1F
100
AcDbEntity
  8
作図レイヤ
  6
Continuous
 62
     7
370
    25
100
AcDbLine
 10
-54.84658834203083
 20
154.0490222072088
 30
0.0
 11
-54.72158845750096
 21
154.0490222072088
 31
0.0
  0
LINE
  5
61C
330
1F
100
AcDbEntity
  8
作図レイヤ
  6
Continuous
 62
     7
370
    25
100
AcDbLine
 10
-54.34658834203083
 20
154.0490222072088
 30
0.0
 11
-54.22158845750096
 21
154.0490222072088
 31
0.0
  0
LINE
  5
61D
330
1F
100
AcDbEntity
  8
作図レイヤ
  6
Continuous
 62
     7
370
    25
100
AcDbLine
 10
-54.06533831316347
 20
153.7783892072088
 30
0.0
 11
-54.22158845750096
 21
154.0490222072088
 31
0.0
  0
LINE
  5
61E
330
1F
100
AcDbEntity
  8
作図レイヤ
  6
Continuous
 62
     7
370
    25
100
AcDbLine
 10
-53.84658834203083
 20
154.0490222072088
 30
0.0
 11
-54.00283848636855
 21
153.7783892072088
 31
0.0
  0
LINE
  5
61F
330
1F
100
AcDbEntity
  8
作図レイヤ
  6
Continuous
 62
     7
370
    25
100
AcDbLine
 10
-54.34658834203083
 20
154.0490222072088
 30
0.0
 11
-54.22158845750096
 21
154.0490222072088
 31
0.0
  0
LINE
  5
620
330
1F
100
AcDbEntity
  8
作図レイヤ
  6
Continuous
 62
     7
370
    25
100
AcDbLine
 10
-53.56533831316347
 20
153.7783892072088
 30
0.0
 11
-53.72158845750096
 21
154.0490222072088
 31
0.0
  0
LINE
  5
621
330
1F
100
AcDbEntity
  8
作図レイヤ
  6
Continuous
 62
     7
370
    25
100
AcDbLine
 10
-53.34658834203083
 20
154.0490222072088
 30
0.0
 11
-53.50283848636855
 21
153.7783892072088
 31
0.0
  0
LINE
  5
622
330
1F
100
AcDbEntity
  8
作図レイヤ
  6
Continuous
 62
     7
370
    25
100
AcDbLine
 10
-53.84658834203083
 20
154.0490222072088
 30
0.0
 11
-53.72158845750096
 21
154.0490222072088
 31
0.0
  0
LINE
  5
623
330
1F
100
AcDbEntity
  8
作図レイヤ
  6
Continuous
 62
     7
370
    25
100
AcDbLine
 10
-50.56533831316347
 20
153.7783892072088
 30
0.0
 11
-50.72158845750096
 21
154.0490222072088
 31
0.0
  0
LINE
  5
624
330
1F
100
AcDbEntity
  8
作図レイヤ
  6
Continuous
 62
     7
370
    25
100
AcDbLine
 10
-50.84658834203083
 20
154.0490222072088
 30
0.0
 11
-50.72158845750096
 21
154.0490222072088
 31
0.0
  0
LINE
  5
625
330
1F
100
AcDbEntity
  8
作図レイヤ
  6
Continuous
 62
     7
370
    25
100
AcDbLine
 10
-55.22158845750096
 20
154.0490222072088
 30
0.0
 11
-55.64658834203124
 21
154.0490222072088
 31
0.0
  0
LINE
  5
626
330
1F
100
AcDbEntity
  8
作図レイヤ
  6
Continuous
 62
     7
370
    25
100
AcDbLine
 10
-38.04408834203059
 20
160.7683892072088
 30
0.0
 11
-38.04408834203059
 21
166.8683892072086
 31
0.0
  0
LINE
  5
627
330
1F
100
AcDbEntity
  8
作図レイヤ
  6
Continuous
 62
     7
370
    25
100
AcDbLine
 10
-38.04408834203059
 20
154.6683892072089
 30
0.0
 11
-38.04408834203059
 21
160.7683892072088
 31
0.0
  0
LINE
  5
628
330
1F
100
AcDbEntity
  8
作図レイヤ
  6
Continuous
 62
     7
370
    25
100
AcDbLine
 10
-39.04408834203059
 20
160.7683892072087
 30
0.0
 11
-39.04408834203059
 21
154.468389207209
 31
0.0
  0
LINE
  5
629
330
1F
100
AcDbEntity
  8
作図レイヤ
  6
Continuous
 62
     7
370
    25
100
AcDbLine
 10
-38.04408834203059
 20
154.6683892072089
 30
0.0
 11
-39.04408834203059
 21
154.468389207209
 31
0.0
  0
LINE
  5
62A
330
1F
100
AcDbEntity
  8
作図レイヤ
  6
Continuous
 62
     7
370
    25
100
AcDbLine
 10
-39.04408834203059
 20
154.468389207209
 30
0.0
 11
-39.44408834203068
 21
154.468389207209
 31
0.0
  0
LINE
  5
62B
330
1F
100
AcDbEntity
  8
作図レイヤ
  6
Continuous
 62
     7
370
    25
100
AcDbLine
 10
-50.14408834202982
 20
153.2677026905068
 30
0.0
 11
-49.94408834203068
 21
153.2677026905068
 31
0.0
  0
LINE
  5
62C
330
1F
100
AcDbEntity
  8
作図レイヤ
  6
Continuous
 62
     7
370
    25
100
AcDbLine
 10
-50.44408834203068
 20
153.5683892072086
 30
0.0
 11
-50.14408834202982
 21
153.2683892072088
 31
0.0
  0
LINE
  5
62D
330
1F
100
AcDbEntity
  8
作図レイヤ
  6
Continuous
 62
     7
370
    25
100
AcDbLine
 10
-49.94408834203068
 20
153.2683892072088
 30
0.0
 11
-41.14658834203067
 21
153.2683892072088
 31
0.0
  0
LINE
  5
62E
330
1F
100
AcDbEntity
  8
作図レイヤ
  6
Continuous
 62
     7
370
    25
100
AcDbLine
 10
-39.44408834203068
 20
154.0183892072087
 30
0.0
 11
-39.44408834203068
 21
154.4177026905069
 31
0.0
  0
LINE
  5
62F
330
1F
100
AcDbEntity
  8
作図レイヤ
  6
Continuous
 62
     7
370
    25
100
AcDbLine
 10
-41.14658834203067
 20
153.2683892072088
 30
0.0
 11
-39.44408834203068
 21
154.0190757239108
 31
0.0
  0
LINE
  5
630
330
1F
100
AcDbEntity
  8
作図レイヤ
  6
Continuous
 62
     7
370
    25
100
AcDbLine
 10
-50.44408834203068
 20
160.7683892072088
 30
0.0
 11
-50.44408834203068
 21
153.5683892072086
 31
0.0
  0
LINE
  5
631
330
1F
100
AcDbEntity
  8
作図レイヤ
  6
Continuous
 62
     7
370
    25
100
AcDbLine
 10
-39.44408834203068
 20
154.4177026905069
 30
0.0
 11
-39.44408834203068
 21
160.7683892072088
 31
0.0
  0
LINE
  5
632
330
1F
100
AcDbEntity
  8
作図レイヤ
  6
Continuous
 62
     7
370
    25
100
AcDbLine
 10
-50.14408834202982
 20
159.4293018974587
 30
0.0
 11
-50.14408834202982
 21
160.7683892072088
 31
0.0
  0
LINE
  5
633
330
1F
100
AcDbEntity
  8
作図レイヤ
  6
Continuous
 62
     7
370
    25
100
AcDbLine
 10
-50.14408834202982
 20
154.6074765169616
 30
0.0
 11
-50.14408834202982
 21
153.2683892072088
 31
0.0
  0
LINE
  5
634
330
1F
100
AcDbEntity
  8
作図レイヤ
  6
Continuous
 62
     7
370
    25
100
AcDbLine
 10
-42.28158834203032
 20
160.7683892072088
 30
0.0
 11
-42.28158834203032
 21
159.4293018974587
 31
0.0
  0
LINE
  5
635
330
1F
100
AcDbEntity
  8
作図レイヤ
  6
Continuous
 62
     7
370
    25
100
AcDbLine
 10
-42.28158834203032
 20
153.2683892072088
 30
0.0
 11
-42.28158834203032
 21
154.6074765169616
 31
0.0
  0
LINE
  5
636
330
1F
100
AcDbEntity
  8
作図レイヤ
  6
Continuous
 62
     7
370
    25
100
AcDbLine
 10
-50.14408834202982
 20
154.6074765169616
 30
0.0
 11
-42.28158834203032
 21
154.6074765169616
 31
0.0
  0
LINE
  5
637
330
1F
100
AcDbEntity
  8
作図レイヤ
  6
Continuous
 62
     7
370
    25
100
AcDbLine
 10
-42.28158834203032
 20
159.4293018974587
 30
0.0
 11
-50.14408834202982
 21
159.4293018974587
 31
0.0
  0
LINE
  5
638
330
1F
100
AcDbEntity
  8
作図レイヤ
  6
Continuous
 62
     7
370
    25
100
AcDbLine
 10
-55.84658834203105
 20
160.7683892072088
 30
0.0
 11
-55.84658834203128
 21
153.7683892072088
 31
0.0
  0
LINE
  5
639
330
1F
100
AcDbEntity
  8
作図レイヤ
  6
Continuous
 62
     7
370
    25
100
AcDbLine
 10
-56.34658834203128
 20
159.4293018974587
 30
0.0
 11
-57.84658834203128
 21
159.4293018974587
 31
0.0
  0
LINE
  5
63A
330
1F
100
AcDbEntity
  8
作図レイヤ
  6
Continuous
 62
     7
370
    25
100
AcDbLine
 10
-56.34658834203128
 20
160.7683892072088
 30
0.0
 11
-56.34658834203128
 21
159.4293018974587
 31
0.0
  0
LINE
  5
63B
330
1F
100
AcDbEntity
  8
作図レイヤ
  6
Continuous
 62
     7
370
    25
100
AcDbLine
 10
-56.34658834203128
 20
153.2683892072088
 30
0.0
 11
-56.34658834203128
 21
154.6074765169616
 31
0.0
  0
LINE
  5
63C
330
1F
100
AcDbEntity
  8
作図レイヤ
  6
Continuous
 62
     7
370
    25
100
AcDbLine
 10
-56.34658834203128
 20
154.6074765169616
 30
0.0
 11
-57.84658834203128
 21
154.6074765169616
 31
0.0
  0
LINE
  5
63D
330
1F
100
AcDbEntity
  8
作図レイヤ
  6
Continuous
 62
     7
370
    25
100
AcDbLine
 10
-56.34658834203128
 20
153.2683892072088
 30
0.0
 11
-55.84658834203128
 21
153.7683892072088
 31
0.0
  0
LINE
  5
63E
330
1F
100
AcDbEntity
  8
作図レイヤ
  6
Continuous
 62
     7
370
    25
100
AcDbLine
 10
-56.34658834203128
 20
153.2683892072088
 30
0.0
 11
-57.84658834203128
 21
153.2683892072088
 31
0.0
  0
LINE
  5
63F
330
1F
100
AcDbEntity
  8
作図レイヤ
  6
Continuous
 62
     7
370
    25
100
AcDbLine
 10
-50.44408834203068
 20
153.8801473712095
 30
0.0
 11
-50.50283848636855
 21
153.7783892072088
 31
0.0
  0
LINE
  5
640
330
1F
100
AcDbEntity
  8
作図レイヤ
  6
Continuous
 62
     7
370
    25
100
AcDbLine
 10
-50.44408834203068
 20
158.6261405295798
 30
0.0
 11
-50.53408839976692
 21
153.7603470675862
 31
0.0
  0
ARC
  5
641
330
1F
100
AcDbEntity
  8
作図レイヤ
  6
Continuous
 62
     7
370
    25
100
AcDbCircle
 10
-55.64658834203124
 20
167.187756207209
 30
0.0
 40
0.2000000000002018
100
AcDbArc
 50
180.0
 51
270.0
  0
ARC
  5
642
330
1F
100
AcDbEntity
  8
作図レイヤ
  6
Continuous
 62
     7
370
    25
100
AcDbCircle
 10
-55.64658834203124
 20
153.8490222072085
 30
0.0
 40
0.19999999999993
100
AcDbArc
 50
90.0
 51
180.0
  0
ARC
  5
643
330
1F
100
AcDbEntity
  8
作図レイヤ
  6
Continuous
 62
     7
370
    25
100
AcDbCircle
 10
-50.78408839976623
 20
167.2403470487179
 30
0.0
 40
0.0360842981134664
100
AcDbArc
 50
30.00001729687427
 51
149.9999827029243
  0
ARC
  5
644
330
1F
100
AcDbEntity
  8
作図レイヤ
  6
Continuous
 62
     7
370
    25
100
AcDbCircle
 10
-50.78408839976623
 20
167.2403470487179
 30
0.0
 40
0.0360842981134664
100
AcDbArc
 50
30.00001729687427
 51
149.9999827029243
  0
ARC
  5
645
330
1F
100
AcDbEntity
  8
作図レイヤ
  6
Continuous
 62
     7
370
    25
100
AcDbCircle
 10
-51.28408839976623
 20
167.2403470487179
 30
0.0
 40
0.0360842981134664
100
AcDbArc
 50
30.00001729687427
 51
149.9999827029243
  0
ARC
  5
646
330
1F
100
AcDbEntity
  8
作図レイヤ
  6
Continuous
 62
     7
370
    25
100
AcDbCircle
 10
-51.28408839976623
 20
167.2403470487179
 30
0.0
 40
0.0360842981134664
100
AcDbArc
 50
30.00001729687427
 51
149.9999827029243
  0
ARC
  5
647
330
1F
100
AcDbEntity
  8
作図レイヤ
  6
Continuous
 62
     7
370
    25
100
AcDbCircle
 10
-51.78408839976623
 20
167.2403470487179
 30
0.0
 40
0.0360842981134664
100
AcDbArc
 50
30.00001729687427
 51
149.9999827029243
  0
ARC
  5
648
330
1F
100
AcDbEntity
  8
作図レイヤ
  6
Continuous
 62
     7
370
    25
100
AcDbCircle
 10
-51.78408839976623
 20
167.2403470487179
 30
0.0
 40
0.0360842981134664
100
AcDbArc
 50
30.00001729687427
 51
149.9999827029243
  0
ARC
  5
649
330
1F
100
AcDbEntity
  8
作図レイヤ
  6
Continuous
 62
     7
370
    25
100
AcDbCircle
 10
-52.28408839976623
 20
167.2403470487179
 30
0.0
 40
0.0360842981134664
100
AcDbArc
 50
30.00001729687427
 51
149.9999827029243
  0
ARC
  5
64A
330
1F
100
AcDbEntity
  8
作図レイヤ
  6
Continuous
 62
     7
370
    25
100
AcDbCircle
 10
-52.28408839976623
 20
167.2403470487179
 30
0.0
 40
0.0360842981134664
100
AcDbArc
 50
30.00001729687427
 51
149.9999827029243
  0
ARC
  5
64B
330
1F
100
AcDbEntity
  8
作図レイヤ
  6
Continuous
 62
     7
370
    25
100
AcDbCircle
 10
-40.60658834203298
 20
164.518389207207
 30
0.0
 40
9.837499999996881
100
AcDbArc
 50
165.8138097900325
 51
194.1861902099624
  0
ARC
  5
64C
330
1F
100
AcDbEntity
  8
作図レイヤ
  6
Continuous
 62
     7
370
    25
100
AcDbCircle
 10
-44.27466102926849
 20
164.518389207207
 30
0.0
 40
3.128072687233819
100
AcDbArc
 50
309.5801321858555
 51
50.4198678141552
  0
ARC
  5
64D
330
1F
100
AcDbEntity
  8
作図レイヤ
  6
Continuous
 62
     7
370
    25
100
AcDbCircle
 10
-51.03408839976623
 20
153.7964313656997
 30
0.0
 40
0.0360842981138108
100
AcDbArc
 50
210.0000172972244
 51
329.9999827030387
  0
ARC
  5
64E
330
1F
100
AcDbEntity
  8
作図レイヤ
  6
Continuous
 62
     7
370
    25
100
AcDbCircle
 10
-51.53408839976623
 20
153.7964313656997
 30
0.0
 40
0.0360842981138108
100
AcDbArc
 50
210.0000172972244
 51
329.9999827030387
  0
ARC
  5
64F
330
1F
100
AcDbEntity
  8
作図レイヤ
  6
Continuous
 62
     7
370
    25
100
AcDbCircle
 10
-52.03408839976623
 20
153.7964313656997
 30
0.0
 40
0.0360842981138108
100
AcDbArc
 50
210.0000172972244
 51
329.9999827030387
  0
ARC
  5
650
330
1F
100
AcDbEntity
  8
作図レイヤ
  6
Continuous
 62
     7
370
    25
100
AcDbCircle
 10
-52.53408839976623
 20
153.7964313656997
 30
0.0
 40
0.0360842981138108
100
AcDbArc
 50
210.0000172972244
 51
329.9999827030387
  0
ARC
  5
651
330
1F
100
AcDbEntity
  8
作図レイヤ
  6
Continuous
 62
     7
370
    25
100
AcDbCircle
 10
-53.03408839976623
 20
153.7964313656997
 30
0.0
 40
0.0360842981138108
100
AcDbArc
 50
210.0000172972244
 51
329.9999827030387
  0
ARC
  5
652
330
1F
100
AcDbEntity
  8
作図レイヤ
  6
Continuous
 62
     7
370
    25
100
AcDbCircle
 10
-61.90908834203128
 20
164.518389207207
 30
0.0
 40
6.062500000000306
100
AcDbArc
 50
336.5670058330875
 51
23.43299416692057
  0
ARC
  5
653
330
1F
100
AcDbEntity
  8
作図レイヤ
  6
Continuous
 62
     7
370
    25
100
AcDbCircle
 10
-52.78408839976623
 20
167.2403470487179
 30
0.0
 40
0.0360842981134664
100
AcDbArc
 50
30.00001729687427
 51
149.9999827029243
  0
ARC
  5
654
330
1F
100
AcDbEntity
  8
作図レイヤ
  6
Continuous
 62
     7
370
    25
100
AcDbCircle
 10
-53.28408839976623
 20
167.2403470487179
 30
0.0
 40
0.0360842981134664
100
AcDbArc
 50
30.00001729681263
 51
149.9999827029243
  0
ARC
  5
655
330
1F
100
AcDbEntity
  8
作図レイヤ
  6
Continuous
 62
     7
370
    25
100
AcDbCircle
 10
-53.78408839976623
 20
167.2403470487179
 30
0.0
 40
0.0360842981134664
100
AcDbArc
 50
30.00001729687427
 51
149.9999827029243
  0
ARC
  5
656
330
1F
100
AcDbEntity
  8
作図レイヤ
  6
Continuous
 62
     7
370
    25
100
AcDbCircle
 10
-54.28408839976623
 20
167.2403470487179
 30
0.0
 40
0.0360842981134664
100
AcDbArc
 50
30.00001729681263
 51
149.9999827029243
  0
ARC
  5
657
330
1F
100
AcDbEntity
  8
作図レイヤ
  6
Continuous
 62
     7
370
    25
100
AcDbCircle
 10
-54.78408839976623
 20
167.2403470487179
 30
0.0
 40
0.0360842981134664
100
AcDbArc
 50
30.00001729681263
 51
149.9999827029243
  0
ARC
  5
658
330
1F
100
AcDbEntity
  8
作図レイヤ
  6
Continuous
 62
     7
370
    25
100
AcDbCircle
 10
-55.03408839976623
 20
153.7964313656997
 30
0.0
 40
0.0360842981138111
100
AcDbArc
 50
210.0000172972244
 51
329.9999827030779
  0
ARC
  5
659
330
1F
100
AcDbEntity
  8
作図レイヤ
  6
Continuous
 62
     7
370
    25
100
AcDbCircle
 10
-54.53408839976623
 20
153.7964313656997
 30
0.0
 40
0.0360842981138111
100
AcDbArc
 50
210.0000172972244
 51
329.9999827030779
  0
ARC
  5
65A
330
1F
100
AcDbEntity
  8
作図レイヤ
  6
Continuous
 62
     7
370
    25
100
AcDbCircle
 10
-54.03408839976623
 20
153.7964313656997
 30
0.0
 40
0.0360842981138111
100
AcDbArc
 50
210.0000172972244
 51
329.9999827030779
  0
ARC
  5
65B
330
1F
100
AcDbEntity
  8
作図レイヤ
  6
Continuous
 62
     7
370
    25
100
AcDbCircle
 10
-53.53408839976623
 20
153.7964313656997
 30
0.0
 40
0.0360842981138108
100
AcDbArc
 50
210.0000172972244
 51
329.9999827030387
  0
ARC
  5
65C
330
1F
100
AcDbEntity
  8
作図レイヤ
  6
Continuous
 62
     7
370
    25
100
AcDbCircle
 10
-50.53408839976623
 20
153.7964313656997
 30
0.0
 40
0.0360842981138108
100
AcDbArc
 50
210.0000172972244
 51
329.9999827030387
  0
ARC
  5
65D
330
1F
100
AcDbEntity
  8
作図レイヤ
  6
Continuous
 62
     7
370
    25
100
AcDbCircle
 10
-44.27466102926849
 20
157.0183892072106
 30
0.0
 40
3.128072687233123
100
AcDbArc
 50
309.5801321858449
 51
50.41986781414469
  0
ARC
  5
65E
330
1F
100
AcDbEntity
  8
作図レイヤ
  6
Continuous
 62
     7
370
    25
100
AcDbCircle
 10
-40.60658834203298
 20
157.0183892072106
 30
0.0
 40
9.837499999997101
100
AcDbArc
 50
165.8138097900376
 51
194.1861902099675
  0
ARC
  5
65F
330
1F
100
AcDbEntity
  8
作図レイヤ
  6
Continuous
 62
     7
370
    25
100
AcDbCircle
 10
-61.90908834203128
 20
157.0183892072106
 30
0.0
 40
6.062499999999946
100
AcDbArc
 50
336.5670058330795
 51
23.43299416691269
  0
LINE
  5
660
330
1F
100
AcDbEntity
  8
作図レイヤ
  6
Continuous
 62
     7
370
    25
100
AcDbLine
 10
-308.6465883420313
 20
181.7683892072088
 30
0.0
 11
-308.6465883420316
 21
215.7683892072088
 31
0.0
  0
LINE
  5
661
102
{ACAD_REACTORS
330
8E1
330
8F0
330
91D
102
}
330
1F
100
AcDbEntity
  8
作図レイヤ
  6
Continuous
 62
     7
370
    25
100
AcDbLine
 10
-319.3465883420308
 20
181.7683892072088
 30
0.0
 11
-319.3465883420314
 21
209.7683892072088
 31
0.0
  0
LINE
  5
662
330
1F
100
AcDbEntity
  8
作図レイヤ
  6
Continuous
 62
     7
370
    25
100
AcDbLine
 10
-316.3465883420318
 20
212.7683892072088
 30
0.0
 11
-319.3465883420315
 21
209.7683892072091
 31
0.0
  0
LINE
  5
663
330
1F
100
AcDbEntity
  8
作図レイヤ
  6
Continuous
 62
     7
370
    25
100
AcDbLine
 10
-315.8465883420293
 20
181.7683892072088
 30
0.0
 11
-315.8465883420318
 21
212.7683892072088
 31
0.0
  0
LINE
  5
664
330
1F
100
AcDbEntity
  8
作図レイヤ
  6
Continuous
 62
     6
370
    13
100
AcDbLine
 10
-359.846588342031
 20
181.7683892072088
 30
0.0
 11
-359.846588342031
 21
193.7683892072088
 31
0.0
  0
LINE
  5
665
330
1F
100
AcDbEntity
  8
作図レイヤ
  6
Continuous
 62
     6
370
    13
100
AcDbLine
 10
-359.846588342031
 20
193.2683892072088
 30
0.0
 11
-358.9805633420311
 21
193.7683892072088
 31
0.0
  0
LINE
  5
666
330
1F
100
AcDbEntity
  8
作図レイヤ
  6
Continuous
 62
     6
370
    13
100
AcDbLine
 10
-359.846588342031
 20
193.2683892072088
 30
0.0
 11
-368.846588342031
 21
193.2683892072088
 31
0.0
  0
LINE
  5
667
330
1F
100
AcDbEntity
  8
作図レイヤ
  6
Continuous
 62
     7
370
    25
100
AcDbLine
 10
-368.346588342031
 20
193.7683892072088
 30
0.0
 11
-358.2022429424323
 21
193.7683892072088
 31
0.0
  0
LINE
  5
668
102
{ACAD_REACTORS
330
8E1
102
}
330
1F
100
AcDbEntity
  8
作図レイヤ
  6
Continuous
 62
     7
370
    25
100
AcDbLine
 10
-368.346588342031
 20
193.7683892072088
 30
0.0
 11
-369.346588342031
 21
192.7683892072088
 31
0.0
  0
LINE
  5
669
330
1F
100
AcDbEntity
  8
作図レイヤ
  6
Continuous
 62
     7
370
    25
100
AcDbLine
 10
-369.346588342031
 20
192.7683892072088
 30
0.0
 11
-369.346588342031
 21
181.7683892072088
 31
0.0
  0
LINE
  5
670
330
1F
100
AcDbEntity
  8
作図レイヤ
  6
Continuous
 62
     7
370
    25
100
AcDbLine
 10
-351.346588342031
 20
178.3405619070083
 30
0.0
 11
-358.2022429424323
 21
178.3405619070083
 31
0.0
  0
LINE
  5
671
330
1F
100
AcDbEntity
  8
作図レイヤ
  6
Continuous
 62
     7
370
    25
100
AcDbLine
 10
-351.3465883420311
 20
193.2683892072088
 30
0.0
 11
-358.2022429424323
 21
193.2683892072088
 31
0.0
  0
LINE
  5
672
330
1F
100
AcDbEntity
  8
作図レイヤ
  6
Continuous
 62
     7
370
    25
100
AcDbLine
 10
-358.2022429424323
 20
181.7683892072088
 30
0.0
 11
-358.2022429424323
 21
178.3405619070083
 31
0.0
  0
LINE
  5
673
330
1F
100
AcDbEntity
  8
作図レイヤ
  6
Continuous
 62
     7
370
    25
100
AcDbLine
 10
-351.3465883420311
 20
181.7683892072088
 30
0.0
 11
-351.3465883420311
 21
178.3405619070083
 31
0.0
  0
LINE
  5
674
330
1F
100
AcDbEntity
  8
作図レイヤ
  6
Continuous
 62
     7
370
    25
100
AcDbLine
 10
-351.3465883420311
 20
178.3405619070083
 30
0.0
 11
-354.7744156422318
 21
181.7683892072088
 31
0.0
  0
LINE
  5
675
330
1F
100
AcDbEntity
  8
作図レイヤ
  6
Continuous
 62
     7
370
    25
100
AcDbLine
 10
-354.7744156422318
 20
181.7683892072088
 30
0.0
 11
-358.2022429424323
 21
178.3405619070083
 31
0.0
  0
LINE
  5
676
330
1F
100
AcDbEntity
  8
作図レイヤ
  6
Continuous
 62
     7
370
    25
100
AcDbLine
 10
-358.2022429424323
 20
193.7683892072088
 30
0.0
 11
-358.2022429424323
 21
193.2683892072087
 31
0.0
  0
LINE
  5
677
330
1F
100
AcDbEntity
  8
作図レイヤ
  6
Continuous
 62
     7
370
    25
100
AcDbLine
 10
-351.3465883420311
 20
193.7683892072088
 30
0.0
 11
-351.346588342031
 21
193.2683892072087
 31
0.0
  0
LINE
  5
678
330
1F
100
AcDbEntity
  8
作図レイヤ
  6
Continuous
 62
     6
370
    13
100
AcDbLine
 10
-359.846588342031
 20
181.7683892072088
 30
0.0
 11
-359.846588342031
 21
169.7683892072088
 31
0.0
  0
LINE
  5
679
330
1F
100
AcDbEntity
  8
作図レイヤ
  6
Continuous
 62
     6
370
    13
100
AcDbLine
 10
-359.846588342031
 20
170.2683892072088
 30
0.0
 11
-358.9805633420311
 21
169.7683892072088
 31
0.0
  0
LINE
  5
67A
330
1F
100
AcDbEntity
  8
作図レイヤ
  6
Continuous
 62
     6
370
    13
100
AcDbLine
 10
-359.846588342031
 20
170.2683892072088
 30
0.0
 11
-368.846588342031
 21
170.2683892072088
 31
0.0
  0
LINE
  5
67B
330
1F
100
AcDbEntity
  8
作図レイヤ
  6
Continuous
 62
     7
370
    25
100
AcDbLine
 10
-368.346588342031
 20
169.7683892072088
 30
0.0
 11
-358.2022429424323
 21
169.7683892072088
 31
0.0
  0
LINE
  5
67C
330
1F
100
AcDbEntity
  8
作図レイヤ
  6
Continuous
 62
     7
370
    25
100
AcDbLine
 10
-368.346588342031
 20
169.7683892072088
 30
0.0
 11
-369.346588342031
 21
170.7683892072088
 31
0.0
  0
LINE
  5
67D
330
1F
100
AcDbEntity
  8
作図レイヤ
  6
Continuous
 62
     7
370
    25
100
AcDbLine
 10
-369.346588342031
 20
170.7683892072088
 30
0.0
 11
-369.346588342031
 21
181.7683892072088
 31
0.0
  0
LINE
  5
67E
330
1F
100
AcDbEntity
  8
作図レイヤ
  6
Continuous
 62
     7
370
    25
100
AcDbLine
 10
-351.3465883420311
 20
170.2683892072088
 30
0.0
 11
-358.2022429424323
 21
170.2683892072088
 31
0.0
  0
LINE
  5
67F
330
1F
100
AcDbEntity
  8
作図レイヤ
  6
Continuous
 62
     7
370
    25
100
AcDbLine
 10
-358.2022429424323
 20
169.7683892072088
 30
0.0
 11
-358.2022429424323
 21
170.2683892072089
 31
0.0
  0
LINE
  5
680
330
1F
100
AcDbEntity
  8
作図レイヤ
  6
Continuous
 62
     7
370
    25
100
AcDbLine
 10
-351.3465883420311
 20
169.7683892072088
 30
0.0
 11
-351.346588342031
 21
170.2683892072089
 31
0.0
  0
LINE
  5
683
330
1F
100
AcDbEntity
  8
作図レイヤ
  6
Continuous
 62
     7
370
    25
100
AcDbLine
 10
-319.3465883420311
 20
193.7683892072089
 30
0.0
 11
-351.3465883420311
 21
193.7683892072088
 31
0.0
  0
LINE
  5
684
330
1F
100
AcDbEntity
  8
作図レイヤ
  6
Continuous
 62
     7
370
    25
100
AcDbLine
 10
-315.846588342031
 20
201.7683892072087
 30
0.0
 11
-315.3465883420314
 21
201.7683892072087
 31
0.0
  0
LINE
  5
685
330
1F
100
AcDbEntity
  8
作図レイヤ
  6
Continuous
 62
     7
370
    25
100
AcDbLine
 10
-319.3465883420311
 20
169.7683892072088
 30
0.0
 11
-351.3465883420311
 21
169.7683892072088
 31
0.0
  0
LINE
  5
686
102
{ACAD_REACTORS
330
91D
102
}
330
1F
100
AcDbEntity
  8
作図レイヤ
  6
Continuous
 62
     7
370
    25
100
AcDbLine
 10
-57.84658834203128
 20
220.7683891990609
 30
0.0
 11
-57.84658834203117
 21
142.7683892072088
 31
0.0
  0
LINE
  5
687
102
{ACAD_REACTORS
330
90E
102
}
330
1F
100
AcDbEntity
  8
作図レイヤ
  6
Continuous
 62
     7
370
    25
100
AcDbLine
 10
-57.84658834203128
 20
220.7683891990609
 30
0.0
 11
-58.84658834203128
 21
221.7683891991869
 31
0.0
  0
LINE
  5
688
330
1F
100
AcDbEntity
  8
作図レイヤ
  6
Continuous
 62
     7
370
    25
100
AcDbLine
 10
-57.84658834203117
 20
142.7683892072088
 30
0.0
 11
-58.84658834203117
 21
141.7683892072088
 31
0.0
  0
LINE
  5
689
330
1F
100
AcDbEntity
  8
作図レイヤ
  6
DASHDOT
 62
     4
370
    13
100
AcDbLine
 10
-31.32942640936574
 20
202.7683892072088
 30
0.0
 11
-57.84658834203123
 21
202.7683892072089
 31
0.0
  0
LINE
  5
68A
330
1F
100
AcDbEntity
  8
作図レイヤ
  6
DASHDOT
 62
     4
370
    13
100
AcDbLine
 10
-27.3115558631052
 20
160.7683892072088
 30
0.0
 11
-57.84658834203117
 21
160.7683892072088
 31
0.0
  0
LINE
  5
68B
330
1F
100
AcDbEntity
  8
作図レイヤ
  6
Continuous
 62
     7
370
    13
100
AcDbLine
 10
-52.44658834203028
 20
201.5753011590306
 30
0.0
 11
-52.53457429566924
 21
198.760348137474
 31
0.0
  0
LINE
  5
68C
330
1F
100
AcDbEntity
  8
作図レイヤ
  6
Continuous
 62
     7
370
    13
100
AcDbLine
 10
-52.44658834203028
 20
198.8758172472091
 30
0.0
 11
-52.50283848636832
 21
198.7783892072088
 31
0.0
  0
LINE
  5
68D
330
1F
100
AcDbEntity
  8
作図レイヤ
  6
Continuous
 62
     7
370
    13
100
AcDbLine
 10
-56.34658834203128
 20
198.2683892072088
 30
0.0
 11
-57.84658834203128
 21
198.2683892072088
 31
0.0
  0
LINE
  5
68E
330
1F
100
AcDbEntity
  8
作図レイヤ
  6
Continuous
 62
     7
370
    13
100
AcDbLine
 10
-56.34658834203128
 20
198.2683892072088
 30
0.0
 11
-55.84658834203128
 21
198.7683892072088
 31
0.0
  0
LINE
  5
68F
330
1F
100
AcDbEntity
  8
作図レイヤ
  6
Continuous
 62
     7
370
    13
100
AcDbLine
 10
-55.84658834203128
 20
198.7683892072088
 30
0.0
 11
-55.84658834203128
 21
198.9783892072086
 31
0.0
  0
LINE
  5
690
330
1F
100
AcDbEntity
  8
作図レイヤ
  6
Continuous
 62
     7
370
    13
100
AcDbLine
 10
-55.84658834203128
 20
202.7683892072088
 30
0.0
 11
-55.84658834203128
 21
198.9777026905071
 31
0.0
  0
LINE
  5
691
330
1F
100
AcDbEntity
  8
作図レイヤ
  6
Continuous
 62
     7
370
    13
100
AcDbLine
 10
-56.34658834203128
 20
202.252702690507
 30
0.0
 11
-57.84658834203128
 21
202.252702690507
 31
0.0
  0
LINE
  5
692
330
1F
100
AcDbEntity
  8
作図レイヤ
  6
Continuous
 62
     7
370
    13
100
AcDbLine
 10
-56.34658834203128
 20
202.7683892072088
 30
0.0
 11
-56.34658834203128
 21
202.252702690507
 31
0.0
  0
LINE
  5
693
330
1F
100
AcDbEntity
  8
作図レイヤ
  6
Continuous
 62
     7
370
    13
100
AcDbLine
 10
-56.34658834203128
 20
198.7840757239116
 30
0.0
 11
-57.84658834203128
 21
198.7840757239116
 31
0.0
  0
LINE
  5
694
330
1F
100
AcDbEntity
  8
作図レイヤ
  6
Continuous
 62
     7
370
    13
100
AcDbLine
 10
-56.34658834203128
 20
198.2683892072088
 30
0.0
 11
-56.34658834203128
 21
198.7840757239116
 31
0.0
  0
LINE
  5
695
330
1F
100
AcDbEntity
  8
作図レイヤ
  6
Continuous
 62
     7
370
    13
100
AcDbLine
 10
-45.64658834203033
 20
202.2527026905074
 30
0.0
 11
-45.64658834203033
 21
202.7683892072088
 31
0.0
  0
LINE
  5
696
330
1F
100
AcDbEntity
  8
作図レイヤ
  6
Continuous
 62
     7
370
    13
100
AcDbLine
 10
-52.14658834203033
 20
202.2527026905074
 30
0.0
 11
-52.14658834203033
 21
202.7683892072088
 31
0.0
  0
LINE
  5
697
330
1F
100
AcDbEntity
  8
作図レイヤ
  6
Continuous
 62
     7
370
    13
100
AcDbLine
 10
-46.64658834203033
 20
198.2683892072088
 30
0.0
 11
-45.64658834203033
 21
198.2683892072088
 31
0.0
  0
LINE
  5
698
330
1F
100
AcDbEntity
  8
作図レイヤ
  6
Continuous
 62
     7
370
    13
100
AcDbLine
 10
-52.44658834203028
 20
198.5683892072088
 30
0.0
 11
-52.14658834203033
 21
198.2683892072088
 31
0.0
  0
LINE
  5
699
330
1F
100
AcDbEntity
  8
作図レイヤ
  6
Continuous
 62
     7
370
    13
100
AcDbLine
 10
-52.44658834203028
 20
202.7683892072088
 30
0.0
 11
-52.44658834203028
 21
198.5683892072088
 31
0.0
  0
LINE
  5
69A
330
1F
100
AcDbEntity
  8
作図レイヤ
  6
Continuous
 62
     7
370
    13
100
AcDbLine
 10
-52.14658834203033
 20
198.2683892072088
 30
0.0
 11
-51.94658834203028
 21
198.2683892072088
 31
0.0
  0
LINE
  5
69B
330
1F
100
AcDbEntity
  8
作図レイヤ
  6
Continuous
 62
     7
370
    13
100
AcDbLine
 10
-45.64658834203033
 20
198.2683892072088
 30
0.0
 11
-43.94408834203034
 21
199.0481572359615
 31
0.0
  0
LINE
  5
69C
330
1F
100
AcDbEntity
  8
作図レイヤ
  6
Continuous
 62
     7
370
    13
100
AcDbLine
 10
-43.94408834203034
 20
202.7683892072088
 30
0.0
 11
-43.94408834203034
 21
199.0481572359615
 31
0.0
  0
LINE
  5
69D
330
1F
100
AcDbEntity
  8
作図レイヤ
  6
Continuous
 62
     7
370
    13
100
AcDbLine
 10
-45.64658834203033
 20
202.2527026905074
 30
0.0
 11
-52.14658834203033
 21
202.2527026905074
 31
0.0
  0
LINE
  5
69E
330
1F
100
AcDbEntity
  8
作図レイヤ
  6
Continuous
 62
     7
370
    13
100
AcDbLine
 10
-45.64658834203033
 20
198.7840757239105
 30
0.0
 11
-52.14658834203033
 21
198.7840757239105
 31
0.0
  0
LINE
  5
69F
330
1F
100
AcDbEntity
  8
作図レイヤ
  6
Continuous
 62
     7
370
    13
100
AcDbLine
 10
-45.64658834203033
 20
198.2683892072088
 30
0.0
 11
-45.64658834203033
 21
198.7840757239105
 31
0.0
  0
LINE
  5
6A0
330
1F
100
AcDbEntity
  8
作図レイヤ
  6
Continuous
 62
     7
370
    13
100
AcDbLine
 10
-52.14658834203033
 20
198.2683892072088
 30
0.0
 11
-45.64658834203033
 21
198.2683892072088
 31
0.0
  0
LINE
  5
6A1
330
1F
100
AcDbEntity
  8
作図レイヤ
  6
Continuous
 62
     7
370
    13
100
AcDbLine
 10
-52.14658834203033
 20
198.2683892072088
 30
0.0
 11
-52.14658834203033
 21
198.7840757239105
 31
0.0
  0
LINE
  5
6A2
330
1F
100
AcDbEntity
  8
作図レイヤ
  6
Continuous
 62
     7
370
    13
100
AcDbLine
 10
-51.94658834203028
 20
198.2683892072088
 30
0.0
 11
-52.14658834203033
 21
198.2683892072088
 31
0.0
  0
LINE
  5
6A3
330
1F
100
AcDbEntity
  8
作図レイヤ
  6
Continuous
 62
     7
370
    13
100
AcDbLine
 10
-52.44524928347926
 20
198.7683892072088
 30
0.0
 11
-52.44658834203028
 21
198.7707085230356
 31
0.0
  0
LINE
  5
6A4
330
1F
100
AcDbEntity
  8
作図レイヤ
  6
Continuous
 62
     7
370
    13
100
AcDbLine
 10
-42.54408834203025
 20
199.6683892072089
 30
0.0
 11
-43.54408834203025
 21
199.4683892072091
 31
0.0
  0
LINE
  5
6A5
330
1F
100
AcDbEntity
  8
作図レイヤ
  6
Continuous
 62
     7
370
    13
100
AcDbLine
 10
-43.54408834203025
 20
202.7683892072088
 30
0.0
 11
-43.54408834203025
 21
199.4683892072091
 31
0.0
  0
LINE
  5
6A6
330
1F
100
AcDbEntity
  8
作図レイヤ
  6
Continuous
 62
     7
370
    13
100
AcDbLine
 10
-43.54408834203025
 20
199.4683892072091
 30
0.0
 11
-43.94408834203034
 21
199.4683892072089
 31
0.0
  0
LINE
  5
6A7
330
1F
100
AcDbEntity
  8
作図レイヤ
  6
Continuous
 62
     7
370
    13
100
AcDbLine
 10
-42.54408834203025
 20
199.6683892072089
 30
0.0
 11
-42.54408834203025
 21
202.7683892072088
 31
0.0
  0
LINE
  5
6A8
330
1F
100
AcDbEntity
  8
作図レイヤ
  6
Continuous
 62
     7
370
    13
100
AcDbLine
 10
-42.54408834203025
 20
202.7683892072088
 30
0.0
 11
-42.54408834203025
 21
205.8683892072087
 31
0.0
  0
LINE
  5
6A9
330
1F
100
AcDbEntity
  8
作図レイヤ
  6
Continuous
 62
     7
370
    13
100
AcDbLine
 10
-52.4715884575013
 20
206.487756207209
 30
0.0
 11
-52.44658834203028
 21
206.5310576472108
 31
0.0
  0
LINE
  5
6AA
330
1F
100
AcDbEntity
  8
作図レイヤ
  6
Continuous
 62
     7
370
    13
100
AcDbLine
 10
-52.4715884575013
 20
206.487756207209
 30
0.0
 11
-52.59658834203128
 21
206.487756207209
 31
0.0
  0
LINE
  5
6AB
330
1F
100
AcDbEntity
  8
作図レイヤ
  6
Continuous
 62
     7
370
    13
100
AcDbLine
 10
-52.4715884575013
 20
206.487756207209
 30
0.0
 11
-52.59658834203128
 21
206.487756207209
 31
0.0
  0
LINE
  5
6AC
330
1F
100
AcDbEntity
  8
作図レイヤ
  6
Continuous
 62
     7
370
    13
100
AcDbLine
 10
-52.75283848636934
 20
206.7583892072088
 30
0.0
 11
-52.59658834203128
 21
206.487756207209
 31
0.0
  0
LINE
  5
6AD
330
1F
100
AcDbEntity
  8
作図レイヤ
  6
Continuous
 62
     7
370
    13
100
AcDbLine
 10
-43.94408834203034
 20
206.0683892072088
 30
0.0
 11
-43.54408834203025
 21
206.0683892072086
 31
0.0
  0
LINE
  5
6AE
330
1F
100
AcDbEntity
  8
作図レイヤ
  6
Continuous
 62
     7
370
    13
100
AcDbLine
 10
-43.54408834203025
 20
206.0683892072086
 30
0.0
 11
-43.54408834203025
 21
202.7683892072088
 31
0.0
  0
LINE
  5
6AF
330
1F
100
AcDbEntity
  8
作図レイヤ
  6
Continuous
 62
     7
370
    13
100
AcDbLine
 10
-43.54408834203025
 20
206.0683892072086
 30
0.0
 11
-42.54408834203025
 21
205.8683892072087
 31
0.0
  0
LINE
  5
6B0
330
1F
100
AcDbEntity
  8
作図レイヤ
  6
Continuous
 62
     7
370
    13
100
AcDbLine
 10
-52.44658834203028
 20
206.7660698913821
 30
0.0
 11
-52.44524928347926
 21
206.7683892072088
 31
0.0
  0
LINE
  5
6B1
330
1F
100
AcDbEntity
  8
作図レイヤ
  6
Continuous
 62
     7
370
    13
100
AcDbLine
 10
-52.14658834203033
 20
207.2683892072088
 30
0.0
 11
-51.94658834203028
 21
207.2683892072088
 31
0.0
  0
LINE
  5
6B2
330
1F
100
AcDbEntity
  8
作図レイヤ
  6
Continuous
 62
     7
370
    13
100
AcDbLine
 10
-52.14658834203033
 20
206.752702690507
 30
0.0
 11
-52.14658834203033
 21
207.2683892072088
 31
0.0
  0
LINE
  5
6B3
330
1F
100
AcDbEntity
  8
作図レイヤ
  6
Continuous
 62
     7
370
    13
100
AcDbLine
 10
-45.64658834203033
 20
207.2683892072088
 30
0.0
 11
-52.14658834203033
 21
207.2683892072088
 31
0.0
  0
LINE
  5
6B4
330
1F
100
AcDbEntity
  8
作図レイヤ
  6
Continuous
 62
     7
370
    13
100
AcDbLine
 10
-45.64658834203033
 20
206.752702690507
 30
0.0
 11
-45.64658834203033
 21
207.2683892072088
 31
0.0
  0
LINE
  5
6B5
330
1F
100
AcDbEntity
  8
作図レイヤ
  6
Continuous
 62
     7
370
    13
100
AcDbLine
 10
-52.14658834203033
 20
206.752702690507
 30
0.0
 11
-45.64658834203033
 21
206.752702690507
 31
0.0
  0
LINE
  5
6B6
330
1F
100
AcDbEntity
  8
作図レイヤ
  6
Continuous
 62
     7
370
    13
100
AcDbLine
 10
-52.14658834203033
 20
203.2840757239102
 30
0.0
 11
-45.64658834203033
 21
203.2840757239102
 31
0.0
  0
LINE
  5
6B7
330
1F
100
AcDbEntity
  8
作図レイヤ
  6
Continuous
 62
     7
370
    13
100
AcDbLine
 10
-43.94408834203034
 20
206.488621178456
 30
0.0
 11
-43.94408834203034
 21
202.7683892072088
 31
0.0
  0
LINE
  5
6B8
330
1F
100
AcDbEntity
  8
作図レイヤ
  6
Continuous
 62
     7
370
    13
100
AcDbLine
 10
-43.94408834203034
 20
206.488621178456
 30
0.0
 11
-45.64658834203033
 21
207.2683892072088
 31
0.0
  0
LINE
  5
6B9
330
1F
100
AcDbEntity
  8
作図レイヤ
  6
Continuous
 62
     7
370
    13
100
AcDbLine
 10
-51.94658834203028
 20
207.2683892072088
 30
0.0
 11
-52.14658834203033
 21
207.2683892072088
 31
0.0
  0
LINE
  5
6BA
330
1F
100
AcDbEntity
  8
作図レイヤ
  6
Continuous
 62
     7
370
    13
100
AcDbLine
 10
-52.44658834203028
 20
206.9683892072089
 30
0.0
 11
-52.44658834203028
 21
202.7683892072088
 31
0.0
  0
LINE
  5
6BB
330
1F
100
AcDbEntity
  8
作図レイヤ
  6
Continuous
 62
     7
370
    13
100
AcDbLine
 10
-52.14658834203033
 20
207.2683892072088
 30
0.0
 11
-52.44658834203028
 21
206.9683892072089
 31
0.0
  0
LINE
  5
6BC
330
1F
100
AcDbEntity
  8
作図レイヤ
  6
Continuous
 62
     7
370
    13
100
AcDbLine
 10
-45.64658834203033
 20
207.2683892072088
 30
0.0
 11
-46.64658834203033
 21
207.2683892072088
 31
0.0
  0
LINE
  5
6BD
330
1F
100
AcDbEntity
  8
作図レイヤ
  6
Continuous
 62
     7
370
    13
100
AcDbLine
 10
-52.14658834203033
 20
202.7683892072088
 30
0.0
 11
-52.14658834203033
 21
203.2840757239102
 31
0.0
  0
LINE
  5
6BE
330
1F
100
AcDbEntity
  8
作図レイヤ
  6
Continuous
 62
     7
370
    13
100
AcDbLine
 10
-45.64658834203033
 20
202.7683892072088
 30
0.0
 11
-45.64658834203033
 21
203.2840757239102
 31
0.0
  0
LINE
  5
6BF
330
1F
100
AcDbEntity
  8
作図レイヤ
  6
Continuous
 62
     7
370
    13
100
AcDbLine
 10
-52.78381053081227
 20
206.7764302769439
 30
0.0
 11
-53.03436626872031
 21
198.760348137474
 31
0.0
  0
LINE
  5
6C0
330
1F
100
AcDbEntity
  8
作図レイヤ
  6
Continuous
 62
     7
370
    13
100
AcDbLine
 10
-53.28408839976623
 20
206.7764313468317
 30
0.0
 11
-53.53436626872031
 21
198.760348137474
 31
0.0
  0
LINE
  5
6C1
330
1F
100
AcDbEntity
  8
作図レイヤ
  6
Continuous
 62
     7
370
    13
100
AcDbLine
 10
-53.78408839976623
 20
206.7764313468317
 30
0.0
 11
-54.03436626872031
 21
198.760348137474
 31
0.0
  0
LINE
  5
6C2
330
1F
100
AcDbEntity
  8
作図レイヤ
  6
Continuous
 62
     7
370
    13
100
AcDbLine
 10
-54.28408839976623
 20
206.7764313468317
 30
0.0
 11
-54.53436626872031
 21
198.7603481374737
 31
0.0
  0
LINE
  5
6C3
330
1F
100
AcDbEntity
  8
作図レイヤ
  6
Continuous
 62
     7
370
    13
100
AcDbLine
 10
-54.78408839976623
 20
206.7764313468317
 30
0.0
 11
-55.03436626872031
 21
198.7603481374737
 31
0.0
  0
LINE
  5
6C4
330
1F
100
AcDbEntity
  8
作図レイヤ
  6
Continuous
 62
     7
370
    13
100
AcDbLine
 10
-52.9715884575013
 20
206.487756207209
 30
0.0
 11
-52.81533831316324
 21
206.7583892072088
 31
0.0
  0
LINE
  5
6C5
330
1F
100
AcDbEntity
  8
作図レイヤ
  6
Continuous
 62
     7
370
    13
100
AcDbLine
 10
-52.9715884575013
 20
206.487756207209
 30
0.0
 11
-53.09658834203128
 21
206.487756207209
 31
0.0
  0
LINE
  5
6C6
330
1F
100
AcDbEntity
  8
作図レイヤ
  6
Continuous
 62
     7
370
    13
100
AcDbLine
 10
-52.9715884575013
 20
206.487756207209
 30
0.0
 11
-53.09658834203128
 21
206.487756207209
 31
0.0
  0
LINE
  5
6C7
330
1F
100
AcDbEntity
  8
作図レイヤ
  6
Continuous
 62
     7
370
    13
100
AcDbLine
 10
-52.9715884575013
 20
206.487756207209
 30
0.0
 11
-52.81533831316324
 21
206.7583892072088
 31
0.0
  0
LINE
  5
6C8
330
1F
100
AcDbEntity
  8
作図レイヤ
  6
Continuous
 62
     7
370
    13
100
AcDbLine
 10
-53.75283848636934
 20
206.7583892072088
 30
0.0
 11
-53.59658834203128
 21
206.487756207209
 31
0.0
  0
LINE
  5
6C9
330
1F
100
AcDbEntity
  8
作図レイヤ
  6
Continuous
 62
     7
370
    13
100
AcDbLine
 10
-53.4715884575013
 20
206.487756207209
 30
0.0
 11
-53.59658834203128
 21
206.487756207209
 31
0.0
  0
LINE
  5
6CA
330
1F
100
AcDbEntity
  8
作図レイヤ
  6
Continuous
 62
     7
370
    13
100
AcDbLine
 10
-53.4715884575013
 20
206.487756207209
 30
0.0
 11
-53.59658834203128
 21
206.487756207209
 31
0.0
  0
LINE
  5
6CB
330
1F
100
AcDbEntity
  8
作図レイヤ
  6
Continuous
 62
     7
370
    13
100
AcDbLine
 10
-53.4715884575013
 20
206.487756207209
 30
0.0
 11
-53.31533831316324
 21
206.7583892072088
 31
0.0
  0
LINE
  5
6CC
330
1F
100
AcDbEntity
  8
作図レイヤ
  6
Continuous
 62
     7
370
    13
100
AcDbLine
 10
-53.25283848636934
 20
206.7583892072088
 30
0.0
 11
-53.09658834203128
 21
206.487756207209
 31
0.0
  0
LINE
  5
6CD
330
1F
100
AcDbEntity
  8
作図レイヤ
  6
Continuous
 62
     7
370
    13
100
AcDbLine
 10
-53.9715884575013
 20
206.487756207209
 30
0.0
 11
-54.09658834203128
 21
206.487756207209
 31
0.0
  0
LINE
  5
6CE
330
1F
100
AcDbEntity
  8
作図レイヤ
  6
Continuous
 62
     7
370
    13
100
AcDbLine
 10
-53.75283848636934
 20
206.7583892072088
 30
0.0
 11
-53.59658834203128
 21
206.487756207209
 31
0.0
  0
LINE
  5
6CF
330
1F
100
AcDbEntity
  8
作図レイヤ
  6
Continuous
 62
     7
370
    13
100
AcDbLine
 10
-53.9715884575013
 20
206.487756207209
 30
0.0
 11
-53.81533831316324
 21
206.7583892072088
 31
0.0
  0
LINE
  5
6D0
330
1F
100
AcDbEntity
  8
作図レイヤ
  6
Continuous
 62
     7
370
    13
100
AcDbLine
 10
-53.9715884575013
 20
206.487756207209
 30
0.0
 11
-54.09658834203128
 21
206.487756207209
 31
0.0
  0
LINE
  5
6D1
330
1F
100
AcDbEntity
  8
作図レイヤ
  6
Continuous
 62
     7
370
    13
100
AcDbLine
 10
-54.4715884575013
 20
206.487756207209
 30
0.0
 11
-54.59658834203128
 21
206.487756207209
 31
0.0
  0
LINE
  5
6D2
330
1F
100
AcDbEntity
  8
作図レイヤ
  6
Continuous
 62
     7
370
    13
100
AcDbLine
 10
-54.25283848636934
 20
206.7583892072088
 30
0.0
 11
-54.09658834203128
 21
206.487756207209
 31
0.0
  0
LINE
  5
6D3
330
1F
100
AcDbEntity
  8
作図レイヤ
  6
Continuous
 62
     7
370
    13
100
AcDbLine
 10
-54.4715884575013
 20
206.487756207209
 30
0.0
 11
-54.31533831316324
 21
206.7583892072088
 31
0.0
  0
LINE
  5
6D4
330
1F
100
AcDbEntity
  8
作図レイヤ
  6
Continuous
 62
     7
370
    13
100
AcDbLine
 10
-54.4715884575013
 20
206.487756207209
 30
0.0
 11
-54.59658834203128
 21
206.487756207209
 31
0.0
  0
LINE
  5
6D5
330
1F
100
AcDbEntity
  8
作図レイヤ
  6
Continuous
 62
     7
370
    13
100
AcDbLine
 10
-54.4715884575013
 20
206.487756207209
 30
0.0
 11
-54.59658834203128
 21
206.487756207209
 31
0.0
  0
LINE
  5
6D6
330
1F
100
AcDbEntity
  8
作図レイヤ
  6
Continuous
 62
     7
370
    13
100
AcDbLine
 10
-54.75283848636934
 20
206.7583892072088
 30
0.0
 11
-54.59658834203128
 21
206.487756207209
 31
0.0
  0
LINE
  5
6D7
330
1F
100
AcDbEntity
  8
作図レイヤ
  6
Continuous
 62
     7
370
    13
100
AcDbLine
 10
-54.9715884575013
 20
206.487756207209
 30
0.0
 11
-54.81533831316324
 21
206.7583892072088
 31
0.0
  0
LINE
  5
6D8
330
1F
100
AcDbEntity
  8
作図レイヤ
  6
Continuous
 62
     7
370
    13
100
AcDbLine
 10
-55.06533831316233
 20
198.7783892072088
 30
0.0
 11
-55.22158845750027
 21
199.0490222072089
 31
0.0
  0
LINE
  5
6D9
330
1F
100
AcDbEntity
  8
作図レイヤ
  6
Continuous
 62
     7
370
    13
100
AcDbLine
 10
-54.84658834203026
 20
199.0490222072089
 30
0.0
 11
-55.00283848636832
 21
198.7783892072088
 31
0.0
  0
LINE
  5
6DA
330
1F
100
AcDbEntity
  8
作図レイヤ
  6
Continuous
 62
     7
370
    13
100
AcDbLine
 10
-54.84658834203026
 20
199.0490222072089
 30
0.0
 11
-54.72158845750027
 21
199.0490222072089
 31
0.0
  0
LINE
  5
6DB
330
1F
100
AcDbEntity
  8
作図レイヤ
  6
Continuous
 62
     7
370
    13
100
AcDbLine
 10
-54.84658834203026
 20
199.0490222072089
 30
0.0
 11
-54.72158845750027
 21
199.0490222072089
 31
0.0
  0
LINE
  5
6DC
330
1F
100
AcDbEntity
  8
作図レイヤ
  6
Continuous
 62
     7
370
    13
100
AcDbLine
 10
-54.56533831316233
 20
198.7783892072088
 30
0.0
 11
-54.72158845750027
 21
199.0490222072089
 31
0.0
  0
LINE
  5
6DD
330
1F
100
AcDbEntity
  8
作図レイヤ
  6
Continuous
 62
     7
370
    13
100
AcDbLine
 10
-54.34658834203026
 20
199.0490222072089
 30
0.0
 11
-54.50283848636832
 21
198.7783892072088
 31
0.0
  0
LINE
  5
6DE
330
1F
100
AcDbEntity
  8
作図レイヤ
  6
Continuous
 62
     7
370
    13
100
AcDbLine
 10
-54.84658834203026
 20
199.0490222072089
 30
0.0
 11
-54.72158845750027
 21
199.0490222072089
 31
0.0
  0
LINE
  5
6DF
330
1F
100
AcDbEntity
  8
作図レイヤ
  6
Continuous
 62
     7
370
    13
100
AcDbLine
 10
-54.34658834203026
 20
199.0490222072089
 30
0.0
 11
-54.22158845750027
 21
199.0490222072089
 31
0.0
  0
LINE
  5
6E0
330
1F
100
AcDbEntity
  8
作図レイヤ
  6
Continuous
 62
     7
370
    13
100
AcDbLine
 10
-54.06533831316233
 20
198.7783892072088
 30
0.0
 11
-54.22158845750027
 21
199.0490222072089
 31
0.0
  0
LINE
  5
6E1
330
1F
100
AcDbEntity
  8
作図レイヤ
  6
Continuous
 62
     7
370
    13
100
AcDbLine
 10
-53.84658834203026
 20
199.0490222072089
 30
0.0
 11
-54.00283848636832
 21
198.7783892072088
 31
0.0
  0
LINE
  5
6E2
330
1F
100
AcDbEntity
  8
作図レイヤ
  6
Continuous
 62
     7
370
    13
100
AcDbLine
 10
-54.34658834203026
 20
199.0490222072089
 30
0.0
 11
-54.22158845750027
 21
199.0490222072089
 31
0.0
  0
LINE
  5
6E3
330
1F
100
AcDbEntity
  8
作図レイヤ
  6
Continuous
 62
     7
370
    13
100
AcDbLine
 10
-53.56533831316233
 20
198.7783892072088
 30
0.0
 11
-53.72158845750027
 21
199.0490222072089
 31
0.0
  0
LINE
  5
6E4
330
1F
100
AcDbEntity
  8
作図レイヤ
  6
Continuous
 62
     7
370
    13
100
AcDbLine
 10
-53.34658834203026
 20
199.0490222072089
 30
0.0
 11
-53.50283848636832
 21
198.7783892072088
 31
0.0
  0
LINE
  5
6E5
330
1F
100
AcDbEntity
  8
作図レイヤ
  6
Continuous
 62
     7
370
    13
100
AcDbLine
 10
-53.84658834203026
 20
199.0490222072089
 30
0.0
 11
-53.72158845750027
 21
199.0490222072089
 31
0.0
  0
LINE
  5
6E6
330
1F
100
AcDbEntity
  8
作図レイヤ
  6
Continuous
 62
     7
370
    13
100
AcDbLine
 10
-53.06533831316233
 20
198.7783892072088
 30
0.0
 11
-53.22158845750027
 21
199.0490222072089
 31
0.0
  0
LINE
  5
6E7
330
1F
100
AcDbEntity
  8
作図レイヤ
  6
Continuous
 62
     7
370
    13
100
AcDbLine
 10
-52.84658834203026
 20
199.0490222072089
 30
0.0
 11
-53.00283848636832
 21
198.7783892072088
 31
0.0
  0
LINE
  5
6E8
330
1F
100
AcDbEntity
  8
作図レイヤ
  6
Continuous
 62
     7
370
    13
100
AcDbLine
 10
-53.34658834203026
 20
199.0490222072089
 30
0.0
 11
-53.22158845750027
 21
199.0490222072089
 31
0.0
  0
LINE
  5
6E9
330
1F
100
AcDbEntity
  8
作図レイヤ
  6
Continuous
 62
     7
370
    13
100
AcDbLine
 10
-52.56533831316233
 20
198.7783892072088
 30
0.0
 11
-52.72158845750027
 21
199.0490222072089
 31
0.0
  0
LINE
  5
6EA
330
1F
100
AcDbEntity
  8
作図レイヤ
  6
Continuous
 62
     7
370
    13
100
AcDbLine
 10
-52.84658834203026
 20
199.0490222072089
 30
0.0
 11
-52.72158845750027
 21
199.0490222072089
 31
0.0
  0
LINE
  5
6EB
330
1F
100
AcDbEntity
  8
作図レイヤ
  6
Continuous
 62
     7
370
    13
100
AcDbLine
 10
-56.34658834203128
 20
206.7527026905061
 30
0.0
 11
-56.34658834203128
 21
207.2683892072088
 31
0.0
  0
LINE
  5
6EC
330
1F
100
AcDbEntity
  8
作図レイヤ
  6
Continuous
 62
     7
370
    13
100
AcDbLine
 10
-57.84658834203128
 20
206.7527026905061
 30
0.0
 11
-56.34658834203128
 21
206.7527026905061
 31
0.0
  0
LINE
  5
6ED
330
1F
100
AcDbEntity
  8
作図レイヤ
  6
Continuous
 62
     7
370
    13
100
AcDbLine
 10
-56.34658834203128
 20
203.2840757239105
 30
0.0
 11
-56.34658834203128
 21
202.7683892072088
 31
0.0
  0
LINE
  5
6EE
330
1F
100
AcDbEntity
  8
作図レイヤ
  6
Continuous
 62
     7
370
    13
100
AcDbLine
 10
-57.84658834203128
 20
203.2840757239105
 30
0.0
 11
-56.34658834203128
 21
203.2840757239105
 31
0.0
  0
LINE
  5
6EF
330
1F
100
AcDbEntity
  8
作図レイヤ
  6
Continuous
 62
     7
370
    13
100
AcDbLine
 10
-55.84658834203128
 20
206.5590757239106
 30
0.0
 11
-55.84658834203128
 21
202.7683892072088
 31
0.0
  0
LINE
  5
6F0
330
1F
100
AcDbEntity
  8
作図レイヤ
  6
Continuous
 62
     7
370
    13
100
AcDbLine
 10
-55.84658834203128
 20
206.558389207209
 30
0.0
 11
-55.84658834203128
 21
206.7683892072088
 31
0.0
  0
LINE
  5
6F1
330
1F
100
AcDbEntity
  8
作図レイヤ
  6
Continuous
 62
     7
370
    13
100
AcDbLine
 10
-55.84658834203128
 20
206.7683892072088
 30
0.0
 11
-56.34658834203128
 21
207.2683892072088
 31
0.0
  0
LINE
  5
6F2
330
1F
100
AcDbEntity
  8
作図レイヤ
  6
Continuous
 62
     7
370
    13
100
AcDbLine
 10
-55.64658834203033
 20
206.4877562072106
 30
0.0
 11
-54.9715884575013
 21
206.487756207209
 31
0.0
  0
LINE
  5
6F3
330
1F
100
AcDbEntity
  8
作図レイヤ
  6
Continuous
 62
     7
370
    13
100
AcDbLine
 10
-57.84658834203128
 20
207.2683892072088
 30
0.0
 11
-56.34658834203128
 21
207.2683892072088
 31
0.0
  0
LINE
  5
6F4
330
1F
100
AcDbEntity
  8
作図レイヤ
  6
Continuous
 62
     7
370
    13
100
AcDbLine
 10
-55.84658834203128
 20
198.7683892072088
 30
0.0
 11
-55.84658834203128
 21
198.8490222072089
 31
0.0
  0
LINE
  5
6F5
330
1F
100
AcDbEntity
  8
作図レイヤ
  6
Continuous
 62
     7
370
    13
100
AcDbLine
 10
-55.22158845750027
 20
199.0490222072089
 30
0.0
 11
-55.64658834203033
 21
199.0490222072078
 31
0.0
  0
ARC
  5
6F6
330
1F
100
AcDbEntity
  8
作図レイヤ
  6
Continuous
 62
     7
370
    13
100
AcDbCircle
 10
-55.64658834203033
 20
206.6877562072097
 30
0.0
 40
0.1999999999990933
100
AcDbArc
 50
180.0
 51
270.0
  0
ARC
  5
6F7
330
1F
100
AcDbEntity
  8
作図レイヤ
  6
Continuous
 62
     7
370
    13
100
AcDbCircle
 10
-55.64658834203033
 20
198.8490222072089
 30
0.0
 40
0.2000000000009976
100
AcDbArc
 50
90.0
 51
180.0
  0
ARC
  5
6F8
330
1F
100
AcDbEntity
  8
作図レイヤ
  6
Continuous
 62
     7
370
    13
100
AcDbCircle
 10
-59.56950702364634
 20
200.5183892072088
 30
0.0
 40
3.659924601225084
100
AcDbArc
 50
331.7144651302544
 51
28.28553486975676
  0
ARC
  5
6F9
330
1F
100
AcDbEntity
  8
作図レイヤ
  6
Continuous
 62
     7
370
    13
100
AcDbCircle
 10
-48.86950701062324
 20
200.5183892072088
 30
0.0
 40
3.659924589758088
100
AcDbArc
 50
331.7144650336379
 51
28.28553496636216
  0
ARC
  5
6FA
330
1F
100
AcDbEntity
  8
作図レイヤ
  6
Continuous
 62
     7
370
    13
100
AcDbCircle
 10
-46.54198740308732
 20
200.5183892072088
 30
0.0
 40
5.866804491642061
100
AcDbArc
 50
162.805600575136
 51
197.194399424864
  0
ARC
  5
6FB
330
1F
100
AcDbEntity
  8
作図レイヤ
  6
Continuous
 62
     7
370
    13
100
AcDbCircle
 10
-52.78408839976623
 20
206.7403470487179
 30
0.0
 40
0.0360842981133216
100
AcDbArc
 50
30.0000172973735
 51
149.9999827025874
  0
ARC
  5
6FC
330
1F
100
AcDbEntity
  8
作図レイヤ
  6
Continuous
 62
     7
370
    13
100
AcDbCircle
 10
-46.54198740308732
 20
205.0183892072088
 30
0.0
 40
5.866804491642061
100
AcDbArc
 50
162.8056005751369
 51
197.194399424864
  0
ARC
  5
6FD
330
1F
100
AcDbEntity
  8
作図レイヤ
  6
Continuous
 62
     7
370
    13
100
AcDbCircle
 10
-48.86950701062324
 20
205.0183892072088
 30
0.0
 40
3.659924589758041
100
AcDbArc
 50
331.714465033638
 51
28.28553496636098
  0
ARC
  5
6FE
330
1F
100
AcDbEntity
  8
作図レイヤ
  6
Continuous
 62
     7
370
    13
100
AcDbCircle
 10
-53.28408839976623
 20
206.7403470487179
 30
0.0
 40
0.0360842981133216
100
AcDbArc
 50
30.0000172973735
 51
149.9999827025874
  0
ARC
  5
6FF
330
1F
100
AcDbEntity
  8
作図レイヤ
  6
Continuous
 62
     7
370
    13
100
AcDbCircle
 10
-53.78408839976623
 20
206.7403470487179
 30
0.0
 40
0.0360842981133216
100
AcDbArc
 50
30.0000172973735
 51
149.9999827025874
  0
ARC
  5
700
330
1F
100
AcDbEntity
  8
作図レイヤ
  6
Continuous
 62
     7
370
    13
100
AcDbCircle
 10
-54.28408839976623
 20
206.7403470487179
 30
0.0
 40
0.0360842981133216
100
AcDbArc
 50
30.0000172973735
 51
149.9999827025874
  0
ARC
  5
701
330
1F
100
AcDbEntity
  8
作図レイヤ
  6
Continuous
 62
     7
370
    13
100
AcDbCircle
 10
-54.78408839976623
 20
206.7403470487179
 30
0.0
 40
0.0360842981133216
100
AcDbArc
 50
30.0000172973735
 51
149.9999827025874
  0
ARC
  5
702
330
1F
100
AcDbEntity
  8
作図レイヤ
  6
Continuous
 62
     7
370
    13
100
AcDbCircle
 10
-55.03408839976532
 20
198.7964313656996
 30
0.0
 40
0.0360842981132718
100
AcDbArc
 50
210.0000172972562
 51
329.9999827027437
  0
ARC
  5
703
330
1F
100
AcDbEntity
  8
作図レイヤ
  6
Continuous
 62
     7
370
    13
100
AcDbCircle
 10
-54.53408839976532
 20
198.7964313656996
 30
0.0
 40
0.0360842981132718
100
AcDbArc
 50
210.0000172972562
 51
329.9999827027437
  0
ARC
  5
704
330
1F
100
AcDbEntity
  8
作図レイヤ
  6
Continuous
 62
     7
370
    13
100
AcDbCircle
 10
-54.03408839976532
 20
198.7964313656996
 30
0.0
 40
0.0360842981132718
100
AcDbArc
 50
210.0000172972562
 51
329.9999827027437
  0
ARC
  5
705
330
1F
100
AcDbEntity
  8
作図レイヤ
  6
Continuous
 62
     7
370
    13
100
AcDbCircle
 10
-53.53408839976532
 20
198.7964313656996
 30
0.0
 40
0.0360842981132718
100
AcDbArc
 50
210.0000172972562
 51
329.9999827027437
  0
ARC
  5
706
330
1F
100
AcDbEntity
  8
作図レイヤ
  6
Continuous
 62
     7
370
    13
100
AcDbCircle
 10
-53.03408839976532
 20
198.7964313656996
 30
0.0
 40
0.0360842981132718
100
AcDbArc
 50
210.0000172972562
 51
329.9999827027437
  0
ARC
  5
707
330
1F
100
AcDbEntity
  8
作図レイヤ
  6
Continuous
 62
     7
370
    13
100
AcDbCircle
 10
-52.53408839976532
 20
198.7964313656996
 30
0.0
 40
0.0360842981132718
100
AcDbArc
 50
210.0000172972562
 51
329.9999827027437
  0
ARC
  5
708
330
1F
100
AcDbEntity
  8
作図レイヤ
  6
Continuous
 62
     7
370
    13
100
AcDbCircle
 10
-59.56950702364634
 20
205.0183892072088
 30
0.0
 40
3.6599246012247
100
AcDbArc
 50
331.714465130242
 51
28.28553486974579
  0
LINE
  5
709
330
1F
100
AcDbEntity
  8
作図レイヤ
  6
Continuous
 62
     7
370
    25
100
AcDbLine
 10
-34.226105997844
 20
204.7683892072088
 30
0.0
 11
-42.54408834203025
 21
204.7683892072088
 31
0.0
  0
LINE
  5
70A
330
1F
100
AcDbEntity
  8
作図レイヤ
  6
Continuous
 62
     7
370
    25
100
AcDbLine
 10
-34.226105997844
 20
200.7683892072088
 30
0.0
 11
-42.54408834203025
 21
200.7683892072088
 31
0.0
  0
LINE
  5
70B
330
1F
100
AcDbEntity
  8
作図レイヤ
  6
Continuous
 62
     7
370
    25
100
AcDbLine
 10
-36.99278355163392
 20
184.7683892072089
 30
0.0
 11
-41.54658834203133
 21
184.7683892072089
 31
0.0
  0
LINE
  5
70C
330
1F
100
AcDbEntity
  8
作図レイヤ
  6
Continuous
 62
     7
370
    25
100
AcDbLine
 10
-36.99278355163392
 20
178.7683892072089
 30
0.0
 11
-41.54658834202849
 21
178.7683892072089
 31
0.0
  0
LINE
  5
70D
330
1F
100
AcDbEntity
  8
作図レイヤ
  6
Continuous
 62
     7
370
    25
100
AcDbLine
 10
-43.64648834203126
 20
178.630389207209
 30
0.0
 11
-43.04658834203133
 21
178.630389207209
 31
0.0
  0
LINE
  5
70E
330
1F
100
AcDbEntity
  8
作図レイヤ
  6
Continuous
 62
     7
370
    25
100
AcDbLine
 10
-41.54658834203133
 20
176.818389207209
 30
0.0
 11
-43.04658834203133
 21
176.818389207209
 31
0.0
  0
LINE
  5
70F
330
1F
100
AcDbEntity
  8
作図レイヤ
  6
Continuous
 62
     7
370
    25
100
AcDbLine
 10
-43.64648834203126
 20
176.818389207209
 30
0.0
 11
-44.69648834203133
 21
176.818389207209
 31
0.0
  0
LINE
  5
710
330
1F
100
AcDbEntity
  8
作図レイヤ
  6
Continuous
 62
     7
370
    25
100
AcDbLine
 10
-53.04658834203133
 20
176.768389207209
 30
0.0
 11
-44.69648834203133
 21
176.768389207209
 31
0.0
  0
LINE
  5
711
330
1F
100
AcDbEntity
  8
作図レイヤ
  6
Continuous
 62
     7
370
    25
100
AcDbLine
 10
-57.84658834203123
 20
177.768389207209
 30
0.0
 11
-53.04658834203133
 21
177.768389207209
 31
0.0
  0
LINE
  5
712
330
1F
100
AcDbEntity
  8
作図レイヤ
  6
Continuous
 62
     7
370
    25
100
AcDbLine
 10
-43.64648834203126
 20
184.906389207209
 30
0.0
 11
-43.04658834203133
 21
184.906389207209
 31
0.0
  0
LINE
  5
713
330
1F
100
AcDbEntity
  8
作図レイヤ
  6
Continuous
 62
     7
370
    25
100
AcDbLine
 10
-41.54658834203133
 20
186.7183892072089
 30
0.0
 11
-41.54658834203133
 21
176.818389207209
 31
0.0
  0
LINE
  5
714
330
1F
100
AcDbEntity
  8
作図レイヤ
  6
Continuous
 62
     7
370
    25
100
AcDbLine
 10
-43.04658834203133
 20
186.7183892072089
 30
0.0
 11
-43.04658834203133
 21
176.818389207209
 31
0.0
  0
LINE
  5
715
330
1F
100
AcDbEntity
  8
作図レイヤ
  6
Continuous
 62
     7
370
    25
100
AcDbLine
 10
-41.54658834203133
 20
186.7183892072089
 30
0.0
 11
-43.04658834203133
 21
186.7183892072089
 31
0.0
  0
LINE
  5
716
330
1F
100
AcDbEntity
  8
作図レイヤ
  6
Continuous
 62
     7
370
    25
100
AcDbLine
 10
-43.64648834203126
 20
186.7183892072089
 30
0.0
 11
-43.64648834203126
 21
176.818389207209
 31
0.0
  0
LINE
  5
717
330
1F
100
AcDbEntity
  8
作図レイヤ
  6
Continuous
 62
     7
370
    25
100
AcDbLine
 10
-43.64648834203126
 20
186.7183892072089
 30
0.0
 11
-44.69648834203133
 21
186.7183892072089
 31
0.0
  0
LINE
  5
718
330
1F
100
AcDbEntity
  8
作図レイヤ
  6
Continuous
 62
     7
370
    25
100
AcDbLine
 10
-44.69648834203133
 20
176.768389207209
 30
0.0
 11
-44.69648834203133
 21
186.768389207209
 31
0.0
  0
LINE
  5
719
330
1F
100
AcDbEntity
  8
作図レイヤ
  6
Continuous
 62
     7
370
    25
100
AcDbLine
 10
-53.04658834203133
 20
176.768389207209
 30
0.0
 11
-53.04658834203133
 21
186.768389207209
 31
0.0
  0
LINE
  5
71A
330
1F
100
AcDbEntity
  8
作図レイヤ
  6
Continuous
 62
     7
370
    25
100
AcDbLine
 10
-53.04658834203133
 20
186.768389207209
 30
0.0
 11
-44.69648834203133
 21
186.768389207209
 31
0.0
  0
LINE
  5
71B
330
1F
100
AcDbEntity
  8
作図レイヤ
  6
Continuous
 62
     7
370
    25
100
AcDbLine
 10
-57.84658834203123
 20
185.768389207209
 30
0.0
 11
-53.04658834203133
 21
185.768389207209
 31
0.0
  0
LINE
  5
71C
330
1F
100
AcDbEntity
  8
作図レイヤ
  6
Continuous
 62
     7
370
    25
100
AcDbLine
 10
-315.8465883420317
 20
212.7683892072088
 30
0.0
 11
-316.3465883420318
 21
212.7683892072088
 31
0.0
  0
LINE
  5
71D
330
1F
100
AcDbEntity
  8
作図レイヤ
  6
Continuous
 62
     7
370
    25
100
AcDbLine
 10
-319.3465883420309
 20
181.7683892072088
 30
0.0
 11
-319.3465883420314
 21
153.7683892072088
 31
0.0
  0
LINE
  5
71E
330
1F
100
AcDbEntity
  8
作図レイヤ
  6
Continuous
 62
     7
370
    25
100
AcDbLine
 10
-316.3465883420318
 20
150.7683892072088
 30
0.0
 11
-319.3465883420315
 21
153.7683892072086
 31
0.0
  0
LINE
  5
71F
330
1F
100
AcDbEntity
  8
作図レイヤ
  6
Continuous
 62
     7
370
    25
100
AcDbLine
 10
-315.8465883420296
 20
181.7683892072088
 30
0.0
 11
-315.8465883420318
 21
150.7683892072089
 31
0.0
  0
LINE
  5
720
330
1F
100
AcDbEntity
  8
作図レイヤ
  6
Continuous
 62
     7
370
    25
100
AcDbLine
 10
-315.846588342031
 20
161.768389207209
 30
0.0
 11
-315.3465883420314
 21
161.768389207209
 31
0.0
  0
LINE
  5
721
330
1F
100
AcDbEntity
  8
作図レイヤ
  6
Continuous
 62
     7
370
    25
100
AcDbLine
 10
-315.8465883420317
 20
150.7683892072088
 30
0.0
 11
-316.3465883420318
 21
150.7683892072088
 31
0.0
  0
INSERT
  5
728
330
1F
100
AcDbEntity
  8
作図レイヤ
  6
Continuous
 62
     4
370
    13
100
AcDbBlockReference
  2
BLKF026
 10
15.78571428571513
 20
0.0
 30
0.0
 41
-1.0
  0
INSERT
  5
729
330
1F
100
AcDbEntity
  8
作図レイヤ
  6
Continuous
 62
     4
370
    13
100
AcDbBlockReference
  2
BLKF027
 10
15.78571428571513
 20
0.0
 30
0.0
 41
-1.0
  0
LINE
  5
72A
330
1F
100
AcDbEntity
  8
作図レイヤ
  6
Continuous
 62
     7
370
    25
100
AcDbLine
 10
-351.346588342031
 20
185.1962165074094
 30
0.0
 11
-358.2022429424323
 21
185.1962165074094
 31
0.0
  0
LINE
  5
72B
330
1F
100
AcDbEntity
  8
作図レイヤ
  6
Continuous
 62
     7
370
    25
100
AcDbLine
 10
-358.2022429424323
 20
181.7683892072088
 30
0.0
 11
-358.2022429424323
 21
185.1962165074094
 31
0.0
  0
LINE
  5
72C
330
1F
100
AcDbEntity
  8
作図レイヤ
  6
Continuous
 62
     7
370
    25
100
AcDbLine
 10
-351.3465883420311
 20
181.7683892072088
 30
0.0
 11
-351.3465883420311
 21
185.1962165074094
 31
0.0
  0
LINE
  5
72D
330
1F
100
AcDbEntity
  8
作図レイヤ
  6
Continuous
 62
     7
370
    25
100
AcDbLine
 10
-351.3465883420311
 20
185.1962165074094
 30
0.0
 11
-354.7744156422318
 21
181.7683892072089
 31
0.0
  0
LINE
  5
72E
330
1F
100
AcDbEntity
  8
作図レイヤ
  6
Continuous
 62
     7
370
    25
100
AcDbLine
 10
-354.7744156422318
 20
181.7683892072089
 30
0.0
 11
-358.2022429424323
 21
185.1962165074094
 31
0.0
  0
LINE
  5
738
330
1F
100
AcDbEntity
  8
作図レイヤ
  6
Continuous
 62
     7
370
    25
100
AcDbLine
 10
-58.84658834278747
 20
181.7683892054121
 30
0.0
 11
-58.8465883427875
 21
221.7683892039452
 31
0.0
  0
LINE
  5
739
330
1F
100
AcDbEntity
  8
作図レイヤ
  6
Continuous
 62
     7
370
    25
100
AcDbLine
 10
-58.8465883427875
 20
141.7683892054121
 30
0.0
 11
-58.84658834278753
 21
181.7683892054121
 31
0.0
  0
LINE
  5
73A
330
1F
100
AcDbEntity
  8
作図レイヤ
  6
Continuous
 62
     7
370
    25
100
AcDbLine
 10
-368.346588342031
 20
193.7683892072088
 30
0.0
 11
-368.346588342031
 21
169.7683892072088
 31
0.0
  0
LINE
  5
73D
330
1F
100
AcDbEntity
  8
作図レイヤ
  6
DASHDOT
 62
     4
370
    13
100
AcDbLine
 10
-31.89747808205553
 20
181.7683892072088
 30
0.0
 11
-381.2261116715435
 21
181.7683892072088
 31
0.0
  0
LINE
  5
744
330
1F
100
AcDbEntity
  8
作図レイヤ
  6
DASHED
 62
     8
370
    13
100
AcDbLine
 10
-370.4465883420318
 20
188.2683892072089
 30
0.0
 11
-370.4465883420318
 21
189.3983892072089
 31
0.0
  0
ARC
  5
746
330
1F
100
AcDbEntity
  8
作図レイヤ
  6
DASHED
 62
     8
370
    13
100
AcDbCircle
 10
-375.748587884116
 20
166.7683892072089
 30
0.0
 40
0.5
100
AcDbArc
 50
180.0
 51
270.0
  0
LINE
  5
747
330
1F
100
AcDbEntity
  8
作図レイヤ
  6
DASHED
 62
     8
370
    13
100
AcDbLine
 10
-376.248587884116
 20
166.7683892072089
 30
0.0
 11
-376.248587884116
 21
181.7683892072088
 31
0.0
  0
LINE
  5
748
330
1F
100
AcDbEntity
  8
作図レイヤ
  6
DASHED
 62
     8
370
    13
100
AcDbLine
 10
-366.448587884116
 20
179.7683892072089
 30
0.0
 11
-362.448587884116
 21
179.7683892072089
 31
0.0
  0
ARC
  5
749
330
1F
100
AcDbEntity
  8
作図レイヤ
  6
DASHED
 62
     8
370
    13
100
AcDbCircle
 10
-366.448587884116
 20
181.7683892072089
 30
0.0
 40
2.0
100
AcDbArc
 50
180.0
 51
270.0
  0
LINE
  5
74A
330
1F
100
AcDbEntity
  8
作図レイヤ
  6
DASHED
 62
     8
370
    13
100
AcDbLine
 10
-369.7364558841159
 20
166.8562572072088
 30
0.0
 11
-370.324323884116
 21
166.2683892072089
 31
0.0
  0
LINE
  5
74B
330
1F
100
AcDbEntity
  8
作図レイヤ
  6
DASHED
 62
     8
370
    13
100
AcDbLine
 10
-368.448587884116
 20
167.0683892072088
 30
0.0
 11
-368.159912884116
 21
166.5683892072088
 31
0.0
  0
LINE
  5
74C
330
1F
100
AcDbEntity
  8
作図レイヤ
  6
DASHED
 62
     8
370
    13
100
AcDbLine
 10
-368.448587884116
 20
167.0683892072088
 30
0.0
 11
-369.7364558841159
 21
167.0683892072088
 31
0.0
  0
LINE
  5
74D
330
1F
100
AcDbEntity
  8
作図レイヤ
  6
DASHED
 62
     8
370
    13
100
AcDbLine
 10
-362.448587884116
 20
167.0683892072088
 30
0.0
 11
-362.948587884116
 21
166.5683892072088
 31
0.0
  0
LINE
  5
74E
330
1F
100
AcDbEntity
  8
作図レイヤ
  6
DASHED
 62
     8
370
    13
100
AcDbLine
 10
-362.948587884116
 20
166.5683892072088
 30
0.0
 11
-368.159912884116
 21
166.5683892072088
 31
0.0
  0
LINE
  5
74F
330
1F
100
AcDbEntity
  8
作図レイヤ
  6
DASHED
 62
     8
370
    13
100
AcDbLine
 10
-368.448587884116
 20
181.7683892072089
 30
0.0
 11
-368.448587884116
 21
167.0683892072088
 31
0.0
  0
LINE
  5
750
330
1F
100
AcDbEntity
  8
作図レイヤ
  6
DASHED
 62
     8
370
    13
100
AcDbLine
 10
-370.324323884116
 20
166.2683892072089
 30
0.0
 11
-370.324323884116
 21
181.7683892072089
 31
0.0
  0
LINE
  5
751
330
1F
100
AcDbEntity
  8
作図レイヤ
  6
DASHED
 62
     8
370
    13
100
AcDbLine
 10
-369.7364558841159
 20
166.8562572072088
 30
0.0
 11
-369.7364558841159
 21
181.7683892072089
 31
0.0
  0
LINE
  5
752
330
1F
100
AcDbEntity
  8
作図レイヤ
  6
DASHED
 62
     8
370
    13
100
AcDbLine
 10
-368.159912884116
 20
166.5683892072088
 30
0.0
 11
-368.159912884116
 21
180.7333202072089
 31
0.0
  0
LINE
  5
753
330
1F
100
AcDbEntity
  8
作図レイヤ
  6
DASHED
 62
     8
370
    13
100
AcDbLine
 10
-362.948587884116
 20
166.5683892072088
 30
0.0
 11
-362.948587884116
 21
179.7683892072089
 31
0.0
  0
LINE
  5
754
330
1F
100
AcDbEntity
  8
作図レイヤ
  6
DASHED
 62
     8
370
    13
100
AcDbLine
 10
-362.448587884116
 20
181.7683892072089
 30
0.0
 11
-362.448587884116
 21
167.0683892072088
 31
0.0
  0
LINE
  5
755
330
1F
100
AcDbEntity
  8
作図レイヤ
  6
DASHED
 62
     8
370
    13
100
AcDbLine
 10
-370.324323884116
 20
166.2683892072089
 30
0.0
 11
-375.748587884116
 21
166.2683892072089
 31
0.0
  0
ARC
  5
75B
330
1F
100
AcDbEntity
  8
作図レイヤ
  6
DASHED
 62
     8
370
    13
100
AcDbCircle
 10
-375.748587884116
 20
196.7683892072088
 30
0.0
 40
0.5
100
AcDbArc
 50
90.0
 51
180.0
  0
LINE
  5
75C
330
1F
100
AcDbEntity
  8
作図レイヤ
  6
DASHED
 62
     8
370
    13
100
AcDbLine
 10
-376.248587884116
 20
196.7683892072088
 30
0.0
 11
-376.248587884116
 21
181.7683892072088
 31
0.0
  0
LINE
  5
75D
330
1F
100
AcDbEntity
  8
作図レイヤ
  6
DASHED
 62
     8
370
    13
100
AcDbLine
 10
-366.448587884116
 20
183.7683892072088
 30
0.0
 11
-362.448587884116
 21
183.7683892072088
 31
0.0
  0
ARC
  5
75E
330
1F
100
AcDbEntity
  8
作図レイヤ
  6
DASHED
 62
     8
370
    13
100
AcDbCircle
 10
-366.448587884116
 20
181.7683892072088
 30
0.0
 40
2.0
100
AcDbArc
 50
90.0
 51
180.0
  0
LINE
  5
75F
330
1F
100
AcDbEntity
  8
作図レイヤ
  6
DASHED
 62
     8
370
    13
100
AcDbLine
 10
-369.7364558841159
 20
196.6805212072088
 30
0.0
 11
-370.324323884116
 21
197.2683892072088
 31
0.0
  0
LINE
  5
760
330
1F
100
AcDbEntity
  8
作図レイヤ
  6
DASHED
 62
     8
370
    13
100
AcDbLine
 10
-368.448587884116
 20
196.4683892072088
 30
0.0
 11
-368.159912884116
 21
196.9683892072088
 31
0.0
  0
LINE
  5
761
330
1F
100
AcDbEntity
  8
作図レイヤ
  6
DASHED
 62
     8
370
    13
100
AcDbLine
 10
-368.448587884116
 20
196.4683892072088
 30
0.0
 11
-369.7364558841159
 21
196.4683892072088
 31
0.0
  0
LINE
  5
762
330
1F
100
AcDbEntity
  8
作図レイヤ
  6
DASHED
 62
     8
370
    13
100
AcDbLine
 10
-362.448587884116
 20
196.4683892072088
 30
0.0
 11
-362.948587884116
 21
196.9683892072088
 31
0.0
  0
LINE
  5
763
330
1F
100
AcDbEntity
  8
作図レイヤ
  6
DASHED
 62
     8
370
    13
100
AcDbLine
 10
-362.948587884116
 20
196.9683892072088
 30
0.0
 11
-368.159912884116
 21
196.9683892072088
 31
0.0
  0
LINE
  5
764
330
1F
100
AcDbEntity
  8
作図レイヤ
  6
DASHED
 62
     8
370
    13
100
AcDbLine
 10
-368.448587884116
 20
181.7683892072088
 30
0.0
 11
-368.448587884116
 21
196.4683892072088
 31
0.0
  0
LINE
  5
765
330
1F
100
AcDbEntity
  8
作図レイヤ
  6
DASHED
 62
     8
370
    13
100
AcDbLine
 10
-370.324323884116
 20
197.2683892072088
 30
0.0
 11
-370.324323884116
 21
181.7683892072088
 31
0.0
  0
LINE
  5
766
330
1F
100
AcDbEntity
  8
作図レイヤ
  6
DASHED
 62
     8
370
    13
100
AcDbLine
 10
-369.7364558841159
 20
196.6805212072088
 30
0.0
 11
-369.7364558841159
 21
181.7683892072088
 31
0.0
  0
LINE
  5
767
330
1F
100
AcDbEntity
  8
作図レイヤ
  6
DASHED
 62
     8
370
    13
100
AcDbLine
 10
-368.159912884116
 20
196.9683892072088
 30
0.0
 11
-368.159912884116
 21
182.8034582072088
 31
0.0
  0
LINE
  5
768
330
1F
100
AcDbEntity
  8
作図レイヤ
  6
DASHED
 62
     8
370
    13
100
AcDbLine
 10
-362.948587884116
 20
196.9683892072088
 30
0.0
 11
-362.948587884116
 21
183.7683892072088
 31
0.0
  0
LINE
  5
769
330
1F
100
AcDbEntity
  8
作図レイヤ
  6
DASHED
 62
     8
370
    13
100
AcDbLine
 10
-362.448587884116
 20
181.7683892072088
 30
0.0
 11
-362.448587884116
 21
196.4683892072088
 31
0.0
  0
LINE
  5
76A
330
1F
100
AcDbEntity
  8
作図レイヤ
  6
DASHED
 62
     8
370
    13
100
AcDbLine
 10
-370.324323884116
 20
197.2683892072088
 30
0.0
 11
-375.748587884116
 21
197.2683892072088
 31
0.0
  0
LINE
  5
771
330
1F
100
AcDbEntity
  8
作図レイヤ
  6
DASHED
 62
     8
370
    13
100
AcDbLine
 10
-370.4465883420318
 20
175.2683892072088
 30
0.0
 11
-370.4465883420318
 21
174.1383892072088
 31
0.0
  0
LINE
  5
77C
330
1F
100
AcDbEntity
  8
作図レイヤ
  6
Continuous
 62
     7
370
    25
100
AcDbLine
 10
-30.42642910140093
 20
155.9683892072089
 30
0.0
 11
-30.42642910140079
 21
165.5683892072088
 31
0.0
  0
LINE
  5
77D
330
1F
100
AcDbEntity
  8
作図レイヤ
  6
Continuous
 62
     7
370
    25
100
AcDbLine
 10
-27.48774408137383
 20
165.0683892072088
 30
0.0
 11
-30.42642910140081
 21
165.0683892072088
 31
0.0
  0
LINE
  5
77E
330
1F
100
AcDbEntity
  8
作図レイヤ
  6
Continuous
 62
     7
370
    25
100
AcDbLine
 10
-17.80387330201708
 20
163.5683892072086
 30
0.0
 11
-22.06045189219392
 21
163.5683892072086
 31
0.0
  0
LINE
  5
77F
330
1F
100
AcDbEntity
  8
作図レイヤ
  6
Continuous
 62
     7
370
    25
100
AcDbLine
 10
-12.80387330201707
 20
164.8683892072086
 30
0.0
 11
-12.80387330201707
 21
163.7683892072085
 31
0.0
  0
LINE
  5
780
330
1F
100
AcDbEntity
  8
作図レイヤ
  6
Continuous
 62
     7
370
    25
100
AcDbLine
 10
-17.80387330201708
 20
165.0683892072085
 30
0.0
 11
-17.80387330201708
 21
163.5683892072085
 31
0.0
  0
LINE
  5
781
330
1F
100
AcDbEntity
  8
作図レイヤ
  6
Continuous
 62
     7
370
    25
100
AcDbLine
 10
-12.80387330201708
 20
164.8683892072085
 30
0.0
 11
-17.80387330201708
 21
164.8683892072086
 31
0.0
  0
LINE
  5
782
330
1F
100
AcDbEntity
  8
作図レイヤ
  6
Continuous
 62
     7
370
    25
100
AcDbLine
 10
-12.8038733020171
 20
163.7683892072085
 30
0.0
 11
-17.80387330201708
 21
163.7683892072086
 31
0.0
  0
LINE
  5
783
330
1F
100
AcDbEntity
  8
作図レイヤ
  6
Continuous
 62
     7
370
    25
100
AcDbLine
 10
-12.80387330201708
 20
164.7683892072085
 30
0.0
 11
-17.80387330201708
 21
164.7683892072086
 31
0.0
  0
LINE
  5
784
330
1F
100
AcDbEntity
  8
作図レイヤ
  6
Continuous
 62
     7
370
    25
100
AcDbLine
 10
-12.80387330201708
 20
164.6683892072085
 30
0.0
 11
-17.80387330201708
 21
164.6683892072086
 31
0.0
  0
LINE
  5
785
330
1F
100
AcDbEntity
  8
作図レイヤ
  6
Continuous
 62
     7
370
    25
100
AcDbLine
 10
-12.80387330201708
 20
164.5683892072085
 30
0.0
 11
-17.80387330201708
 21
164.5683892072086
 31
0.0
  0
LINE
  5
786
330
1F
100
AcDbEntity
  8
作図レイヤ
  6
Continuous
 62
     7
370
    25
100
AcDbLine
 10
-12.80387330201708
 20
164.4683892072085
 30
0.0
 11
-17.80387330201708
 21
164.4683892072086
 31
0.0
  0
LINE
  5
787
330
1F
100
AcDbEntity
  8
作図レイヤ
  6
Continuous
 62
     7
370
    25
100
AcDbLine
 10
-12.80387330201708
 20
164.3683892072085
 30
0.0
 11
-17.80387330201708
 21
164.3683892072086
 31
0.0
  0
LINE
  5
788
330
1F
100
AcDbEntity
  8
作図レイヤ
  6
Continuous
 62
     7
370
    25
100
AcDbLine
 10
-12.80387330201708
 20
164.2683892072085
 30
0.0
 11
-17.80387330201708
 21
164.2683892072086
 31
0.0
  0
LINE
  5
789
330
1F
100
AcDbEntity
  8
作図レイヤ
  6
Continuous
 62
     7
370
    25
100
AcDbLine
 10
-12.80387330201708
 20
164.1683892072085
 30
0.0
 11
-17.80387330201708
 21
164.1683892072086
 31
0.0
  0
LINE
  5
78A
330
1F
100
AcDbEntity
  8
作図レイヤ
  6
Continuous
 62
     7
370
    25
100
AcDbLine
 10
-12.80387330201708
 20
164.0683892072085
 30
0.0
 11
-17.80387330201708
 21
164.0683892072086
 31
0.0
  0
LINE
  5
78B
330
1F
100
AcDbEntity
  8
作図レイヤ
  6
Continuous
 62
     7
370
    25
100
AcDbLine
 10
-12.80387330201708
 20
163.9683892072085
 30
0.0
 11
-17.80387330201708
 21
163.9683892072086
 31
0.0
  0
LINE
  5
78C
330
1F
100
AcDbEntity
  8
作図レイヤ
  6
Continuous
 62
     7
370
    25
100
AcDbLine
 10
-12.80387330201708
 20
163.8683892072085
 30
0.0
 11
-17.80387330201708
 21
163.8683892072086
 31
0.0
  0
LINE
  5
78D
330
1F
100
AcDbEntity
  8
作図レイヤ
  6
Continuous
 62
     7
370
    25
100
AcDbLine
 10
-27.16392316971501
 20
162.7683892072087
 30
0.0
 11
-30.42642910140081
 21
162.7683892072088
 31
0.0
  0
LINE
  5
78E
330
1F
100
AcDbEntity
  8
作図レイヤ
  6
Continuous
 62
     7
370
    25
100
AcDbLine
 10
-27.16392316971508
 20
161.2683892072087
 30
0.0
 11
-30.42642910140083
 21
161.2683892072088
 31
0.0
  0
LINE
  5
78F
330
1F
100
AcDbEntity
  8
作図レイヤ
  6
Continuous
 62
     7
370
    25
100
AcDbLine
 10
-17.80387330201708
 20
170.0683892072086
 30
0.0
 11
-21.41281006887613
 21
170.0683892072087
 31
0.0
  0
LINE
  5
790
330
1F
100
AcDbEntity
  8
作図レイヤ
  6
Continuous
 62
     7
370
    25
100
AcDbLine
 10
-17.80387330201708
 20
168.5683892072086
 30
0.0
 11
-21.41281006887618
 21
168.5683892072086
 31
0.0
  0
LINE
  5
791
330
1F
100
AcDbEntity
  8
作図レイヤ
  6
Continuous
 62
     7
370
    25
100
AcDbLine
 10
-12.80387330201707
 20
169.8683892072086
 30
0.0
 11
-12.80387330201707
 21
168.7683892072085
 31
0.0
  0
LINE
  5
792
330
1F
100
AcDbEntity
  8
作図レイヤ
  6
Continuous
 62
     7
370
    25
100
AcDbLine
 10
-17.80387330201708
 20
170.0683892072085
 30
0.0
 11
-17.80387330201708
 21
168.5683892072085
 31
0.0
  0
LINE
  5
793
330
1F
100
AcDbEntity
  8
作図レイヤ
  6
Continuous
 62
     7
370
    25
100
AcDbLine
 10
-12.80387330201708
 20
169.8683892072085
 30
0.0
 11
-17.80387330201708
 21
169.8683892072086
 31
0.0
  0
LINE
  5
794
330
1F
100
AcDbEntity
  8
作図レイヤ
  6
Continuous
 62
     7
370
    25
100
AcDbLine
 10
-12.8038733020171
 20
168.7683892072085
 30
0.0
 11
-17.80387330201708
 21
168.7683892072086
 31
0.0
  0
LINE
  5
795
330
1F
100
AcDbEntity
  8
作図レイヤ
  6
Continuous
 62
     7
370
    25
100
AcDbLine
 10
-12.80387330201708
 20
169.7683892072085
 30
0.0
 11
-17.80387330201708
 21
169.7683892072086
 31
0.0
  0
LINE
  5
796
330
1F
100
AcDbEntity
  8
作図レイヤ
  6
Continuous
 62
     7
370
    25
100
AcDbLine
 10
-12.80387330201708
 20
169.6683892072085
 30
0.0
 11
-17.80387330201708
 21
169.6683892072086
 31
0.0
  0
LINE
  5
797
330
1F
100
AcDbEntity
  8
作図レイヤ
  6
Continuous
 62
     7
370
    25
100
AcDbLine
 10
-12.80387330201708
 20
169.5683892072085
 30
0.0
 11
-17.80387330201708
 21
169.5683892072086
 31
0.0
  0
LINE
  5
798
330
1F
100
AcDbEntity
  8
作図レイヤ
  6
Continuous
 62
     7
370
    25
100
AcDbLine
 10
-12.80387330201708
 20
169.4683892072085
 30
0.0
 11
-17.80387330201708
 21
169.4683892072086
 31
0.0
  0
LINE
  5
799
330
1F
100
AcDbEntity
  8
作図レイヤ
  6
Continuous
 62
     7
370
    25
100
AcDbLine
 10
-12.80387330201708
 20
169.3683892072085
 30
0.0
 11
-17.80387330201708
 21
169.3683892072086
 31
0.0
  0
LINE
  5
79A
330
1F
100
AcDbEntity
  8
作図レイヤ
  6
Continuous
 62
     7
370
    25
100
AcDbLine
 10
-12.80387330201708
 20
169.2683892072085
 30
0.0
 11
-17.80387330201708
 21
169.2683892072086
 31
0.0
  0
LINE
  5
79B
330
1F
100
AcDbEntity
  8
作図レイヤ
  6
Continuous
 62
     7
370
    25
100
AcDbLine
 10
-12.80387330201708
 20
169.1683892072085
 30
0.0
 11
-17.80387330201708
 21
169.1683892072086
 31
0.0
  0
LINE
  5
79C
330
1F
100
AcDbEntity
  8
作図レイヤ
  6
Continuous
 62
     7
370
    25
100
AcDbLine
 10
-12.80387330201708
 20
169.0683892072085
 30
0.0
 11
-17.80387330201708
 21
169.0683892072086
 31
0.0
  0
LINE
  5
79D
330
1F
100
AcDbEntity
  8
作図レイヤ
  6
Continuous
 62
     7
370
    25
100
AcDbLine
 10
-12.80387330201708
 20
168.9683892072085
 30
0.0
 11
-17.80387330201708
 21
168.9683892072086
 31
0.0
  0
LINE
  5
79E
330
1F
100
AcDbEntity
  8
作図レイヤ
  6
Continuous
 62
     7
370
    25
100
AcDbLine
 10
-12.80387330201708
 20
168.8683892072085
 30
0.0
 11
-17.80387330201708
 21
168.8683892072086
 31
0.0
  0
LINE
  5
79F
330
1F
100
AcDbEntity
  8
作図レイヤ
  6
Continuous
 62
     7
370
    25
100
AcDbLine
 10
-23.78609360963568
 20
168.9034710133307
 30
0.0
 11
-26.30110231099406
 21
165.6508483041478
 31
0.0
  0
LINE
  5
7A0
330
1F
100
AcDbEntity
  8
作図レイヤ
  6
Continuous
 62
     7
370
    25
100
AcDbLine
 10
-26.3970087147376
 20
162.979264613251
 30
0.0
 11
-23.59428080214881
 21
164.6466383951241
 31
0.0
  0
LINE
  5
7A1
330
1F
100
AcDbEntity
  8
作図レイヤ
  6
Continuous
 62
     7
370
    25
100
AcDbLine
 10
-25.1144605406143
 20
164.7333074010868
 30
0.0
 11
-22.59945183925596
 21
167.9859301102696
 31
0.0
  0
LINE
  5
7A2
330
1F
100
AcDbEntity
  8
作図レイヤ
  6
Continuous
 62
     7
370
    25
100
AcDbLine
 10
-22.82736634717134
 20
163.3575138011664
 30
0.0
 11
-25.63009425976023
 21
161.6901400192932
 31
0.0
  0
ARC
  5
7A3
330
1F
100
AcDbEntity
  8
作図レイヤ
  6
Continuous
 62
     7
370
    25
100
AcDbCircle
 10
-21.4128100688762
 20
167.0683892072086
 30
0.0
 40
1.5
100
AcDbArc
 50
89.99999999999919
 51
142.287913441437
  0
ARC
  5
7A4
330
1F
100
AcDbEntity
  8
作図レイヤ
  6
Continuous
 62
     7
370
    25
100
AcDbCircle
 10
-27.48774408137382
 20
166.5683892072088
 30
0.0
 40
1.5
100
AcDbArc
 50
269.9999999999994
 51
322.287913441437
  0
ARC
  5
7A5
330
1F
100
AcDbEntity
  8
作図レイヤ
  6
Continuous
 62
     7
370
    25
100
AcDbCircle
 10
-27.16392316971499
 20
164.2683892072087
 30
0.0
 40
1.5
100
AcDbArc
 50
269.9999999999994
 51
300.7488811164906
  0
LINE
  5
7A6
330
1F
100
AcDbEntity
  8
作図レイヤ
  6
Continuous
 62
     7
370
    25
100
AcDbLine
 10
-17.80387330201708
 20
165.0683892072085
 30
0.0
 11
-22.06045189219398
 21
165.0683892072086
 31
0.0
  0
ARC
  5
7A7
330
1F
100
AcDbEntity
  8
作図レイヤ
  6
Continuous
 62
     7
370
    25
100
AcDbCircle
 10
-22.06045189219394
 20
162.0683892072086
 30
0.0
 40
1.5
100
AcDbArc
 50
89.99999999999919
 51
120.7488811164909
  0
ARC
  5
7A8
330
1F
100
AcDbEntity
  8
作図レイヤ
  6
Continuous
 62
     7
370
    25
100
AcDbCircle
 10
-22.06045189219402
 20
162.0683892072086
 30
0.0
 40
3.0
100
AcDbArc
 50
89.99999999999919
 51
120.7488811164908
  0
ARC
  5
7A9
330
1F
100
AcDbEntity
  8
作図レイヤ
  6
Continuous
 62
     7
370
    25
100
AcDbCircle
 10
-27.16392316971502
 20
164.2683892072087
 30
0.0
 40
3.0
100
AcDbArc
 50
269.9999999999989
 51
300.7488811164907
  0
ARC
  5
7AA
330
1F
100
AcDbEntity
  8
作図レイヤ
  6
Continuous
 62
     7
370
    25
100
AcDbCircle
 10
-21.41281006887616
 20
167.0683892072087
 30
0.0
 40
3.0
100
AcDbArc
 50
89.99999999999935
 51
142.287913441437
  0
LINE
  5
7AB
330
1F
100
AcDbEntity
  8
作図レイヤ
  6
Continuous
 62
     7
370
    25
100
AcDbLine
 10
-27.48774408137385
 20
163.5683892072088
 30
0.0
 11
-30.42642910140081
 21
163.5683892072088
 31
0.0
  0
ARC
  5
7AC
330
1F
100
AcDbEntity
  8
作図レイヤ
  6
Continuous
 62
     7
370
    25
100
AcDbCircle
 10
-27.48774408137382
 20
166.5683892072088
 30
0.0
 40
3.0
100
AcDbArc
 50
269.9999999999993
 51
322.287913441437
  0
LINE
  5
7AD
330
1F
100
AcDbEntity
  8
作図レイヤ
  6
Continuous
 62
     7
370
    25
100
AcDbLine
 10
-27.48774408137383
 20
156.4683892072089
 30
0.0
 11
-30.42642910140081
 21
156.4683892072089
 31
0.0
  0
LINE
  5
7AE
330
1F
100
AcDbEntity
  8
作図レイヤ
  6
Continuous
 62
     7
370
    25
100
AcDbLine
 10
-17.80387330201708
 20
157.9683892072091
 30
0.0
 11
-22.06045189219392
 21
157.968389207209
 31
0.0
  0
LINE
  5
7AF
330
1F
100
AcDbEntity
  8
作図レイヤ
  6
Continuous
 62
     7
370
    25
100
AcDbLine
 10
-12.80387330201707
 20
156.6683892072091
 30
0.0
 11
-12.80387330201707
 21
157.7683892072091
 31
0.0
  0
LINE
  5
7B0
330
1F
100
AcDbEntity
  8
作図レイヤ
  6
Continuous
 62
     7
370
    25
100
AcDbLine
 10
-17.80387330201708
 20
156.4683892072091
 30
0.0
 11
-17.80387330201708
 21
157.9683892072091
 31
0.0
  0
LINE
  5
7B1
330
1F
100
AcDbEntity
  8
作図レイヤ
  6
Continuous
 62
     7
370
    25
100
AcDbLine
 10
-12.80387330201708
 20
156.6683892072091
 30
0.0
 11
-17.80387330201708
 21
156.6683892072091
 31
0.0
  0
LINE
  5
7B2
330
1F
100
AcDbEntity
  8
作図レイヤ
  6
Continuous
 62
     7
370
    25
100
AcDbLine
 10
-12.8038733020171
 20
157.7683892072091
 30
0.0
 11
-17.80387330201708
 21
157.7683892072091
 31
0.0
  0
LINE
  5
7B3
330
1F
100
AcDbEntity
  8
作図レイヤ
  6
Continuous
 62
     7
370
    25
100
AcDbLine
 10
-12.80387330201708
 20
156.7683892072091
 30
0.0
 11
-17.80387330201708
 21
156.7683892072091
 31
0.0
  0
LINE
  5
7B4
330
1F
100
AcDbEntity
  8
作図レイヤ
  6
Continuous
 62
     7
370
    25
100
AcDbLine
 10
-12.80387330201708
 20
156.8683892072091
 30
0.0
 11
-17.80387330201708
 21
156.868389207209
 31
0.0
  0
LINE
  5
7B5
330
1F
100
AcDbEntity
  8
作図レイヤ
  6
Continuous
 62
     7
370
    25
100
AcDbLine
 10
-12.80387330201708
 20
156.9683892072091
 30
0.0
 11
-17.80387330201708
 21
156.9683892072091
 31
0.0
  0
LINE
  5
7B6
330
1F
100
AcDbEntity
  8
作図レイヤ
  6
Continuous
 62
     7
370
    25
100
AcDbLine
 10
-12.80387330201708
 20
157.0683892072091
 30
0.0
 11
-17.80387330201708
 21
157.0683892072091
 31
0.0
  0
LINE
  5
7B7
330
1F
100
AcDbEntity
  8
作図レイヤ
  6
Continuous
 62
     7
370
    25
100
AcDbLine
 10
-12.80387330201708
 20
157.1683892072091
 30
0.0
 11
-17.80387330201708
 21
157.1683892072091
 31
0.0
  0
LINE
  5
7B8
330
1F
100
AcDbEntity
  8
作図レイヤ
  6
Continuous
 62
     7
370
    25
100
AcDbLine
 10
-12.80387330201708
 20
157.2683892072091
 30
0.0
 11
-17.80387330201708
 21
157.2683892072091
 31
0.0
  0
LINE
  5
7B9
330
1F
100
AcDbEntity
  8
作図レイヤ
  6
Continuous
 62
     7
370
    25
100
AcDbLine
 10
-12.80387330201708
 20
157.3683892072091
 30
0.0
 11
-17.80387330201708
 21
157.368389207209
 31
0.0
  0
LINE
  5
7BA
330
1F
100
AcDbEntity
  8
作図レイヤ
  6
Continuous
 62
     7
370
    25
100
AcDbLine
 10
-12.80387330201708
 20
157.4683892072091
 30
0.0
 11
-17.80387330201708
 21
157.4683892072091
 31
0.0
  0
LINE
  5
7BB
330
1F
100
AcDbEntity
  8
作図レイヤ
  6
Continuous
 62
     7
370
    25
100
AcDbLine
 10
-12.80387330201708
 20
157.5683892072091
 30
0.0
 11
-17.80387330201708
 21
157.5683892072091
 31
0.0
  0
LINE
  5
7BC
330
1F
100
AcDbEntity
  8
作図レイヤ
  6
Continuous
 62
     7
370
    25
100
AcDbLine
 10
-12.80387330201708
 20
157.6683892072091
 30
0.0
 11
-17.80387330201708
 21
157.6683892072091
 31
0.0
  0
LINE
  5
7BD
330
1F
100
AcDbEntity
  8
作図レイヤ
  6
Continuous
 62
     7
370
    25
100
AcDbLine
 10
-27.16392316971501
 20
158.7683892072089
 30
0.0
 11
-30.42642910140081
 21
158.7683892072089
 31
0.0
  0
LINE
  5
7BE
330
1F
100
AcDbEntity
  8
作図レイヤ
  6
Continuous
 62
     7
370
    25
100
AcDbLine
 10
-27.16392316971508
 20
160.2683892072089
 30
0.0
 11
-30.42642910140083
 21
160.2683892072089
 31
0.0
  0
LINE
  5
7BF
330
1F
100
AcDbEntity
  8
作図レイヤ
  6
Continuous
 62
     7
370
    25
100
AcDbLine
 10
-17.80387330201708
 20
151.468389207209
 30
0.0
 11
-21.41281006887613
 21
151.468389207209
 31
0.0
  0
LINE
  5
7C0
330
1F
100
AcDbEntity
  8
作図レイヤ
  6
Continuous
 62
     7
370
    25
100
AcDbLine
 10
-17.80387330201708
 20
152.9683892072091
 30
0.0
 11
-21.41281006887618
 21
152.968389207209
 31
0.0
  0
LINE
  5
7C1
330
1F
100
AcDbEntity
  8
作図レイヤ
  6
Continuous
 62
     7
370
    25
100
AcDbLine
 10
-12.80387330201707
 20
151.6683892072091
 30
0.0
 11
-12.80387330201707
 21
152.7683892072091
 31
0.0
  0
LINE
  5
7C2
330
1F
100
AcDbEntity
  8
作図レイヤ
  6
Continuous
 62
     7
370
    25
100
AcDbLine
 10
-17.80387330201708
 20
151.4683892072091
 30
0.0
 11
-17.80387330201708
 21
152.9683892072091
 31
0.0
  0
LINE
  5
7C3
330
1F
100
AcDbEntity
  8
作図レイヤ
  6
Continuous
 62
     7
370
    25
100
AcDbLine
 10
-12.80387330201708
 20
151.6683892072091
 30
0.0
 11
-17.80387330201708
 21
151.6683892072091
 31
0.0
  0
LINE
  5
7C4
330
1F
100
AcDbEntity
  8
作図レイヤ
  6
Continuous
 62
     7
370
    25
100
AcDbLine
 10
-12.8038733020171
 20
152.7683892072091
 30
0.0
 11
-17.80387330201708
 21
152.7683892072091
 31
0.0
  0
LINE
  5
7C5
330
1F
100
AcDbEntity
  8
作図レイヤ
  6
Continuous
 62
     7
370
    25
100
AcDbLine
 10
-12.80387330201708
 20
151.7683892072091
 30
0.0
 11
-17.80387330201708
 21
151.7683892072091
 31
0.0
  0
LINE
  5
7C6
330
1F
100
AcDbEntity
  8
作図レイヤ
  6
Continuous
 62
     7
370
    25
100
AcDbLine
 10
-12.80387330201708
 20
151.8683892072091
 30
0.0
 11
-17.80387330201708
 21
151.868389207209
 31
0.0
  0
LINE
  5
7C7
330
1F
100
AcDbEntity
  8
作図レイヤ
  6
Continuous
 62
     7
370
    25
100
AcDbLine
 10
-12.80387330201708
 20
151.9683892072091
 30
0.0
 11
-17.80387330201708
 21
151.9683892072091
 31
0.0
  0
LINE
  5
7C8
330
1F
100
AcDbEntity
  8
作図レイヤ
  6
Continuous
 62
     7
370
    25
100
AcDbLine
 10
-12.80387330201708
 20
152.0683892072091
 30
0.0
 11
-17.80387330201708
 21
152.0683892072091
 31
0.0
  0
LINE
  5
7C9
330
1F
100
AcDbEntity
  8
作図レイヤ
  6
Continuous
 62
     7
370
    25
100
AcDbLine
 10
-12.80387330201708
 20
152.1683892072091
 30
0.0
 11
-17.80387330201708
 21
152.1683892072091
 31
0.0
  0
LINE
  5
7CA
330
1F
100
AcDbEntity
  8
作図レイヤ
  6
Continuous
 62
     7
370
    25
100
AcDbLine
 10
-12.80387330201708
 20
152.2683892072091
 30
0.0
 11
-17.80387330201708
 21
152.2683892072091
 31
0.0
  0
LINE
  5
7CB
330
1F
100
AcDbEntity
  8
作図レイヤ
  6
Continuous
 62
     7
370
    25
100
AcDbLine
 10
-12.80387330201708
 20
152.3683892072091
 30
0.0
 11
-17.80387330201708
 21
152.368389207209
 31
0.0
  0
LINE
  5
7CC
330
1F
100
AcDbEntity
  8
作図レイヤ
  6
Continuous
 62
     7
370
    25
100
AcDbLine
 10
-12.80387330201708
 20
152.4683892072091
 30
0.0
 11
-17.80387330201708
 21
152.4683892072091
 31
0.0
  0
LINE
  5
7CD
330
1F
100
AcDbEntity
  8
作図レイヤ
  6
Continuous
 62
     7
370
    25
100
AcDbLine
 10
-12.80387330201708
 20
152.5683892072091
 30
0.0
 11
-17.80387330201708
 21
152.5683892072091
 31
0.0
  0
LINE
  5
7CE
330
1F
100
AcDbEntity
  8
作図レイヤ
  6
Continuous
 62
     7
370
    25
100
AcDbLine
 10
-12.80387330201708
 20
152.6683892072091
 30
0.0
 11
-17.80387330201708
 21
152.6683892072091
 31
0.0
  0
LINE
  5
7CF
330
1F
100
AcDbEntity
  8
作図レイヤ
  6
Continuous
 62
     7
370
    25
100
AcDbLine
 10
-23.78609360963568
 20
152.633307401087
 30
0.0
 11
-26.30110231099406
 21
155.8859301102699
 31
0.0
  0
LINE
  5
7D0
330
1F
100
AcDbEntity
  8
作図レイヤ
  6
Continuous
 62
     7
370
    25
100
AcDbLine
 10
-26.3970087147376
 20
158.5575138011667
 30
0.0
 11
-23.59428080214881
 21
156.8901400192936
 31
0.0
  0
LINE
  5
7D1
330
1F
100
AcDbEntity
  8
作図レイヤ
  6
Continuous
 62
     7
370
    25
100
AcDbLine
 10
-25.1144605406143
 20
156.8034710133309
 30
0.0
 11
-22.59945183925596
 21
153.550848304148
 31
0.0
  0
LINE
  5
7D2
330
1F
100
AcDbEntity
  8
作図レイヤ
  6
Continuous
 62
     7
370
    25
100
AcDbLine
 10
-22.82736634717134
 20
158.1792646132513
 30
0.0
 11
-25.63009425976023
 21
159.8466383951244
 31
0.0
  0
ARC
  5
7D3
330
1F
100
AcDbEntity
  8
作図レイヤ
  6
Continuous
 62
     7
370
    25
100
AcDbCircle
 10
-21.4128100688762
 20
154.468389207209
 30
0.0
 40
1.5
100
AcDbArc
 50
217.712086558563
 51
270.0000000000007
  0
ARC
  5
7D4
330
1F
100
AcDbEntity
  8
作図レイヤ
  6
Continuous
 62
     7
370
    25
100
AcDbCircle
 10
-27.48774408137382
 20
154.9683892072089
 30
0.0
 40
1.5
100
AcDbArc
 50
37.71208655856307
 51
90.00000000000054
  0
ARC
  5
7D5
330
1F
100
AcDbEntity
  8
作図レイヤ
  6
Continuous
 62
     7
370
    25
100
AcDbCircle
 10
-27.16392316971499
 20
157.2683892072089
 30
0.0
 40
1.5
100
AcDbArc
 50
59.25111888350914
 51
90.00000000000054
  0
LINE
  5
7D6
330
1F
100
AcDbEntity
  8
作図レイヤ
  6
Continuous
 62
     7
370
    25
100
AcDbLine
 10
-17.80387330201708
 20
156.4683892072091
 30
0.0
 11
-22.06045189219398
 21
156.4683892072091
 31
0.0
  0
ARC
  5
7D7
330
1F
100
AcDbEntity
  8
作図レイヤ
  6
Continuous
 62
     7
370
    25
100
AcDbCircle
 10
-22.06045189219394
 20
159.468389207209
 30
0.0
 40
1.5
100
AcDbArc
 50
239.2511188835093
 51
270.0000000000007
  0
ARC
  5
7D8
330
1F
100
AcDbEntity
  8
作図レイヤ
  6
Continuous
 62
     7
370
    25
100
AcDbCircle
 10
-22.06045189219402
 20
159.4683892072091
 30
0.0
 40
3.0
100
AcDbArc
 50
239.2511188835093
 51
270.0000000000007
  0
ARC
  5
7D9
330
1F
100
AcDbEntity
  8
作図レイヤ
  6
Continuous
 62
     7
370
    25
100
AcDbCircle
 10
-27.16392316971502
 20
157.2683892072089
 30
0.0
 40
3.0
100
AcDbArc
 50
59.25111888350926
 51
90.0000000000011
  0
ARC
  5
7DA
330
1F
100
AcDbEntity
  8
作図レイヤ
  6
Continuous
 62
     7
370
    25
100
AcDbCircle
 10
-21.41281006887616
 20
154.468389207209
 30
0.0
 40
3.0
100
AcDbArc
 50
217.712086558563
 51
270.0000000000007
  0
LINE
  5
7DB
330
1F
100
AcDbEntity
  8
作図レイヤ
  6
Continuous
 62
     7
370
    25
100
AcDbLine
 10
-27.48774408137385
 20
157.9683892072089
 30
0.0
 11
-30.42642910140081
 21
157.9683892072089
 31
0.0
  0
ARC
  5
7DC
330
1F
100
AcDbEntity
  8
作図レイヤ
  6
Continuous
 62
     7
370
    25
100
AcDbCircle
 10
-27.48774408137382
 20
154.9683892072089
 30
0.0
 40
3.0
100
AcDbArc
 50
37.71208655856299
 51
90.00000000000054
  0
LINE
  5
7E1
330
1F
100
AcDbEntity
  8
作図レイヤ
  6
Continuous
 62
     7
370
    25
100
AcDbLine
 10
-34.226105997844
 20
204.7683892072088
 30
0.0
 11
-34.226105997844
 21
200.7683892072088
 31
0.0
  0
LINE
  5
7E2
330
1F
100
AcDbEntity
  8
作図レイヤ
  6
Continuous
 62
     7
370
    25
100
AcDbLine
 10
-16.60355019846028
 20
207.0683892072086
 30
0.0
 11
-16.60355019846028
 21
206.5683892072086
 31
0.0
  0
LINE
  5
7E3
330
1F
100
AcDbEntity
  8
作図レイヤ
  6
Continuous
 62
     7
370
    25
100
AcDbLine
 10
-21.60355019846028
 20
207.2683892072086
 30
0.0
 11
-21.60355019846028
 21
206.3683892072086
 31
0.0
  0
LINE
  5
7E4
330
1F
100
AcDbEntity
  8
作図レイヤ
  6
Continuous
 62
     7
370
    25
100
AcDbLine
 10
-16.60355019846028
 20
207.0683892072086
 30
0.0
 11
-21.60355019846028
 21
207.0683892072086
 31
0.0
  0
LINE
  5
7E5
330
1F
100
AcDbEntity
  8
作図レイヤ
  6
Continuous
 62
     7
370
    25
100
AcDbLine
 10
-16.60355019846028
 20
206.9683892072086
 30
0.0
 11
-21.60355019846028
 21
206.9683892072086
 31
0.0
  0
LINE
  5
7E6
330
1F
100
AcDbEntity
  8
作図レイヤ
  6
Continuous
 62
     7
370
    25
100
AcDbLine
 10
-16.60355019846028
 20
206.8683892072086
 30
0.0
 11
-21.60355019846028
 21
206.8683892072086
 31
0.0
  0
LINE
  5
7E7
330
1F
100
AcDbEntity
  8
作図レイヤ
  6
Continuous
 62
     7
370
    25
100
AcDbLine
 10
-16.60355019846028
 20
206.7683892072086
 30
0.0
 11
-21.60355019846028
 21
206.7683892072086
 31
0.0
  0
LINE
  5
7E8
330
1F
100
AcDbEntity
  8
作図レイヤ
  6
Continuous
 62
     7
370
    25
100
AcDbLine
 10
-16.60355019846028
 20
206.6683892072086
 30
0.0
 11
-21.60355019846028
 21
206.6683892072086
 31
0.0
  0
LINE
  5
7E9
330
1F
100
AcDbEntity
  8
作図レイヤ
  6
Continuous
 62
     7
370
    25
100
AcDbLine
 10
-16.60355019846028
 20
206.5683892072086
 30
0.0
 11
-21.60355019846028
 21
206.5683892072086
 31
0.0
  0
LINE
  5
7EC
330
1F
100
AcDbEntity
  8
作図レイヤ
  6
Continuous
 62
     7
370
    25
100
AcDbLine
 10
-21.60355019846029
 20
207.2683892072087
 30
0.0
 11
-25.8770896003962
 21
207.2683892072087
 31
0.0
  0
ARC
  5
7ED
330
1F
100
AcDbEntity
  8
作図レイヤ
  6
Continuous
 62
     7
370
    25
100
AcDbCircle
 10
-25.87708960039642
 20
204.5683892072089
 30
0.0
 40
2.700000000000077
100
AcDbArc
 50
90.0
 51
143.7727372975298
  0
LINE
  5
7EE
330
1F
100
AcDbEntity
  8
作図レイヤ
  6
Continuous
 62
     7
370
    25
100
AcDbLine
 10
-21.60355019846028
 20
206.3683892072086
 30
0.0
 11
-25.87708960039623
 21
206.3683892072087
 31
0.0
  0
ARC
  5
7EF
330
1F
100
AcDbEntity
  8
作図レイヤ
  6
Continuous
 62
     7
370
    25
100
AcDbCircle
 10
-25.87708960039634
 20
204.5683892072087
 30
0.0
 40
1.800000000000077
100
AcDbArc
 50
90.0
 51
143.7727372975286
  0
LINE
  5
7F0
330
1F
100
AcDbEntity
  8
作図レイヤ
  6
Continuous
 62
     7
370
    25
100
AcDbLine
 10
-28.90456231326262
 20
205.0046079780294
 30
0.0
 11
-28.05512343094222
 21
206.1640610509777
 31
0.0
  0
LINE
  5
7F1
330
1F
100
AcDbEntity
  8
作図レイヤ
  6
Continuous
 62
     7
370
    25
100
AcDbLine
 10
-28.17855103641396
 20
204.4727173634398
 30
0.0
 11
-27.32911215409359
 21
205.632170436388
 31
0.0
  0
ARC
  5
7F2
330
1F
100
AcDbEntity
  8
作図レイヤ
  6
Continuous
 62
     7
370
    25
100
AcDbCircle
 10
-30.35658486695998
 20
206.0683892072088
 30
0.0
 40
1.800000000000007
100
AcDbArc
 50
270.0
 51
323.772737297528
  0
ARC
  5
7F3
330
1F
100
AcDbEntity
  8
作図レイヤ
  6
Continuous
 62
     7
370
    25
100
AcDbCircle
 10
-30.35658486695984
 20
206.0683892072087
 30
0.0
 40
2.699999999999957
100
AcDbArc
 50
269.9999999999986
 51
323.7727372975293
  0
LINE
  5
7F4
330
1F
100
AcDbEntity
  8
作図レイヤ
  6
Continuous
 62
     7
370
    25
100
AcDbLine
 10
-30.35658486695997
 20
204.2683892072087
 30
0.0
 11
-34.22610599784402
 21
204.2683892072088
 31
0.0
  0
LINE
  5
7F5
330
1F
100
AcDbEntity
  8
作図レイヤ
  6
Continuous
 62
     7
370
    25
100
AcDbLine
 10
-30.35658486695999
 20
203.3683892072088
 30
0.0
 11
-34.22610599784402
 21
203.3683892072088
 31
0.0
  0
LINE
  5
7F6
330
1F
100
AcDbEntity
  8
作図レイヤ
  6
Continuous
 62
     7
370
    25
100
AcDbLine
 10
-16.60355019846029
 20
198.468389207209
 30
0.0
 11
-16.60355019846029
 21
198.968389207209
 31
0.0
  0
LINE
  5
7F7
330
1F
100
AcDbEntity
  8
作図レイヤ
  6
Continuous
 62
     7
370
    25
100
AcDbLine
 10
-21.6035501984603
 20
198.268389207209
 30
0.0
 11
-21.6035501984603
 21
199.168389207209
 31
0.0
  0
LINE
  5
7F8
330
1F
100
AcDbEntity
  8
作図レイヤ
  6
Continuous
 62
     7
370
    25
100
AcDbLine
 10
-16.6035501984603
 20
198.468389207209
 30
0.0
 11
-21.6035501984603
 21
198.468389207209
 31
0.0
  0
LINE
  5
7F9
330
1F
100
AcDbEntity
  8
作図レイヤ
  6
Continuous
 62
     7
370
    25
100
AcDbLine
 10
-16.6035501984603
 20
198.568389207209
 30
0.0
 11
-21.6035501984603
 21
198.568389207209
 31
0.0
  0
LINE
  5
7FA
330
1F
100
AcDbEntity
  8
作図レイヤ
  6
Continuous
 62
     7
370
    25
100
AcDbLine
 10
-16.6035501984603
 20
198.668389207209
 30
0.0
 11
-21.6035501984603
 21
198.668389207209
 31
0.0
  0
LINE
  5
7FB
330
1F
100
AcDbEntity
  8
作図レイヤ
  6
Continuous
 62
     7
370
    25
100
AcDbLine
 10
-16.6035501984603
 20
198.768389207209
 30
0.0
 11
-21.6035501984603
 21
198.768389207209
 31
0.0
  0
LINE
  5
7FC
330
1F
100
AcDbEntity
  8
作図レイヤ
  6
Continuous
 62
     7
370
    25
100
AcDbLine
 10
-16.6035501984603
 20
198.868389207209
 30
0.0
 11
-21.6035501984603
 21
198.868389207209
 31
0.0
  0
LINE
  5
7FD
330
1F
100
AcDbEntity
  8
作図レイヤ
  6
Continuous
 62
     7
370
    25
100
AcDbLine
 10
-16.6035501984603
 20
198.968389207209
 30
0.0
 11
-21.6035501984603
 21
198.968389207209
 31
0.0
  0
LINE
  5
7FE
330
1F
100
AcDbEntity
  8
作図レイヤ
  6
Continuous
 62
     7
370
    25
100
AcDbLine
 10
-21.6035501984603
 20
198.268389207209
 30
0.0
 11
-25.87708960039622
 21
198.2683892072089
 31
0.0
  0
ARC
  5
7FF
330
1F
100
AcDbEntity
  8
作図レイヤ
  6
Continuous
 62
     7
370
    25
100
AcDbCircle
 10
-25.87708960039642
 20
200.9683892072088
 30
0.0
 40
2.700000000000077
100
AcDbArc
 50
216.2272627024702
 51
269.9999999999997
  0
LINE
  5
800
330
1F
100
AcDbEntity
  8
作図レイヤ
  6
Continuous
 62
     7
370
    25
100
AcDbLine
 10
-21.60355019846029
 20
199.168389207209
 30
0.0
 11
-25.87708960039625
 21
199.168389207209
 31
0.0
  0
ARC
  5
801
330
1F
100
AcDbEntity
  8
作図レイヤ
  6
Continuous
 62
     7
370
    25
100
AcDbCircle
 10
-25.87708960039634
 20
200.968389207209
 30
0.0
 40
1.800000000000077
100
AcDbArc
 50
216.2272627024715
 51
269.9999999999995
  0
LINE
  5
802
330
1F
100
AcDbEntity
  8
作図レイヤ
  6
Continuous
 62
     7
370
    25
100
AcDbLine
 10
-28.90456231326262
 20
200.5321704363882
 30
0.0
 11
-28.05512343094224
 21
199.3727173634399
 31
0.0
  0
LINE
  5
803
330
1F
100
AcDbEntity
  8
作図レイヤ
  6
Continuous
 62
     7
370
    25
100
AcDbLine
 10
-28.17855103641396
 20
201.0640610509779
 30
0.0
 11
-27.32911215409359
 21
199.9046079780297
 31
0.0
  0
ARC
  5
804
330
1F
100
AcDbEntity
  8
作図レイヤ
  6
Continuous
 62
     7
370
    25
100
AcDbCircle
 10
-30.35658486695998
 20
199.4683892072088
 30
0.0
 40
1.800000000000007
100
AcDbArc
 50
36.22726270247201
 51
90.0
  0
ARC
  5
805
330
1F
100
AcDbEntity
  8
作図レイヤ
  6
Continuous
 62
     7
370
    25
100
AcDbCircle
 10
-30.35658486695984
 20
199.468389207209
 30
0.0
 40
2.699999999999957
100
AcDbArc
 50
36.22726270247059
 51
90.00000000000136
  0
LINE
  5
806
330
1F
100
AcDbEntity
  8
作図レイヤ
  6
Continuous
 62
     7
370
    25
100
AcDbLine
 10
-30.35658486695997
 20
201.2683892072089
 30
0.0
 11
-34.22610599784402
 21
201.2683892072089
 31
0.0
  0
LINE
  5
807
330
1F
100
AcDbEntity
  8
作図レイヤ
  6
Continuous
 62
     7
370
    25
100
AcDbLine
 10
-30.35658486695999
 20
202.1683892072089
 30
0.0
 11
-34.22610599784402
 21
202.1683892072088
 31
0.0
  0
LINE
  5
841
330
1F
100
AcDbEntity
  8
作図レイヤ
  6
Continuous
 62
     7
370
    25
100
AcDbLine
 10
-308.5465883420316
 20
205.2683892072089
 30
0.0
 11
-308.5465883420316
 21
215.7683892072089
 31
0.0
  0
LINE
  5
8CD
330
1F
100
AcDbEntity
  8
作図レイヤ
  6
Continuous
 62
     7
370
    25
100
AcDbLine
 10
-254.8465883420314
 20
124.768389207208
 30
0.0
 11
-268.8465883420313
 21
124.768389207208
 31
0.0
  0
LINE
  5
8CE
330
1F
100
AcDbEntity
  8
作図レイヤ
  6
Continuous
 62
     7
370
    25
100
AcDbLine
 10
-268.8465883420313
 20
124.768389207208
 30
0.0
 11
-269.3465883420313
 21
125.268389207208
 31
0.0
  0
LINE
  5
8CF
330
1F
100
AcDbEntity
  8
作図レイヤ
  6
Continuous
 62
     7
370
    25
100
AcDbLine
 10
-254.8465883420314
 20
124.768389207208
 30
0.0
 11
-254.3465883420314
 21
125.268389207208
 31
0.0
  0
LINE
  5
8D2
330
1F
100
AcDbEntity
  8
作図レイヤ
  6
Continuous
 62
     4
370
    13
100
AcDbLine
 10
-253.3465883420314
 20
141.7683892072088
 30
0.0
 11
-168.8156058378941
 21
141.7683892072088
 31
0.0
1001
ACAD
1000
DSTYLE
1002
{
1070
   173
1070
     1
1070
   344
1005
7E
1070
   343
1005
78
1070
   178
1070
     7
1002
}
  0
LINE
  5
8D3
330
1F
100
AcDbEntity
  8
作図レイヤ
  6
Continuous
 62
     4
370
    13
100
AcDbLine
 10
-253.3465883420314
 20
221.7683892072091
 30
0.0
 11
-168.8156058378941
 21
221.7683892072091
 31
0.0
1001
ACAD
1000
DSTYLE
1002
{
1070
   173
1070
     1
1070
   344
1005
7E
1070
   343
1005
78
1070
   178
1070
     7
1002
}
  0
LINE
  5
8D4
330
1F
100
AcDbEntity
  8
作図レイヤ
  6
Continuous
 62
     4
370
    13
100
AcDbLine
 10
-169.8156058378941
 20
143.7683892072088
 30
0.0
 11
-169.8156058378941
 21
219.7683892072091
 31
0.0
1001
ACAD
1000
DSTYLE
1002
{
1070
   173
1070
     1
1070
   344
1005
7E
1070
   343
1005
78
1070
   178
1070
     7
1002
}
  0
INSERT
  5
8D5
330
1F
100
AcDbEntity
  8
作図レイヤ
 62
     4
370
    13
100
AcDbBlockReference
  2
FXTIP_ARROW_S
 10
-169.8156058378941
 20
141.7683892072088
 30
0.0
 41
2.0
 42
2.0
 43
2.0
 50
270.0
1001
ACAD
1000
DSTYLE
1002
{
1070
   173
1070
     1
1070
   344
1005
7E
1070
   343
1005
78
1070
   178
1070
     7
1002
}
  0
INSERT
  5
8D6
330
1F
100
AcDbEntity
  8
作図レイヤ
 62
     4
370
    13
100
AcDbBlockReference
  2
FXTIP_ARROW_E
 10
-169.8156058378941
 20
221.7683892072091
 30
0.0
 41
2.0
 42
2.0
 43
2.0
 50
90.0
1001
ACAD
1000
DSTYLE
1002
{
1070
   173
1070
     1
1070
   344
1005
7E
1070
   343
1005
78
1070
   178
1070
     7
1002
}
  0
LINE
  5
8D8
330
1F
100
AcDbEntity
  8
作図レイヤ
  6
Continuous
 62
     4
370
    13
100
AcDbLine
 10
-307.5465883420315
 20
147.7683892072088
 30
0.0
 11
-297.0005769361784
 21
147.7683892072088
 31
0.0
1001
ACAD
1000
DSTYLE
1002
{
1070
   173
1070
     1
1070
   344
1005
7E
1070
   343
1005
78
1070
   178
1070
     7
1002
}
  0
LINE
  5
8D9
330
1F
100
AcDbEntity
  8
作図レイヤ
  6
Continuous
 62
     4
370
    13
100
AcDbLine
 10
-307.5465883420315
 20
215.7683892072088
 30
0.0
 11
-297.0005769361784
 21
215.7683892072088
 31
0.0
1001
ACAD
1000
DSTYLE
1002
{
1070
   173
1070
     1
1070
   344
1005
7E
1070
   343
1005
78
1070
   178
1070
     7
1002
}
  0
LINE
  5
8DA
330
1F
100
AcDbEntity
  8
作図レイヤ
  6
Continuous
 62
     4
370
    13
100
AcDbLine
 10
-298.0005769361784
 20
149.7683892072088
 30
0.0
 11
-298.0005769361784
 21
213.7683892072088
 31
0.0
1001
ACAD
1000
DSTYLE
1002
{
1070
   173
1070
     1
1070
   344
1005
7E
1070
   343
1005
78
1070
   178
1070
     7
1002
}
  0
INSERT
  5
8DB
330
1F
100
AcDbEntity
  8
作図レイヤ
 62
     4
370
    13
100
AcDbBlockReference
  2
FXTIP_ARROW_S
 10
-298.0005769361784
 20
147.7683892072088
 30
0.0
 41
2.0
 42
2.0
 43
2.0
 50
270.0
1001
ACAD
1000
DSTYLE
1002
{
1070
   173
1070
     1
1070
   344
1005
7E
1070
   343
1005
78
1070
   178
1070
     7
1002
}
  0
INSERT
  5
8DC
330
1F
100
AcDbEntity
  8
作図レイヤ
 62
     4
370
    13
100
AcDbBlockReference
  2
FXTIP_ARROW_E
 10
-298.0005769361784
 20
215.7683892072088
 30
0.0
 41
2.0
 42
2.0
 43
2.0
 50
90.0
1001
ACAD
1000
DSTYLE
1002
{
1070
   173
1070
     1
1070
   344
1005
7E
1070
   343
1005
78
1070
   178
1070
     7
1002
}
  0
MTEXT
  5
8DD
330
1F
100
AcDbEntity
  8
作図レイヤ
 62
     7
370
    13
100
AcDbMText
 10
-300.9118913143467
 20
201.2708208637388
 30
0.0
 40
4.0
 41
0.1000000014901161
 46
4.0
 71
     5
 72
     1
  1
{Φ68}
  7
ＭＳ 明朝
 11
0.0
 21
1.0
 31
0.0
 73
     1
 44
1.0
1001
ACAD
1000
DSTYLE
1002
{
1070
   173
1070
     1
1070
   344
1005
7E
1070
   343
1005
78
1070
   178
1070
     7
1002
}
  0
TEXT
  5
8DE
330
1F
100
AcDbEntity
  8
作図レイヤ
  6
Continuous
 62
     7
370
    13
100
AcDbText
 10
-172.1869449175859
 20
201.7066966208238
 30
0.0
 40
4.0
  1
Φ80
 50
90.0
  7
ＭＳ 明朝
100
AcDbText
  0
DIMENSION
  5
8DF
102
{ACAD_REACTORS
330
8E1
102
}
102
{ACAD_XDICTIONARY
360
8E0
102
}
330
1F
100
AcDbEntity
  8
0
100
AcDbDimension
280
     0
  2
*D42
 10
-319.3465883420314
 20
272.5090879219653
 30
0.0
 11
-341.1112058039694
 21
272.5090879219653
 31
0.0
 70
   160
 71
     5
 42
49.9999999999996
 73
     0
 74
     0
 75
     0
  3
FX_DIMINFO
100
AcDbAlignedDimension
 13
-369.346588342031
 23
192.7683892072088
 33
0.0
 14
-319.3465883420314
 24
209.7683892072088
 34
0.0
100
AcDbRotatedDimension
  0
DIMENSION
  5
8EE
102
{ACAD_REACTORS
330
8F0
102
}
102
{ACAD_XDICTIONARY
360
8EF
102
}
330
1F
100
AcDbEntity
  8
0
100
AcDbDimension
280
     0
  2
*D43
 10
-269.3465883420313
 20
272.8297356952446
 30
0.0
 11
-292.0520964922287
 21
272.8297356952446
 31
0.0
 70
   160
 71
     5
 42
50.00000000000011
 73
     0
 74
     0
 75
     0
  3
FX_DIMINFO
100
AcDbAlignedDimension
 13
-319.3465883420314
 23
209.7683892072088
 33
0.0
 14
-269.3465883420313
 24
238.2683892072081
 34
0.0
100
AcDbRotatedDimension
  0
DIMENSION
  5
8FD
102
{ACAD_REACTORS
330
8FF
102
}
102
{ACAD_XDICTIONARY
360
8FE
102
}
330
1F
100
AcDbEntity
  8
0
100
AcDbDimension
280
     0
  2
*D44
 10
-254.3465883420314
 20
258.7298286152771
 30
0.0
 11
-261.8465883420313
 21
261.7298286152771
 31
0.0
 70
    32
 71
     5
 42
14.99999999999989
 73
     0
 74
     0
 75
     0
  3
FX_DIMINFO
100
AcDbAlignedDimension
 13
-269.3465883420313
 23
238.2683892072081
 33
0.0
 14
-254.3465883420314
 24
238.2683892072081
 34
0.0
100
AcDbRotatedDimension
  0
DIMENSION
  5
90C
102
{ACAD_REACTORS
330
90E
102
}
102
{ACAD_XDICTIONARY
360
90D
102
}
330
1F
100
AcDbEntity
  8
0
100
AcDbDimension
280
     0
  2
*D45
 10
-269.3465883420313
 20
273.150383468524
 30
0.0
 11
-166.037521593444
 21
273.150383468524
 31
0.0
 70
   160
 71
     5
 42
211.5
 73
     0
 74
     0
 75
     0
  3
FX_DIMINFO
100
AcDbAlignedDimension
 13
-57.84658834203128
 23
220.7683891990609
 33
0.0
 14
-269.3465883420313
 24
238.2683892072081
 34
0.0
100
AcDbRotatedDimension
  0
DIMENSION
  5
91B
102
{ACAD_REACTORS
330
91D
102
}
102
{ACAD_XDICTIONARY
360
91C
102
}
330
1F
100
AcDbEntity
  8
0
100
AcDbDimension
280
     0
  2
*D46
 10
-57.84658834203273
 20
287.2588854928183
 30
0.0
 11
-188.1622179497191
 21
287.2588854928154
 31
0.0
 70
   160
 71
     5
 42
261.5000000000003
 73
     0
 74
     0
 75
     0
  3
FX_DIMINFO
100
AcDbAlignedDimension
 13
-319.3465883420314
 23
209.7683892072088
 33
0.0
 14
-57.84658834203128
 24
220.7683891990609
 34
0.0
 50
180.0000000000013
100
AcDbRotatedDimension
  0
CIRCLE
  5
93F
330
1F
100
AcDbEntity
  8
作図レイヤ
  6
Continuous
 62
     7
370
    25
100
AcDbCircle
 10
-475.6613027431574
 20
181.7683892072088
 30
0.0
 40
40.0
  0
LINE
  5
940
330
1F
100
AcDbEntity
  8
作図レイヤ
  6
DASHDOT
 62
     4
370
    13
100
AcDbLine
 10
-475.6613027431574
 20
249.1675971707451
 30
0.0
 11
-475.6613027431574
 21
114.3691812436725
 31
0.0
  0
CIRCLE
  5
941
330
1F
100
AcDbEntity
  8
作図レイヤ
  6
Continuous
 62
     7
370
    25
100
AcDbCircle
 10
-475.6613027431574
 20
181.7683892072088
 30
0.0
 40
38.99999999999992
  0
LINE
  5
942
330
1F
100
AcDbEntity
  8
作図レイヤ
  6
DASHDOT
 62
     4
370
    13
100
AcDbLine
 10
-519.9950680543081
 20
181.7683892072088
 30
0.0
 11
-431.3275374320066
 21
181.7683892072088
 31
0.0
  0
LINE
  5
943
330
1F
100
AcDbEntity
  8
作図レイヤ
  6
Continuous
 62
     7
370
    25
100
AcDbLine
 10
-435.6613027431574
 20
141.1605081987149
 30
0.0
 11
-435.6613027431574
 21
222.3762702157028
 31
0.0
  0
LINE
  5
944
330
1F
100
AcDbEntity
  8
作図レイヤ
  6
Continuous
 62
     7
370
    25
100
AcDbLine
 10
-515.6613027431574
 20
141.1605081987149
 30
0.0
 11
-515.6613027431574
 21
222.3762702157028
 31
0.0
  0
ARC
  5
945
330
1F
100
AcDbEntity
  8
作図レイヤ
  6
Continuous
 62
     7
370
    25
100
AcDbCircle
 10
-475.6613027431574
 20
181.7683892072088
 30
0.0
 40
57.0
100
AcDbArc
 50
225.4320713505831
 51
314.5679286494168
  0
ARC
  5
946
330
1F
100
AcDbEntity
  8
作図レイヤ
  6
Continuous
 62
     7
370
    25
100
AcDbCircle
 10
-475.6613027431574
 20
181.7683892072088
 30
0.0
 40
57.0
100
AcDbArc
 50
45.43207135058319
 51
134.5679286494166
  0
ARC
  5
947
330
1F
100
AcDbEntity
  8
作図レイヤ
  6
DASHDOT
 62
     4
370
    13
100
AcDbCircle
 10
-475.6613027431574
 20
181.7683892072088
 30
0.0
 40
49.0
100
AcDbArc
 50
215.281261827266
 51
324.718738172734
  0
ARC
  5
948
330
1F
100
AcDbEntity
  8
作図レイヤ
  6
DASHDOT
 62
     4
370
    13
100
AcDbCircle
 10
-475.6613027431574
 20
181.7683892072088
 30
0.0
 40
49.0
100
AcDbArc
 50
35.281261827266
 51
144.718738172734
  0
CIRCLE
  5
949
330
1F
100
AcDbEntity
  8
作図レイヤ
  6
Continuous
 62
     7
370
    25
100
AcDbCircle
 10
-475.6613027431574
 20
230.7683892072088
 30
0.0
 40
5.5
  0
CIRCLE
  5
94A
330
1F
100
AcDbEntity
  8
作図レイヤ
  6
Continuous
 62
     7
370
    25
100
AcDbCircle
 10
-475.6613027431574
 20
132.7683892072088
 30
0.0
 40
5.5
  0
CIRCLE
  5
94B
330
1F
100
AcDbEntity
  8
作図レイヤ
  6
DASHDOT
 62
     4
370
    13
100
AcDbCircle
 10
-475.6613027431574
 20
181.7683892072088
 30
0.0
 40
21.0
  0
LINE
  5
94C
330
1F
100
AcDbEntity
  8
作図レイヤ
  6
Continuous
 62
     7
370
    13
100
AcDbLine
 10
-480.1613027431573
 20
200.5889397354378
 30
0.0
 11
-480.1613027431573
 21
204.9478386789788
 31
0.0
  0
LINE
  5
94D
330
1F
100
AcDbEntity
  8
作図レイヤ
  6
Continuous
 62
     7
370
    13
100
AcDbLine
 10
-479.798761351975
 20
205.5757787883528
 30
0.0
 11
-476.0238441343393
 21
207.7552282601238
 31
0.0
  0
LINE
  5
94E
330
1F
100
AcDbEntity
  8
作図レイヤ
  6
Continuous
 62
     7
370
    13
100
AcDbLine
 10
-475.2987613519754
 20
207.7552282601238
 30
0.0
 11
-471.5238441343393
 21
205.5757787883528
 31
0.0
  0
LINE
  5
94F
330
1F
100
AcDbEntity
  8
作図レイヤ
  6
Continuous
 62
     7
370
    13
100
AcDbLine
 10
-471.1613027431573
 20
204.9478386789788
 30
0.0
 11
-471.1613027431573
 21
200.5889397354378
 31
0.0
  0
LINE
  5
950
330
1F
100
AcDbEntity
  8
作図レイヤ
  6
Continuous
 62
     7
370
    13
100
AcDbLine
 10
-471.5238441343395
 20
199.9609996260638
 30
0.0
 11
-475.2987613519752
 21
197.7815501542938
 31
0.0
  0
LINE
  5
951
330
1F
100
AcDbEntity
  8
作図レイヤ
  6
Continuous
 62
     7
370
    13
100
AcDbLine
 10
-476.0238441343393
 20
197.7815501542938
 30
0.0
 11
-479.7987613519752
 21
199.9609996260638
 31
0.0
  0
ARC
  5
952
330
1F
100
AcDbEntity
  8
作図レイヤ
  6
Continuous
 62
     7
370
    13
100
AcDbCircle
 10
-475.6613027431573
 20
202.7683892072088
 30
0.0
 40
4.999999999999625
100
AcDbArc
 50
145.8419327631755
 51
154.1580672368358
  0
ARC
  5
953
330
1F
100
AcDbEntity
  8
作図レイヤ
  6
Continuous
 62
     7
370
    13
100
AcDbCircle
 10
-475.6613027431573
 20
202.7683892072088
 30
0.0
 40
5.0
100
AcDbArc
 50
90.0
 51
94.1580672368305
  0
ARC
  5
954
330
1F
100
AcDbEntity
  8
作図レイヤ
  6
Continuous
 62
     7
370
    13
100
AcDbCircle
 10
-475.6613027431573
 20
202.7683892072088
 30
0.0
 40
4.999999999999764
100
AcDbArc
 50
25.84193276316422
 51
34.15806723682361
  0
ARC
  5
955
330
1F
100
AcDbEntity
  8
作図レイヤ
  6
Continuous
 62
     7
370
    13
100
AcDbCircle
 10
-475.6613027431573
 20
202.7683892072088
 30
0.0
 40
5.000000000000211
100
AcDbArc
 50
325.8419327631656
 51
334.1580672368249
  0
ARC
  5
956
330
1F
100
AcDbEntity
  8
作図レイヤ
  6
Continuous
 62
     7
370
    13
100
AcDbCircle
 10
-475.6613027431573
 20
202.7683892072088
 30
0.0
 40
5.000000000000014
100
AcDbArc
 50
270.0
 51
274.1580672368291
  0
ARC
  5
957
330
1F
100
AcDbEntity
  8
作図レイヤ
  6
Continuous
 62
     7
370
    13
100
AcDbCircle
 10
-475.6613027431573
 20
202.7683892072088
 30
0.0
 40
5.000000000000203
100
AcDbArc
 50
205.8419327631745
 51
214.158067236833
  0
ARC
  5
958
330
1F
100
AcDbEntity
  8
作図レイヤ
  6
Continuous
 62
     7
370
    13
100
AcDbCircle
 10
-475.6613027431573
 20
202.7683892072088
 30
0.0
 40
4.99999999999983
100
AcDbArc
 50
85.84193276317198
 51
90.0
  0
ARC
  5
959
330
1F
100
AcDbEntity
  8
作図レイヤ
  6
Continuous
 62
     7
370
    13
100
AcDbCircle
 10
-475.6613027431573
 20
202.7683892072088
 30
0.0
 40
4.999999999999858
100
AcDbArc
 50
265.8419327631694
 51
270.0
  0
CIRCLE
  5
95A
330
1F
100
AcDbEntity
  8
作図レイヤ
  6
Continuous
 62
     7
370
    13
100
AcDbCircle
 10
-475.6613027431573
 20
202.7683892072088
 30
0.0
 40
3.720231971246989
  0
CIRCLE
  5
95B
330
1F
100
AcDbEntity
  8
作図レイヤ
  6
Continuous
 62
     7
370
    13
100
AcDbCircle
 10
-475.6613027431573
 20
202.7683892072088
 30
0.0
 40
2.599999999999994
  0
CIRCLE
  5
95C
330
1F
100
AcDbEntity
  8
作図レイヤ
  6
Continuous
 62
     7
370
    13
100
AcDbCircle
 10
-475.6613027431573
 20
202.7683892072088
 30
0.0
 40
3.099999999999994
  0
CIRCLE
  5
95D
330
1F
100
AcDbEntity
  8
作図レイヤ
  6
Continuous
 62
     7
370
    13
100
AcDbCircle
 10
-475.6613027431573
 20
202.7683892072088
 30
0.0
 40
3.299999999998988
  0
CIRCLE
  5
95E
330
1F
100
AcDbEntity
  8
作図レイヤ
  6
Continuous
 62
     7
370
    25
100
AcDbCircle
 10
-496.6613027431574
 20
181.7683892072089
 30
0.0
 40
4.950000000000102
  0
CIRCLE
  5
95F
330
1F
100
AcDbEntity
  8
作図レイヤ
  6
Continuous
 62
     7
370
    25
100
AcDbCircle
 10
-496.6613027431575
 20
181.7683892072089
 30
0.0
 40
5.000000000000114
  0
CIRCLE
  5
960
330
1F
100
AcDbEntity
  8
作図レイヤ
  6
Continuous
 62
     7
370
    25
100
AcDbCircle
 10
-496.6613027431575
 20
181.7683892072089
 30
0.0
 40
3.0
  0
LINE
  5
961
330
1F
100
AcDbEntity
  8
作図レイヤ
  6
Continuous
 62
     7
370
    25
100
AcDbLine
 10
-480.7660718367849
 20
166.9280428095427
 30
0.0
 11
-483.5481037881052
 21
162.1094221215759
 31
0.0
  0
LINE
  5
962
330
1F
100
AcDbEntity
  8
作図レイヤ
  6
Continuous
 62
     7
370
    25
100
AcDbLine
 10
-480.7660718367849
 20
154.6087356048739
 30
0.0
 11
-483.5481037881052
 21
159.4273562928407
 31
0.0
  0
LINE
  5
963
330
1F
100
AcDbEntity
  8
作図レイヤ
  6
Continuous
 62
     7
370
    25
100
AcDbLine
 10
-472.8792707918371
 20
168.2690757239108
 30
0.0
 11
-478.4433346944776
 21
168.2690757239108
 31
0.0
  0
LINE
  5
964
330
1F
100
AcDbEntity
  8
作図レイヤ
  6
Continuous
 62
     7
370
    25
100
AcDbLine
 10
-470.5565336495308
 20
154.6087356048739
 30
0.0
 11
-467.7745016982095
 21
159.4273562928421
 31
0.0
  0
LINE
  5
965
330
1F
100
AcDbEntity
  8
作図レイヤ
  6
Continuous
 62
     7
370
    25
100
AcDbLine
 10
-467.7745016982095
 20
162.1094221215759
 30
0.0
 11
-470.5565336495299
 21
166.9280428095427
 31
0.0
  0
LINE
  5
966
330
1F
100
AcDbEntity
  8
作図レイヤ
  6
Continuous
 62
     7
370
    25
100
AcDbLine
 10
-472.8792707918371
 20
153.2677026905068
 30
0.0
 11
-478.4433346944776
 21
153.2677026905068
 31
0.0
  0
ARC
  5
967
330
1F
100
AcDbEntity
  8
作図レイヤ
  6
Continuous
 62
     7
370
    25
100
AcDbCircle
 10
-475.6613027431574
 20
160.7683892072088
 30
0.0
 40
8.000000000000346
100
AcDbArc
 50
170.3500007365373
 51
180.0
  0
ARC
  5
968
330
1F
100
AcDbEntity
  8
作図レイヤ
  6
Continuous
 62
     7
370
    25
100
AcDbCircle
 10
-475.6613027431574
 20
160.7683892072088
 30
0.0
 40
8.000000000000286
100
AcDbArc
 50
350.3500007365403
 51
0.0
  0
ARC
  5
969
330
1F
100
AcDbEntity
  8
作図レイヤ
  6
Continuous
 62
     7
370
    25
100
AcDbCircle
 10
-475.6613027431574
 20
160.7683892072088
 30
0.0
 40
8.000000000000135
100
AcDbArc
 50
110.3500007365333
 51
129.6499992634701
  0
ARC
  5
96A
330
1F
100
AcDbEntity
  8
作図レイヤ
  6
Continuous
 62
     7
370
    25
100
AcDbCircle
 10
-475.6613027431574
 20
160.7683892072088
 30
0.0
 40
8.0
100
AcDbArc
 50
180.0
 51
189.6499992634696
  0
ARC
  5
96B
330
1F
100
AcDbEntity
  8
作図レイヤ
  6
Continuous
 62
     7
370
    25
100
AcDbCircle
 10
-475.6613027431574
 20
160.7683892072088
 30
0.0
 40
7.99999999999997
100
AcDbArc
 50
50.3500007365295
 51
69.64999926346717
  0
ARC
  5
96C
330
1F
100
AcDbEntity
  8
作図レイヤ
  6
Continuous
 62
     7
370
    25
100
AcDbCircle
 10
-475.6613027431574
 20
160.7683892072088
 30
0.0
 40
8.000000000000107
100
AcDbArc
 50
290.3500007365329
 51
309.6499992634612
  0
ARC
  5
96D
330
1F
100
AcDbEntity
  8
作図レイヤ
  6
Continuous
 62
     7
370
    25
100
AcDbCircle
 10
-475.6613027431574
 20
160.7683892072088
 30
0.0
 40
8.000000000000004
100
AcDbArc
 50
0.0
 51
9.64999926346232
  0
ARC
  5
96E
330
1F
100
AcDbEntity
  8
作図レイヤ
  6
Continuous
 62
     7
370
    25
100
AcDbCircle
 10
-475.6613027431574
 20
160.7683892072088
 30
0.0
 40
8.000000000000735
100
AcDbArc
 50
230.3500007365346
 51
249.649999263467
  0
CIRCLE
  5
96F
330
1F
100
AcDbEntity
  8
作図レイヤ
  6
Continuous
 62
     7
370
    25
100
AcDbCircle
 10
-475.6613027431574
 20
160.7683892072088
 30
0.0
 40
6.299999999999997
  0
CIRCLE
  5
970
330
1F
100
AcDbEntity
  8
作図レイヤ
  6
Continuous
 62
     7
370
    25
100
AcDbCircle
 10
-475.6613027431574
 20
160.7683892072088
 30
0.0
 40
6.100000000000101
  0
CIRCLE
  5
971
330
1F
100
AcDbEntity
  8
作図レイヤ
  6
Continuous
 62
     7
370
    25
100
AcDbCircle
 10
-475.6613027431574
 20
160.7683892072088
 30
0.0
 40
5.100000000000101
  0
CIRCLE
  5
972
330
1F
100
AcDbEntity
  8
作図レイヤ
  6
Continuous
 62
     7
370
    25
100
AcDbCircle
 10
-475.6613027431574
 20
160.7683892072088
 30
0.0
 40
6.750686516701599
  0
DIMENSION
  5
973
330
1F
100
AcDbEntity
  8
作図レイヤ
  6
Continuous
 62
     4
370
    13
100
AcDbDimension
280
     0
  2
*D47
 10
-503.8505037082284
 20
132.2268011326341
 30
0.0
 11
-442.0200593906155
 21
240.8917614004567
 31
0.0
 70
   163
 71
     5
 42
114.0
 73
     0
 74
     0
 75
     0
  3
FX_DIMINFO
100
AcDbDiametricDimension
 15
-447.4721017780864
 25
231.3099772817835
 35
0.0
 40
0.0
1001
ACAD
1000
DSTYLE
1002
{
1070
   173
1070
     1
1070
   344
1005
7E
1070
   343
1005
78
1070
   178
1070
     7
1002
}
  0
DIMENSION
  5
974
330
1F
100
AcDbEntity
  8
作図レイヤ
  6
Continuous
 62
     4
370
    13
100
AcDbDimension
280
     0
  2
*D48
 10
-458.3327036612685
 20
135.9347808629037
 30
0.0
 11
-498.245816532179
 21
241.5037293094823
 31
0.0
 70
   163
 71
     5
 42
97.99999999999997
 73
     0
 74
     0
 75
     0
  3
FX_DIMINFO
100
AcDbDiametricDimension
 15
-492.9899018250463
 25
227.601997551514
 35
0.0
 40
0.0
1001
ACAD
1000
DSTYLE
1002
{
1070
   173
1070
     1
1070
   344
1005
7E
1070
   343
1005
78
1070
   178
1070
     7
1002
}
  0
INSERT
  5
975
330
1F
100
AcDbEntity
  8
作図レイヤ
  6
Continuous
 62
     4
370
    13
100
AcDbBlockReference
  2
FXDIM034
 10
-529.1931297887265
 20
112.852736701364
 30
0.0
  0
CIRCLE
  5
976
330
1F
100
AcDbEntity
  8
作図レイヤ
  6
Continuous
 62
     7
370
    25
100
AcDbCircle
 10
-475.6613027431574
 20
181.7683892072089
 30
0.0
 40
4.950000000000102
  0
CIRCLE
  5
977
330
1F
100
AcDbEntity
  8
作図レイヤ
  6
Continuous
 62
     7
370
    25
100
AcDbCircle
 10
-475.6613027431574
 20
181.7683892072089
 30
0.0
 40
5.000000000000114
  0
CIRCLE
  5
978
330
1F
100
AcDbEntity
  8
作図レイヤ
  6
Continuous
 62
     7
370
    25
100
AcDbCircle
 10
-475.6613027431574
 20
181.7683892072089
 30
0.0
 40
3.0
  0
ENDSEC
  0
SECTION
  2
OBJECTS
  0
DICTIONARY
  5
C
330
0
100
AcDbDictionary
281
     1
  3
ACAD_DETAILVIEWSTYLE
350
8CB
  3
ACAD_GROUP
350
D
  3
ACAD_LAYOUT
350
1A
  3
ACAD_MATERIAL
350
43
  3
ACAD_MLEADERSTYLE
350
6B
  3
ACAD_MLINESTYLE
350
17
  3
ACAD_PLOTSETTINGS
350
19
  3
ACAD_PLOTSTYLENAME
350
E
  3
ACAD_SCALELIST
350
47
  3
ACAD_SECTIONVIEWSTYLE
350
8CC
  3
ACAD_TABLESTYLE
350
69
  3
ACAD_VISUALSTYLE
350
2A
  3
ACDB_RECOMPOSE_DATA
350
9A7
  3
AcDbVariableDictionary
350
557
  3
APPDATA
350
59D
  0
SUN
  5
9A0
330
29
100
AcDbSun
 90
        1
290
     0
 63
     7
421
 16777215
 40
1.0
291
     1
 91
  2455826
 92
 54000000
292
     0
 70
     2
 71
   256
280
     1
  0
DICTIONARY
  5
8E0
330
8DF
100
AcDbDictionary
280
     1
281
     1
  3
ACAD_DIMASSOC
360
8E1
  0
DICTIONARY
  5
8EF
330
8EE
100
AcDbDictionary
280
     1
281
     1
  3
ACAD_DIMASSOC
360
8F0
  0
DICTIONARY
  5
8FE
330
8FD
100
AcDbDictionary
280
     1
281
     1
  3
ACAD_DIMASSOC
360
8FF
  0
DICTIONARY
  5
90D
330
90C
100
AcDbDictionary
280
     1
281
     1
  3
ACAD_DIMASSOC
360
90E
  0
DICTIONARY
  5
91C
330
91B
100
AcDbDictionary
280
     1
281
     1
  3
ACAD_DIMASSOC
360
91D
  0
DICTIONARY
  5
8CB
102
{ACAD_REACTORS
330
C
102
}
330
C
100
AcDbDictionary
281
     1
  0
DICTIONARY
  5
D
102
{ACAD_REACTORS
330
C
102
}
330
C
100
AcDbDictionary
281
     1
  0
DICTIONARY
  5
1A
102
{ACAD_REACTORS
330
C
102
}
330
C
100
AcDbDictionary
281
     1
  3
Layout1
350
1E
  3
Layout2
350
26
  3
Model
350
22
  0
DICTIONARY
  5
43
102
{ACAD_REACTORS
330
C
102
}
330
C
100
AcDbDictionary
281
     1
  3
ByBlock
350
45
  3
ByLayer
350
44
  3
Global
350
46
  0
DICTIONARY
  5
6B
102
{ACAD_REACTORS
330
C
102
}
330
C
100
AcDbDictionary
281
     1
  3
Standard
350
6C
  0
DICTIONARY
  5
17
102
{ACAD_REACTORS
330
C
102
}
330
C
100
AcDbDictionary
281
     1
  3
Standard
350
18
  0
DICTIONARY
  5
19
102
{ACAD_REACTORS
330
C
102
}
330
C
100
AcDbDictionary
281
     1
  0
ACDBDICTIONARYWDFLT
  5
E
102
{ACAD_REACTORS
330
C
102
}
330
C
100
AcDbDictionary
281
     1
  3
Normal
350
F
100
AcDbDictionaryWithDefault
340
F
  0
DICTIONARY
  5
47
102
{ACAD_REACTORS
330
C
102
}
330
C
100
AcDbDictionary
281
     1
  3
A0
350
48
  3
A1
350
49
  3
A2
350
4A
  3
A3
350
4B
  3
A4
350
4C
  3
A5
350
4D
  3
A6
350
4E
  3
A7
350
4F
  3
A8
350
50
  3
A9
350
51
  3
B0
350
52
  3
B1
350
53
  3
B2
350
54
  3
B3
350
55
  3
B4
350
56
  3
B5
350
57
  3
B6
350
58
  3
B7
350
59
  3
B8
350
5A
  3
B9
350
5B
  3
C0
350
5C
  3
C1
350
5D
  3
C2
350
5E
  3
C3
350
5F
  3
C4
350
60
  3
C5
350
61
  3
C6
350
62
  3
C7
350
63
  3
C8
350
64
  3
C9
350
65
  3
D0
350
66
  3
D1
350
67
  3
D2
350
68
  0
DICTIONARY
  5
8CC
102
{ACAD_REACTORS
330
C
102
}
330
C
100
AcDbDictionary
281
     1
  0
DICTIONARY
  5
69
102
{ACAD_REACTORS
330
C
102
}
330
C
100
AcDbDictionary
281
     1
  3
Standard
350
6A
  0
DICTIONARY
  5
2A
102
{ACAD_REACTORS
330
C
102
}
330
C
100
AcDbDictionary
281
     1
  3
2dWireframe
350
2F
  3
Basic
350
32
  3
Brighten
350
36
  3
ColorChange
350
3A
  3
Conceptual
350
34
  3
Dim
350
35
  3
EdgeColorOff
350
3D
  3
Facepattern
350
39
  3
Flat
350
2B
  3
FlatWithEdges
350
2C
  3
Gouraud
350
2D
  3
GouraudWithEdges
350
2E
  3
Hidden
350
31
  3
JitterOff
350
3B
  3
Linepattern
350
38
  3
OverhangOff
350
3C
  3
Realistic
350
33
  3
Shaded
350
42
  3
Shaded with edges
350
41
  3
Shades of Gray
350
3E
  3
Sketchy
350
3F
  3
Thicken
350
37
  3
Wireframe
350
30
  3
X-Ray
350
40
  0
XRECORD
  5
9A7
102
{ACAD_REACTORS
330
C
102
}
330
C
100
AcDbXrecord
280
     1
 90
        1
330
6A
  0
DICTIONARY
  5
557
102
{ACAD_REACTORS
330
C
102
}
330
C
100
AcDbDictionary
281
     1
  3
CANNOSCALE
350
8CA
  3
CMLEADERSTYLE
350
559
  3
CTABLESTYLE
350
558
  3
DIMASSOC
350
55E
  3
HIDETEXT
350
55F
  3
MSLTSCALE
350
563
  0
DICTIONARY
  5
59D
102
{ACAD_REACTORS
330
C
102
}
330
C
100
AcDbDictionary
281
     1
  0
DIMASSOC
  5
8E1
102
{ACAD_REACTORS
330
8E0
102
}
330
8E0
100
AcDbDimAssoc
330
8DF
 90
        3
 70
     0
 71
     1
  1
AcDbOsnapPointRef
 72
     1
331
668
 73
     0
 91
        0
 40
0.0
 10
0.0
 20
0.0
 30
0.0
 75
     0
  1
AcDbOsnapPointRef
 72
     1
331
661
 73
     0
 91
        0
 40
0.0
 10
0.0
 20
0.0
 30
0.0
 75
     0
  0
DIMASSOC
  5
8F0
102
{ACAD_REACTORS
330
8EF
102
}
330
8EF
100
AcDbDimAssoc
330
8EE
 90
        3
 70
     0
 71
     1
  1
AcDbOsnapPointRef
 72
     1
331
661
 73
     0
 91
        0
 40
0.0
 10
0.0
 20
0.0
 30
0.0
 75
     0
  1
AcDbOsnapPointRef
 72
     1
331
5AB
 73
     0
 91
        0
 40
0.0
 10
0.0
 20
0.0
 30
0.0
 75
     0
  0
DIMASSOC
  5
8FF
102
{ACAD_REACTORS
330
8FE
102
}
330
8FE
100
AcDbDimAssoc
330
8FD
 90
        3
 70
     0
 71
     1
  1
AcDbOsnapPointRef
 72
     1
331
5AB
 73
     0
 91
        0
 40
0.0
 10
0.0
 20
0.0
 30
0.0
 75
     0
  1
AcDbOsnapPointRef
 72
     1
331
5A8
 73
     0
 91
        0
 40
0.0
 10
0.0
 20
0.0
 30
0.0
 75
     0
  0
DIMASSOC
  5
90E
102
{ACAD_REACTORS
330
90D
102
}
330
90D
100
AcDbDimAssoc
330
90C
 90
        3
 70
     0
 71
     1
  1
AcDbOsnapPointRef
 72
    13
331
687
 73
     0
 91
        0
 40
0.0
 10
0.0
 20
0.0
 30
0.0
 75
     0
  1
AcDbOsnapPointRef
 72
     1
331
5AB
 73
     0
 91
        0
 40
0.0
 10
0.0
 20
0.0
 30
0.0
 75
     0
  0
DIMASSOC
  5
91D
102
{ACAD_REACTORS
330
91C
102
}
330
91C
100
AcDbDimAssoc
330
91B
 90
        3
 70
     0
 71
     1
  1
AcDbOsnapPointRef
 72
     1
331
661
 73
     0
 91
        0
 40
0.0
 10
0.0
 20
0.0
 30
0.0
 75
     0
  1
AcDbOsnapPointRef
 72
    13
331
686
 73
     0
 91
        0
 40
0.0
 10
0.0
 20
0.0
 30
0.0
 75
     0
  0
LAYOUT
  5
1E
102
{ACAD_REACTORS
330
1A
102
}
330
1A
100
AcDbPlotSettings
  1

  2
none_device
  4

  6

 40
0.0
 41
0.0
 42
0.0
 43
0.0
 44
0.0
 45
0.0
 46
0.0
 47
0.0
 48
0.0
 49
0.0
140
0.0
141
0.0
142
1.0
143
1.0
 70
   688
 72
     1
 73
     0
 74
     5
  7

 75
    16
 76
     0
 77
     2
 78
   300
147
1.0
148
0.0
149
0.0
100
AcDbLayout
  1
Layout1
 70
     1
 71
     1
 10
0.0
 20
0.0
 11
420.0
 21
297.0
 12
0.0
 22
0.0
 32
0.0
 14
1.000000000000000E+20
 24
1.000000000000000E+20
 34
1.000000000000000E+20
 15
-1.000000000000000E+20
 25
-1.000000000000000E+20
 35
-1.000000000000000E+20
146
0.0
 13
0.0
 23
0.0
 33
0.0
 16
1.0
 26
0.0
 36
0.0
 17
0.0
 27
1.0
 37
0.0
 76
     0
330
1B
  0
LAYOUT
  5
26
102
{ACAD_REACTORS
330
1A
102
}
330
1A
100
AcDbPlotSettings
  1

  2
none_device
  4

  6

 40
0.0
 41
0.0
 42
0.0
 43
0.0
 44
0.0
 45
0.0
 46
0.0
 47
0.0
 48
0.0
 49
0.0
140
0.0
141
0.0
142
1.0
143
1.0
 70
   688
 72
     1
 73
     0
 74
     5
  7

 75
    16
 76
     0
 77
     2
 78
   300
147
1.0
148
0.0
149
0.0
100
AcDbLayout
  1
Layout2
 70
     1
 71
     2
 10
0.0
 20
0.0
 11
0.0
 21
0.0
 12
0.0
 22
0.0
 32
0.0
 14
0.0
 24
0.0
 34
0.0
 15
0.0
 25
0.0
 35
0.0
146
0.0
 13
0.0
 23
0.0
 33
0.0
 16
1.0
 26
0.0
 36
0.0
 17
0.0
 27
1.0
 37
0.0
 76
     0
330
23
  0
LAYOUT
  5
22
102
{ACAD_REACTORS
330
1A
102
}
330
1A
100
AcDbPlotSettings
  1

  2
none_device
  4
Letter_(8.50_x_11.00_Inches)
  6

 40
6.35
 41
6.35
 42
6.35000508
 43
6.35000508
 44
215.9
 45
279.4
 46
0.0
 47
0.0
 48
0.0
 49
0.0
140
0.0
141
0.0
142
1.0
143
1.0
 70
  1712
 72
     1
 73
     0
 74
     0
  7

 75
     0
 76
     0
 77
     2
 78
   300
147
1.0
148
0.0
149
0.0
100
AcDbLayout
  1
Model
 70
     1
 71
     0
 10
0.0
 20
0.0
 11
420.0
 21
297.0
 12
0.0
 22
0.0
 32
0.0
 14
-519.9950680543081
 24
114.3691812436725
 34
0.0
 15
-12.803873302017
 25
292.2588854928154
 35
0.0
146
0.0
 13
0.0
 23
0.0
 33
0.0
 16
1.0
 26
0.0
 36
0.0
 17
0.0
 27
1.0
 37
0.0
 76
     0
330
1F
331
29
  0
MATERIAL
  5
45
102
{ACAD_REACTORS
330
43
102
}
330
43
100
AcDbMaterial
  1
ByBlock
 72
     1
 94
      127
  0
MATERIAL
  5
44
102
{ACAD_REACTORS
330
43
102
}
330
43
100
AcDbMaterial
  1
ByLayer
 72
     1
 94
      127
  0
MATERIAL
  5
46
102
{ACAD_REACTORS
330
43
102
}
330
43
100
AcDbMaterial
  1
Global
 72
     1
 94
      127
  0
MLEADERSTYLE
  5
6C
102
{ACAD_REACTORS
330
6B
102
}
330
6B
100
AcDbMLeaderStyle
179
     2
170
     2
171
     1
172
     0
 90
        2
 40
0.0
 41
0.0
173
     1
 91
-1056964608
340
14
 92
       -2
290
     1
 42
2.0
291
     1
 43
8.0
  3
Standard
341
0
 44
4.0
300

342
11
174
     1
178
     6
175
     1
176
     0
 93
-1056964608
 45
4.0
292
     0
297
     0
 46
4.0
343
0
 94
-1056964608
 47
1.0
 49
1.0
140
1.0
293
     1
141
0.0
294
     1
177
     0
142
1.0
295
     0
296
     0
143
3.75
271
     0
272
     9
273
     9
298
     0
  0
MLINESTYLE
  5
18
102
{ACAD_REACTORS
330
17
102
}
330
17
100
AcDbMlineStyle
  2
Standard
 70
     0
  3

 62
   256
 51
90.0
 52
90.0
 71
     2
 49
0.5
 62
   256
  6
BYLAYER
 49
-0.5
 62
   256
  6
BYLAYER
  0
ACDBPLACEHOLDER
  5
F
102
{ACAD_REACTORS
330
E
102
}
330
E
  0
SCALE
  5
48
102
{ACAD_REACTORS
330
47
102
}
330
47
100
AcDbScale
 70
     0
300
1:1
140
1.0
141
1.0
290
     1
  0
SCALE
  5
49
102
{ACAD_REACTORS
330
47
102
}
330
47
100
AcDbScale
 70
     0
300
1:2
140
1.0
141
2.0
290
     0
  0
SCALE
  5
4A
102
{ACAD_REACTORS
330
47
102
}
330
47
100
AcDbScale
 70
     0
300
1:4
140
1.0
141
4.0
290
     0
  0
SCALE
  5
4B
102
{ACAD_REACTORS
330
47
102
}
330
47
100
AcDbScale
 70
     0
300
1:5
140
1.0
141
5.0
290
     0
  0
SCALE
  5
4C
102
{ACAD_REACTORS
330
47
102
}
330
47
100
AcDbScale
 70
     0
300
1:8
140
1.0
141
8.0
290
     0
  0
SCALE
  5
4D
102
{ACAD_REACTORS
330
47
102
}
330
47
100
AcDbScale
 70
     0
300
1:10
140
1.0
141
10.0
290
     0
  0
SCALE
  5
4E
102
{ACAD_REACTORS
330
47
102
}
330
47
100
AcDbScale
 70
     0
300
1:16
140
1.0
141
16.0
290
     0
  0
SCALE
  5
4F
102
{ACAD_REACTORS
330
47
102
}
330
47
100
AcDbScale
 70
     0
300
1:20
140
1.0
141
20.0
290
     0
  0
SCALE
  5
50
102
{ACAD_REACTORS
330
47
102
}
330
47
100
AcDbScale
 70
     0
300
1:30
140
1.0
141
30.0
290
     0
  0
SCALE
  5
51
102
{ACAD_REACTORS
330
47
102
}
330
47
100
AcDbScale
 70
     0
300
1:40
140
1.0
141
40.0
290
     0
  0
SCALE
  5
52
102
{ACAD_REACTORS
330
47
102
}
330
47
100
AcDbScale
 70
     0
300
1:50
140
1.0
141
50.0
290
     0
  0
SCALE
  5
53
102
{ACAD_REACTORS
330
47
102
}
330
47
100
AcDbScale
 70
     0
300
1:100
140
1.0
141
100.0
290
     0
  0
SCALE
  5
54
102
{ACAD_REACTORS
330
47
102
}
330
47
100
AcDbScale
 70
     0
300
2:1
140
2.0
141
1.0
290
     0
  0
SCALE
  5
55
102
{ACAD_REACTORS
330
47
102
}
330
47
100
AcDbScale
 70
     0
300
4:1
140
4.0
141
1.0
290
     0
  0
SCALE
  5
56
102
{ACAD_REACTORS
330
47
102
}
330
47
100
AcDbScale
 70
     0
300
8:1
140
8.0
141
1.0
290
     0
  0
SCALE
  5
57
102
{ACAD_REACTORS
330
47
102
}
330
47
100
AcDbScale
 70
     0
300
10:1
140
10.0
141
1.0
290
     0
  0
SCALE
  5
58
102
{ACAD_REACTORS
330
47
102
}
330
47
100
AcDbScale
 70
     0
300
100:1
140
100.0
141
1.0
290
     0
  0
SCALE
  5
59
102
{ACAD_REACTORS
330
47
102
}
330
47
100
AcDbScale
 70
     0
300
1/128" = 1'-0"
140
0.0078125
141
12.0
290
     0
  0
SCALE
  5
5A
102
{ACAD_REACTORS
330
47
102
}
330
47
100
AcDbScale
 70
     0
300
1/64" = 1'-0"
140
0.015625
141
12.0
290
     0
  0
SCALE
  5
5B
102
{ACAD_REACTORS
330
47
102
}
330
47
100
AcDbScale
 70
     0
300
1/32" = 1'-0"
140
0.03125
141
12.0
290
     0
  0
SCALE
  5
5C
102
{ACAD_REACTORS
330
47
102
}
330
47
100
AcDbScale
 70
     0
300
1/16" = 1'-0"
140
0.0625
141
12.0
290
     0
  0
SCALE
  5
5D
102
{ACAD_REACTORS
330
47
102
}
330
47
100
AcDbScale
 70
     0
300
3/32" = 1'-0"
140
0.09375
141
12.0
290
     0
  0
SCALE
  5
5E
102
{ACAD_REACTORS
330
47
102
}
330
47
100
AcDbScale
 70
     0
300
1/8" = 1'-0"
140
0.125
141
12.0
290
     0
  0
SCALE
  5
5F
102
{ACAD_REACTORS
330
47
102
}
330
47
100
AcDbScale
 70
     0
300
3/16" = 1'-0"
140
0.1875
141
12.0
290
     0
  0
SCALE
  5
60
102
{ACAD_REACTORS
330
47
102
}
330
47
100
AcDbScale
 70
     0
300
1/4" = 1'-0"
140
0.25
141
12.0
290
     0
  0
SCALE
  5
61
102
{ACAD_REACTORS
330
47
102
}
330
47
100
AcDbScale
 70
     0
300
3/8" = 1'-0"
140
0.375
141
12.0
290
     0
  0
SCALE
  5
62
102
{ACAD_REACTORS
330
47
102
}
330
47
100
AcDbScale
 70
     0
300
1/2" = 1'-0"
140
0.5
141
12.0
290
     0
  0
SCALE
  5
63
102
{ACAD_REACTORS
330
47
102
}
330
47
100
AcDbScale
 70
     0
300
3/4" = 1'-0"
140
0.75
141
12.0
290
     0
  0
SCALE
  5
64
102
{ACAD_REACTORS
330
47
102
}
330
47
100
AcDbScale
 70
     0
300
1" = 1'-0"
140
1.0
141
12.0
290
     0
  0
SCALE
  5
65
102
{ACAD_REACTORS
330
47
102
}
330
47
100
AcDbScale
 70
     0
300
1-1/2" = 1'-0"
140
1.5
141
12.0
290
     0
  0
SCALE
  5
66
102
{ACAD_REACTORS
330
47
102
}
330
47
100
AcDbScale
 70
     0
300
3" = 1'-0"
140
3.0
141
12.0
290
     0
  0
SCALE
  5
67
102
{ACAD_REACTORS
330
47
102
}
330
47
100
AcDbScale
 70
     0
300
6" = 1'-0"
140
6.0
141
12.0
290
     0
  0
SCALE
  5
68
102
{ACAD_REACTORS
330
47
102
}
330
47
100
AcDbScale
 70
     0
300
1'-0" = 1'-0"
140
12.0
141
12.0
290
     0
  0
TABLESTYLE
  5
6A
102
{ACAD_REACTORS
330
69
102
}
102
{ACAD_XDICTIONARY
360
9A5
102
}
330
69
100
AcDbTableStyle
  3
Standard
 70
     0
 71
     0
 40
1.5
 41
1.5
280
     0
281
     0
  7
Standard
140
4.5
170
     2
 62
     0
 63
   257
283
     0
 90
        4
 91
        0
  1

274
    -2
284
     1
 64
     0
275
    -2
285
     1
 65
     0
276
    -2
286
     1
 66
     0
277
    -2
287
     1
 67
     0
278
    -2
288
     1
 68
     0
279
    -2
289
     1
 69
     0
  7
Standard
140
6.0
170
     5
 62
     0
 63
   257
283
     0
 90
        4
 91
        0
  1

274
    -2
284
     1
 64
     0
275
    -2
285
     1
 65
     0
276
    -2
286
     1
 66
     0
277
    -2
287
     1
 67
     0
278
    -2
288
     1
 68
     0
279
    -2
289
     1
 69
     0
  7
Standard
140
4.5
170
     5
 62
     0
 63
   257
283
     0
 90
        4
 91
        0
  1

274
    -2
284
     1
 64
     0
275
    -2
285
     1
 65
     0
276
    -2
286
     1
 66
     0
277
    -2
287
     1
 67
     0
278
    -2
288
     1
 68
     0
279
    -2
289
     1
 69
     0
  0
VISUALSTYLE
  5
2F
102
{ACAD_REACTORS
330
2A
102
}
330
2A
100
AcDbVisualStyle
  2
2dWireframe
 70
     4
177
     3
291
     0
 70
    58
 90
        0
176
     1
 90
        2
176
     1
 90
        0
176
     1
 90
        0
176
     1
 40
0.6
176
     1
 40
30.0
176
     1
 62
     7
176
     1
 90
        1
176
     1
 90
        4
176
     1
 62
     7
176
     1
 62
   257
176
     1
 90
        1
176
     1
 90
        1
176
     1
 40
1.0
176
     1
 90
        0
176
     1
 62
   257
176
     1
 40
1.0
176
     1
 90
        1
176
     1
 90
        6
176
     1
 90
        2
176
     1
 62
     7
176
     1
 90
        5
176
     1
 90
        0
176
     1
 90
        0
176
     1
290
     0
176
     1
 90
        1
176
     1
 40
0.0
176
     1
 90
        0
176
     1
290
     1
176
     1
290
     1
176
     1
290
     0
176
     1
290
     0
176
     1
290
     0
176
     1
290
     0
176
     1
290
     0
176
     1
290
     0
176
     1
290
     0
176
     1
 90
       50
176
     1
 40
0.0
176
     1
 40
1.0
176
     1
 90
        0
176
     1
 62
    18
420
        0
176
     1
 90
       50
176
     1
 90
        3
176
     1
 62
     5
420
      255
176
     1
290
     0
176
     1
 90
       50
176
     1
 90
       50
176
     1
 90
       50
176
     1
290
     0
176
     1
 90
       50
176
     1
 62
   256
176
     0
 40
1.0
176
     0
 90
        2
176
     1
  1
strokes_ogs.tif
176
     1
290
     0
176
     1
 40
1.0
176
     1
 40
1.0
176
     1
  0
VISUALSTYLE
  5
32
102
{ACAD_REACTORS
330
2A
102
}
330
2A
100
AcDbVisualStyle
  2
Basic
 70
     7
177
     3
291
     1
 70
    58
 90
        1
176
     1
 90
        0
176
     1
 90
        1
176
     1
 90
        0
176
     1
 40
0.6
176
     1
 40
30.0
176
     1
 62
     7
176
     1
 90
        0
176
     1
 90
        4
176
     1
 62
     7
176
     1
 62
   257
176
     1
 90
        1
176
     1
 90
        1
176
     1
 40
1.0
176
     1
 90
        8
176
     1
 62
     7
176
     1
 40
1.0
176
     1
 90
        1
176
     1
 90
        6
176
     1
 90
        2
176
     1
 62
     7
176
     1
 90
        5
176
     1
 90
        0
176
     1
 90
        0
176
     1
290
     0
176
     1
 90
        1
176
     1
 40
0.0
176
     1
 90
        0
176
     1
290
     0
176
     1
290
     1
176
     1
290
     1
176
     1
290
     0
176
     1
290
     0
176
     1
290
     0
176
     1
290
     0
176
     1
290
     0
176
     1
290
     0
176
     1
 90
       50
176
     1
 40
0.0
176
     1
 40
1.0
176
     1
 90
        0
176
     1
 62
    18
420
        0
176
     1
 90
       50
176
     1
 90
        3
176
     1
 62
     5
420
      255
176
     1
290
     0
176
     1
 90
       50
176
     1
 90
       50
176
     1
 90
       50
176
     1
290
     0
176
     1
 90
       50
176
     1
 62
   256
176
     0
 40
1.0
176
     0
 90
        2
176
     1
  1
strokes_ogs.tif
176
     1
290
     0
176
     1
 40
1.0
176
     1
 40
1.0
176
     1
  0
VISUALSTYLE
  5
36
102
{ACAD_REACTORS
330
2A
102
}
330
2A
100
AcDbVisualStyle
  2
Brighten
 70
    12
177
     3
291
     1
 70
    58
 90
        2
176
     1
 90
        2
176
     1
 90
        0
176
     1
 90
        0
176
     1
 40
0.6
176
     1
 40
30.0
176
     1
 62
     7
176
     1
 90
        1
176
     1
 90
        4
176
     1
 62
     7
176
     1
 62
   257
176
     1
 90
        1
176
     1
 90
        1
176
     1
 40
1.0
176
     1
 90
        8
176
     1
 62
     7
176
     1
 40
1.0
176
     1
 90
        1
176
     1
 90
        6
176
     1
 90
        2
176
     1
 62
     7
176
     1
 90
        5
176
     1
 90
        0
176
     1
 90
        0
176
     1
290
     0
176
     1
 90
        1
176
     1
 40
50.0
176
     1
 90
        0
176
     1
290
     0
176
     1
290
     1
176
     1
290
     1
176
     1
290
     0
176
     1
290
     0
176
     1
290
     0
176
     1
290
     0
176
     1
290
     0
176
     1
290
     0
176
     1
 90
       50
176
     1
 40
0.0
176
     1
 40
1.0
176
     1
 90
        0
176
     1
 62
    18
420
        0
176
     1
 90
       50
176
     1
 90
        3
176
     1
 62
     5
420
      255
176
     1
290
     0
176
     1
 90
       50
176
     1
 90
       50
176
     1
 90
       50
176
     1
290
     0
176
     1
 90
       50
176
     1
 62
   256
176
     0
 40
1.0
176
     0
 90
        2
176
     1
  1
strokes_ogs.tif
176
     1
290
     0
176
     1
 40
1.0
176
     1
 40
1.0
176
     1
  0
VISUALSTYLE
  5
3A
102
{ACAD_REACTORS
330
2A
102
}
330
2A
100
AcDbVisualStyle
  2
ColorChange
 70
    16
177
     3
291
     1
 70
    58
 90
        2
176
     1
 90
        2
176
     1
 90
        3
176
     1
 90
        0
176
     1
 40
0.6
176
     1
 40
30.0
176
     1
 62
     8
176
     1
 90
        1
176
     1
 90
        4
176
     1
 62
     7
176
     1
 62
   257
176
     1
 90
        1
176
     1
 90
        1
176
     1
 40
1.0
176
     1
 90
        8
176
     1
 62
     8
176
     1
 40
1.0
176
     1
 90
        1
176
     1
 90
        6
176
     1
 90
        2
176
     1
 62
     7
176
     1
 90
        5
176
     1
 90
        0
176
     1
 90
        0
176
     1
290
     0
176
     1
 90
        1
176
     1
 40
0.0
176
     1
 90
        0
176
     1
290
     0
176
     1
290
     1
176
     1
290
     1
176
     1
290
     0
176
     1
290
     0
176
     1
290
     0
176
     1
290
     0
176
     1
290
     0
176
     1
290
     0
176
     1
 90
       50
176
     1
 40
0.0
176
     1
 40
1.0
176
     1
 90
        0
176
     1
 62
    18
420
        0
176
     1
 90
       50
176
     1
 90
        3
176
     1
 62
     5
420
      255
176
     1
290
     0
176
     1
 90
       50
176
     1
 90
       50
176
     1
 90
       50
176
     1
290
     0
176
     1
 90
       50
176
     1
 62
   256
176
     0
 40
1.0
176
     0
 90
        2
176
     1
  1
strokes_ogs.tif
176
     1
290
     0
176
     1
 40
1.0
176
     1
 40
1.0
176
     1
  0
VISUALSTYLE
  5
34
102
{ACAD_REACTORS
330
2A
102
}
330
2A
100
AcDbVisualStyle
  2
Conceptual
 70
     9
177
     3
291
     0
 70
    58
 90
        3
176
     1
 90
        2
176
     1
 90
        0
176
     1
 90
        0
176
     1
 40
0.6
176
     1
 40
30.0
176
     1
 62
     7
176
     1
 90
        2
176
     1
 90
        2
176
     1
 62
     7
176
     1
 62
   257
176
     1
 90
        1
176
     1
 90
        1
176
     1
 40
179.0
176
     1
 90
        8
176
     1
 62
     7
176
     1
 40
1.0
176
     1
 90
        1
176
     1
 90
        6
176
     1
 90
        2
176
     1
 62
     7
176
     1
 90
        3
176
     1
 90
        0
176
     1
 90
        0
176
     1
290
     0
176
     1
 90
        1
176
     1
 40
0.0
176
     1
 90
        0
176
     1
290
     0
176
     1
290
     1
176
     1
290
     1
176
     1
290
     0
176
     1
290
     0
176
     1
290
     0
176
     1
290
     0
176
     1
290
     0
176
     1
290
     0
176
     1
 90
       50
176
     1
 40
0.0
176
     1
 40
1.0
176
     1
 90
        0
176
     1
 62
    18
420
        0
176
     1
 90
       50
176
     1
 90
        3
176
     1
 62
     5
420
      255
176
     1
290
     0
176
     1
 90
       50
176
     1
 90
       50
176
     1
 90
       50
176
     1
290
     0
176
     1
 90
       50
176
     1
 62
   256
176
     0
 40
1.0
176
     0
 90
        2
176
     1
  1
strokes_ogs.tif
176
     1
290
     0
176
     1
 40
1.0
176
     1
 40
1.0
176
     1
  0
VISUALSTYLE
  5
35
102
{ACAD_REACTORS
330
2A
102
}
330
2A
100
AcDbVisualStyle
  2
Dim
 70
    11
177
     3
291
     1
 70
    58
 90
        2
176
     1
 90
        2
176
     1
 90
        0
176
     1
 90
        0
176
     1
 40
0.6
176
     1
 40
30.0
176
     1
 62
     7
176
     1
 90
        1
176
     1
 90
        4
176
     1
 62
     7
176
     1
 62
   257
176
     1
 90
        1
176
     1
 90
        1
176
     1
 40
1.0
176
     1
 90
        8
176
     1
 62
     7
176
     1
 40
1.0
176
     1
 90
        1
176
     1
 90
        6
176
     1
 90
        2
176
     1
 62
     7
176
     1
 90
        5
176
     1
 90
        0
176
     1
 90
        0
176
     1
290
     0
176
     1
 90
        1
176
     1
 40
-50.0
176
     1
 90
        0
176
     1
290
     0
176
     1
290
     1
176
     1
290
     1
176
     1
290
     0
176
     1
290
     0
176
     1
290
     0
176
     1
290
     0
176
     1
290
     0
176
     1
290
     0
176
     1
 90
       50
176
     1
 40
0.0
176
     1
 40
1.0
176
     1
 90
        0
176
     1
 62
    18
420
        0
176
     1
 90
       50
176
     1
 90
        3
176
     1
 62
     5
420
      255
176
     1
290
     0
176
     1
 90
       50
176
     1
 90
       50
176
     1
 90
       50
176
     1
290
     0
176
     1
 90
       50
176
     1
 62
   256
176
     0
 40
1.0
176
     0
 90
        2
176
     1
  1
strokes_ogs.tif
176
     1
290
     0
176
     1
 40
1.0
176
     1
 40
1.0
176
     1
  0
VISUALSTYLE
  5
3D
102
{ACAD_REACTORS
330
2A
102
}
330
2A
100
AcDbVisualStyle
  2
EdgeColorOff
 70
    22
177
     3
291
     1
 70
    58
 90
        2
176
     0
 90
        2
176
     0
 90
        0
176
     0
 90
        0
176
     0
 40
0.6
176
     0
 40
30.0
176
     0
 62
     7
176
     0
 90
        1
176
     0
 90
        4
176
     0
 62
     7
176
     0
 62
   257
176
     0
 90
        1
176
     0
 90
        1
176
     0
 40
1.0
176
     0
 90
        8
176
     2
 62
     7
176
     0
 40
1.0
176
     0
 90
        1
176
     0
 90
        6
176
     0
 90
        2
176
     0
 62
     7
176
     0
 90
        5
176
     0
 90
        0
176
     0
 90
        0
176
     0
290
     0
176
     0
 90
        1
176
     0
 40
0.0
176
     0
 90
        0
176
     0
290
     0
176
     0
290
     1
176
     0
290
     1
176
     0
290
     0
176
     0
290
     0
176
     0
290
     0
176
     0
290
     0
176
     0
290
     0
176
     0
290
     0
176
     0
 90
       50
176
     0
 40
0.0
176
     0
 40
1.0
176
     0
 90
        0
176
     0
 62
    18
420
        0
176
     0
 90
       50
176
     0
 90
        3
176
     0
 62
     5
420
      255
176
     0
290
     0
176
     0
 90
       50
176
     0
 90
       50
176
     0
 90
       50
176
     0
290
     0
176
     0
 90
       50
176
     0
 62
   256
176
     0
 40
1.0
176
     0
 90
        2
176
     0
  1
strokes_ogs.tif
176
     0
290
     0
176
     0
 40
1.0
176
     0
 40
1.0
176
     0
  0
VISUALSTYLE
  5
39
102
{ACAD_REACTORS
330
2A
102
}
330
2A
100
AcDbVisualStyle
  2
Facepattern
 70
    15
177
     3
291
     1
 70
    58
 90
        2
176
     1
 90
        2
176
     1
 90
        0
176
     1
 90
        0
176
     1
 40
0.6
176
     1
 40
30.0
176
     1
 62
     7
176
     1
 90
        1
176
     1
 90
        4
176
     1
 62
     7
176
     1
 62
   257
176
     1
 90
        1
176
     1
 90
        1
176
     1
 40
1.0
176
     1
 90
        8
176
     1
 62
     7
176
     1
 40
1.0
176
     1
 90
        1
176
     1
 90
        6
176
     1
 90
        2
176
     1
 62
     7
176
     1
 90
        5
176
     1
 90
        0
176
     1
 90
        0
176
     1
290
     0
176
     1
 90
        1
176
     1
 40
0.0
176
     1
 90
        0
176
     1
290
     0
176
     1
290
     1
176
     1
290
     1
176
     1
290
     0
176
     1
290
     0
176
     1
290
     0
176
     1
290
     0
176
     1
290
     0
176
     1
290
     0
176
     1
 90
       50
176
     1
 40
0.0
176
     1
 40
1.0
176
     1
 90
        0
176
     1
 62
    18
420
        0
176
     1
 90
       50
176
     1
 90
        3
176
     1
 62
     5
420
      255
176
     1
290
     0
176
     1
 90
       50
176
     1
 90
       50
176
     1
 90
       50
176
     1
290
     0
176
     1
 90
       50
176
     1
 62
   256
176
     0
 40
1.0
176
     0
 90
        2
176
     1
  1
strokes_ogs.tif
176
     1
290
     0
176
     1
 40
1.0
176
     1
 40
1.0
176
     1
  0
VISUALSTYLE
  5
2B
102
{ACAD_REACTORS
330
2A
102
}
330
2A
100
AcDbVisualStyle
  2
Flat
 70
     0
177
     3
291
     1
 70
    58
 90
        2
176
     1
 90
        1
176
     1
 90
        1
176
     1
 90
        2
176
     1
 40
0.6
176
     1
 40
30.0
176
     1
 62
     7
176
     1
 90
        0
176
     1
 90
        0
176
     1
 62
     7
176
     1
 62
   257
176
     1
 90
        1
176
     1
 90
        1
176
     1
 40
1.0
176
     1
 90
        8
176
     1
 62
     7
176
     1
 40
1.0
176
     1
 90
        1
176
     1
 90
        6
176
     1
 90
        2
176
     1
 62
     7
176
     1
 90
        5
176
     1
 90
        0
176
     1
 90
        0
176
     1
290
     0
176
     1
 90
       13
176
     1
 40
0.0
176
     1
 90
        0
176
     1
290
     0
176
     1
290
     1
176
     1
290
     1
176
     1
290
     0
176
     1
290
     0
176
     1
290
     0
176
     1
290
     0
176
     1
290
     0
176
     1
290
     0
176
     1
 90
       50
176
     1
 40
0.0
176
     1
 40
1.0
176
     1
 90
        0
176
     1
 62
    18
420
        0
176
     1
 90
       50
176
     1
 90
        3
176
     1
 62
     5
420
      255
176
     1
290
     0
176
     1
 90
       50
176
     1
 90
       50
176
     1
 90
       50
176
     1
290
     0
176
     1
 90
       50
176
     1
 62
   256
176
     0
 40
1.0
176
     0
 90
        2
176
     1
  1
strokes_ogs.tif
176
     1
290
     0
176
     1
 40
1.0
176
     1
 40
1.0
176
     1
  0
VISUALSTYLE
  5
2C
102
{ACAD_REACTORS
330
2A
102
}
330
2A
100
AcDbVisualStyle
  2
FlatWithEdges
 70
     1
177
     3
291
     1
 70
    58
 90
        2
176
     1
 90
        1
176
     1
 90
        1
176
     1
 90
        2
176
     1
 40
0.6
176
     1
 40
30.0
176
     1
 62
     7
176
     1
 90
        1
176
     1
 90
        0
176
     1
 62
     7
176
     1
 62
   257
176
     1
 90
        1
176
     1
 90
        1
176
     1
 40
1.0
176
     1
 90
        0
176
     1
 62
   257
176
     1
 40
1.0
176
     1
 90
        1
176
     1
 90
        6
176
     1
 90
        2
176
     1
 62
     7
176
     1
 90
        5
176
     1
 90
        0
176
     1
 90
        0
176
     1
290
     0
176
     1
 90
       13
176
     1
 40
0.0
176
     1
 90
        0
176
     1
290
     0
176
     1
290
     1
176
     1
290
     1
176
     1
290
     0
176
     1
290
     0
176
     1
290
     0
176
     1
290
     0
176
     1
290
     0
176
     1
290
     0
176
     1
 90
       50
176
     1
 40
0.0
176
     1
 40
1.0
176
     1
 90
        0
176
     1
 62
    18
420
        0
176
     1
 90
       50
176
     1
 90
        3
176
     1
 62
     5
420
      255
176
     1
290
     0
176
     1
 90
       50
176
     1
 90
       50
176
     1
 90
       50
176
     1
290
     0
176
     1
 90
       50
176
     1
 62
   256
176
     0
 40
1.0
176
     0
 90
        2
176
     1
  1
strokes_ogs.tif
176
     1
290
     0
176
     1
 40
1.0
176
     1
 40
1.0
176
     1
  0
VISUALSTYLE
  5
2D
102
{ACAD_REACTORS
330
2A
102
}
330
2A
100
AcDbVisualStyle
  2
Gouraud
 70
     2
177
     3
291
     1
 70
    58
 90
        2
176
     1
 90
        2
176
     1
 90
        1
176
     1
 90
        2
176
     1
 40
0.6
176
     1
 40
30.0
176
     1
 62
     7
176
     1
 90
        0
176
     1
 90
        0
176
     1
 62
     7
176
     1
 62
   257
176
     1
 90
        1
176
     1
 90
        1
176
     1
 40
1.0
176
     1
 90
        0
176
     1
 62
     7
176
     1
 40
1.0
176
     1
 90
        1
176
     1
 90
        6
176
     1
 90
        2
176
     1
 62
     7
176
     1
 90
        5
176
     1
 90
        0
176
     1
 90
        0
176
     1
290
     0
176
     1
 90
       13
176
     1
 40
0.0
176
     1
 90
        0
176
     1
290
     0
176
     1
290
     1
176
     1
290
     1
176
     1
290
     0
176
     1
290
     0
176
     1
290
     0
176
     1
290
     0
176
     1
290
     0
176
     1
290
     0
176
     1
 90
       50
176
     1
 40
0.0
176
     1
 40
1.0
176
     1
 90
        0
176
     1
 62
    18
420
        0
176
     1
 90
       50
176
     1
 90
        3
176
     1
 62
     5
420
      255
176
     1
290
     0
176
     1
 90
       50
176
     1
 90
       50
176
     1
 90
       50
176
     1
290
     0
176
     1
 90
       50
176
     1
 62
   256
176
     0
 40
1.0
176
     0
 90
        2
176
     1
  1
strokes_ogs.tif
176
     1
290
     0
176
     1
 40
1.0
176
     1
 40
1.0
176
     1
  0
VISUALSTYLE
  5
2E
102
{ACAD_REACTORS
330
2A
102
}
330
2A
100
AcDbVisualStyle
  2
GouraudWithEdges
 70
     3
177
     3
291
     1
 70
    58
 90
        2
176
     1
 90
        2
176
     1
 90
        1
176
     1
 90
        2
176
     1
 40
0.6
176
     1
 40
30.0
176
     1
 62
     7
176
     1
 90
        1
176
     1
 90
        0
176
     1
 62
     7
176
     1
 62
   257
176
     1
 90
        1
176
     1
 90
        1
176
     1
 40
1.0
176
     1
 90
        0
176
     1
 62
   257
176
     1
 40
1.0
176
     1
 90
        1
176
     1
 90
        6
176
     1
 90
        2
176
     1
 62
     7
176
     1
 90
        5
176
     1
 90
        0
176
     1
 90
        0
176
     1
290
     0
176
     1
 90
       13
176
     1
 40
0.0
176
     1
 90
        0
176
     1
290
     0
176
     1
290
     1
176
     1
290
     1
176
     1
290
     0
176
     1
290
     0
176
     1
290
     0
176
     1
290
     0
176
     1
290
     0
176
     1
290
     0
176
     1
 90
       50
176
     1
 40
0.0
176
     1
 40
1.0
176
     1
 90
        0
176
     1
 62
    18
420
        0
176
     1
 90
       50
176
     1
 90
        3
176
     1
 62
     5
420
      255
176
     1
290
     0
176
     1
 90
       50
176
     1
 90
       50
176
     1
 90
       50
176
     1
290
     0
176
     1
 90
       50
176
     1
 62
   256
176
     0
 40
1.0
176
     0
 90
        2
176
     1
  1
strokes_ogs.tif
176
     1
290
     0
176
     1
 40
1.0
176
     1
 40
1.0
176
     1
  0
VISUALSTYLE
  5
31
102
{ACAD_REACTORS
330
2A
102
}
330
2A
100
AcDbVisualStyle
  2
Hidden
 70
     6
177
     3
291
     0
 70
    58
 90
        1
176
     1
 90
        2
176
     1
 90
        2
176
     1
 90
        0
176
     1
 40
0.6
176
     1
 40
30.0
176
     1
 62
     7
176
     1
 90
        2
176
     1
 90
        2
176
     1
 62
     7
176
     1
 62
   257
176
     1
 90
        2
176
     1
 90
        1
176
     1
 40
40.0
176
     1
 90
        0
176
     1
 62
   257
176
     1
 40
1.0
176
     1
 90
        1
176
     1
 90
        6
176
     1
 90
        2
176
     1
 62
     7
176
     1
 90
        3
176
     1
 90
        0
176
     1
 90
        0
176
     1
290
     0
176
     1
 90
        1
176
     1
 40
0.0
176
     1
 90
        0
176
     1
290
     0
176
     1
290
     1
176
     1
290
     1
176
     1
290
     0
176
     1
290
     0
176
     1
290
     0
176
     1
290
     0
176
     1
290
     0
176
     1
290
     0
176
     1
 90
       50
176
     1
 40
0.0
176
     1
 40
1.0
176
     1
 90
        0
176
     1
 62
    18
420
        0
176
     1
 90
       50
176
     1
 90
        3
176
     1
 62
     5
420
      255
176
     1
290
     0
176
     1
 90
       50
176
     1
 90
       50
176
     1
 90
       50
176
     1
290
     0
176
     1
 90
       50
176
     1
 62
   256
176
     0
 40
1.0
176
     0
 90
        2
176
     1
  1
strokes_ogs.tif
176
     1
290
     0
176
     1
 40
1.0
176
     1
 40
1.0
176
     1
  0
VISUALSTYLE
  5
3B
102
{ACAD_REACTORS
330
2A
102
}
330
2A
100
AcDbVisualStyle
  2
JitterOff
 70
    20
177
     3
291
     1
 70
    58
 90
        2
176
     0
 90
        2
176
     0
 90
        0
176
     0
 90
        0
176
     0
 40
0.6
176
     0
 40
30.0
176
     0
 62
     7
176
     0
 90
        1
176
     0
 90
        4
176
     0
 62
     7
176
     0
 62
   257
176
     0
 90
        1
176
     0
 90
        1
176
     0
 40
1.0
176
     0
 90
       10
176
     2
 62
     7
176
     0
 40
1.0
176
     0
 90
        1
176
     0
 90
        6
176
     0
 90
        2
176
     0
 62
     7
176
     0
 90
        5
176
     0
 90
        0
176
     0
 90
        0
176
     0
290
     0
176
     0
 90
        1
176
     0
 40
0.0
176
     0
 90
        0
176
     0
290
     0
176
     0
290
     1
176
     0
290
     1
176
     0
290
     0
176
     0
290
     0
176
     0
290
     0
176
     0
290
     0
176
     0
290
     0
176
     0
290
     0
176
     0
 90
       50
176
     0
 40
0.0
176
     0
 40
1.0
176
     0
 90
        0
176
     0
 62
    18
420
        0
176
     0
 90
       50
176
     0
 90
        3
176
     0
 62
     5
420
      255
176
     0
290
     0
176
     0
 90
       50
176
     0
 90
       50
176
     0
 90
       50
176
     0
290
     0
176
     0
 90
       50
176
     0
 62
   256
176
     0
 40
1.0
176
     0
 90
        2
176
     0
  1
strokes_ogs.tif
176
     0
290
     0
176
     0
 40
1.0
176
     0
 40
1.0
176
     0
  0
VISUALSTYLE
  5
38
102
{ACAD_REACTORS
330
2A
102
}
330
2A
100
AcDbVisualStyle
  2
Linepattern
 70
    14
177
     3
291
     1
 70
    58
 90
        2
176
     1
 90
        2
176
     1
 90
        0
176
     1
 90
        0
176
     1
 40
0.6
176
     1
 40
30.0
176
     1
 62
     7
176
     1
 90
        1
176
     1
 90
        4
176
     1
 62
     7
176
     1
 62
   257
176
     1
 90
        7
176
     1
 90
        7
176
     1
 40
1.0
176
     1
 90
        8
176
     1
 62
     7
176
     1
 40
1.0
176
     1
 90
        1
176
     1
 90
        6
176
     1
 90
        2
176
     1
 62
     7
176
     1
 90
        5
176
     1
 90
        0
176
     1
 90
        0
176
     1
290
     0
176
     1
 90
        1
176
     1
 40
0.0
176
     1
 90
        0
176
     1
290
     0
176
     1
290
     1
176
     1
290
     1
176
     1
290
     0
176
     1
290
     0
176
     1
290
     0
176
     1
290
     0
176
     1
290
     0
176
     1
290
     0
176
     1
 90
       50
176
     1
 40
0.0
176
     1
 40
1.0
176
     1
 90
        0
176
     1
 62
    18
420
        0
176
     1
 90
       50
176
     1
 90
        3
176
     1
 62
     5
420
      255
176
     1
290
     0
176
     1
 90
       50
176
     1
 90
       50
176
     1
 90
       50
176
     1
290
     0
176
     1
 90
       50
176
     1
 62
   256
176
     0
 40
1.0
176
     0
 90
        2
176
     1
  1
strokes_ogs.tif
176
     1
290
     0
176
     1
 40
1.0
176
     1
 40
1.0
176
     1
  0
VISUALSTYLE
  5
3C
102
{ACAD_REACTORS
330
2A
102
}
330
2A
100
AcDbVisualStyle
  2
OverhangOff
 70
    21
177
     3
291
     1
 70
    58
 90
        2
176
     0
 90
        2
176
     0
 90
        0
176
     0
 90
        0
176
     0
 40
0.6
176
     0
 40
30.0
176
     0
 62
     7
176
     0
 90
        1
176
     0
 90
        4
176
     0
 62
     7
176
     0
 62
   257
176
     0
 90
        1
176
     0
 90
        1
176
     0
 40
1.0
176
     0
 90
        9
176
     2
 62
     7
176
     0
 40
1.0
176
     0
 90
        1
176
     0
 90
        6
176
     0
 90
        2
176
     0
 62
     7
176
     0
 90
        5
176
     0
 90
        0
176
     0
 90
        0
176
     0
290
     0
176
     0
 90
        1
176
     0
 40
0.0
176
     0
 90
        0
176
     0
290
     0
176
     0
290
     1
176
     0
290
     1
176
     0
290
     0
176
     0
290
     0
176
     0
290
     0
176
     0
290
     0
176
     0
290
     0
176
     0
290
     0
176
     0
 90
       50
176
     0
 40
0.0
176
     0
 40
1.0
176
     0
 90
        0
176
     0
 62
    18
420
        0
176
     0
 90
       50
176
     0
 90
        3
176
     0
 62
     5
420
      255
176
     0
290
     0
176
     0
 90
       50
176
     0
 90
       50
176
     0
 90
       50
176
     0
290
     0
176
     0
 90
       50
176
     0
 62
   256
176
     0
 40
1.0
176
     0
 90
        2
176
     0
  1
strokes_ogs.tif
176
     0
290
     0
176
     0
 40
1.0
176
     0
 40
1.0
176
     0
  0
VISUALSTYLE
  5
33
102
{ACAD_REACTORS
330
2A
102
}
330
2A
100
AcDbVisualStyle
  2
Realistic
 70
     8
177
     3
291
     0
 70
    58
 90
        2
176
     1
 90
        3
176
     1
 90
        0
176
     1
 90
        2
176
     1
 40
0.6
176
     1
 40
30.0
176
     1
 62
     7
176
     1
 90
        0
176
     1
 90
        0
176
     1
 62
     7
176
     1
 62
   257
176
     1
 90
        1
176
     1
 90
        1
176
     1
 40
1.0
176
     1
 90
        8
176
     1
 62
   257
176
     1
 40
1.0
176
     1
 90
        1
176
     1
 90
        6
176
     1
 90
        2
176
     1
 62
     7
176
     1
 90
        3
176
     1
 90
        0
176
     1
 90
        0
176
     1
290
     0
176
     1
 90
       13
176
     1
 40
0.0
176
     1
 90
        0
176
     1
290
     0
176
     1
290
     1
176
     1
290
     1
176
     1
290
     0
176
     1
290
     0
176
     1
290
     0
176
     1
290
     0
176
     1
290
     0
176
     1
290
     0
176
     1
 90
       50
176
     1
 40
0.0
176
     1
 40
1.0
176
     1
 90
        0
176
     1
 62
    18
420
        0
176
     1
 90
       50
176
     1
 90
        3
176
     1
 62
     5
420
      255
176
     1
290
     0
176
     1
 90
       50
176
     1
 90
       50
176
     1
 90
       50
176
     1
290
     0
176
     1
 90
       50
176
     1
 62
   256
176
     0
 40
1.0
176
     0
 90
        2
176
     1
  1
strokes_ogs.tif
176
     1
290
     0
176
     1
 40
1.0
176
     1
 40
1.0
176
     1
  0
VISUALSTYLE
  5
42
102
{ACAD_REACTORS
330
2A
102
}
330
2A
100
AcDbVisualStyle
  2
Shaded
 70
    27
177
     3
291
     0
 70
    58
 90
        2
176
     1
 90
        2
176
     1
 90
        1
176
     1
 90
        2
176
     1
 40
0.6
176
     1
 40
30.0
176
     1
 62
     7
176
     1
 90
        0
176
     1
 90
        4
176
     1
 62
     7
176
     1
 62
   257
176
     1
 90
        1
176
     1
 90
        1
176
     1
 40
1.0
176
     1
 90
        8
176
     1
 62
   257
176
     1
 40
1.0
176
     1
 90
        1
176
     1
 90
        6
176
     1
 90
        2
176
     1
 62
     8
176
     1
 90
        3
176
     1
 90
        0
176
     1
 90
        0
176
     1
290
     0
176
     1
 90
        5
176
     1
 40
0.0
176
     1
 90
        0
176
     1
290
     0
176
     1
290
     1
176
     1
290
     1
176
     1
290
     0
176
     1
290
     0
176
     1
290
     0
176
     1
290
     0
176
     1
290
     0
176
     1
290
     0
176
     1
 90
       50
176
     1
 40
0.0
176
     1
 40
1.0
176
     1
 90
        0
176
     1
 62
    18
420
        0
176
     1
 90
       50
176
     1
 90
        3
176
     1
 62
     5
420
      255
176
     1
290
     0
176
     1
 90
       50
176
     1
 90
       50
176
     1
 90
       50
176
     1
290
     0
176
     1
 90
       50
176
     1
 62
   256
176
     0
 40
1.0
176
     0
 90
        2
176
     1
  1
strokes_ogs.tif
176
     1
290
     0
176
     1
 40
1.0
176
     1
 40
1.0
176
     1
  0
VISUALSTYLE
  5
41
102
{ACAD_REACTORS
330
2A
102
}
330
2A
100
AcDbVisualStyle
  2
Shaded with edges
 70
    26
177
     3
291
     0
 70
    58
 90
        2
176
     1
 90
        2
176
     1
 90
        1
176
     1
 90
        2
176
     1
 40
0.6
176
     1
 40
30.0
176
     1
 62
     7
176
     1
 90
        1
176
     1
 90
       10
176
     1
 62
     7
176
     1
 62
   257
176
     1
 90
        2
176
     1
 90
        1
176
     1
 40
1.0
176
     1
 90
        8
176
     1
 62
   257
176
     1
 40
1.0
176
     1
 90
        1
176
     1
 90
        6
176
     1
 90
        2
176
     1
 62
     7
176
     1
 90
        3
176
     1
 90
        0
176
     1
 90
        0
176
     1
290
     0
176
     1
 90
        5
176
     1
 40
0.0
176
     1
 90
        0
176
     1
290
     0
176
     1
290
     1
176
     1
290
     1
176
     1
290
     0
176
     1
290
     0
176
     1
290
     0
176
     1
290
     0
176
     1
290
     0
176
     1
290
     0
176
     1
 90
       50
176
     1
 40
0.0
176
     1
 40
1.0
176
     1
 90
        0
176
     1
 62
    18
420
        0
176
     1
 90
       50
176
     1
 90
        3
176
     1
 62
     5
420
      255
176
     1
290
     0
176
     1
 90
       50
176
     1
 90
       50
176
     1
 90
       50
176
     1
290
     0
176
     1
 90
       50
176
     1
 62
   256
176
     0
 40
1.0
176
     0
 90
        2
176
     1
  1
strokes_ogs.tif
176
     1
290
     0
176
     1
 40
1.0
176
     1
 40
1.0
176
     1
  0
VISUALSTYLE
  5
3E
102
{ACAD_REACTORS
330
2A
102
}
330
2A
100
AcDbVisualStyle
  2
Shades of Gray
 70
    23
177
     3
291
     0
 70
    58
 90
        2
176
     1
 90
        2
176
     1
 90
        3
176
     1
 90
        0
176
     1
 40
0.6
176
     1
 40
30.0
176
     1
 62
     7
176
     1
 90
        2
176
     1
 90
        2
176
     1
 62
     7
176
     1
 62
     7
176
     1
 90
        1
176
     1
 90
        1
176
     1
 40
40.0
176
     1
 90
        8
176
     1
 62
     7
176
     1
 40
1.0
176
     1
 90
        1
176
     1
 90
        6
176
     1
 90
        2
176
     1
 62
     7
176
     1
 90
        3
176
     1
 90
        0
176
     1
 90
        0
176
     1
290
     0
176
     1
 90
        1
176
     1
 40
0.0
176
     1
 90
        0
176
     1
290
     0
176
     1
290
     1
176
     1
290
     1
176
     1
290
     0
176
     1
290
     0
176
     1
290
     0
176
     1
290
     0
176
     1
290
     0
176
     1
290
     0
176
     1
 90
       50
176
     1
 40
0.0
176
     1
 40
1.0
176
     1
 90
        0
176
     1
 62
    18
420
        0
176
     1
 90
       50
176
     1
 90
        3
176
     1
 62
     5
420
      255
176
     1
290
     0
176
     1
 90
       50
176
     1
 90
       50
176
     1
 90
       50
176
     1
290
     0
176
     1
 90
       50
176
     1
 62
   256
176
     0
 40
1.0
176
     0
 90
        2
176
     1
  1
strokes_ogs.tif
176
     1
290
     0
176
     1
 40
1.0
176
     1
 40
1.0
176
     1
  0
VISUALSTYLE
  5
3F
102
{ACAD_REACTORS
330
2A
102
}
330
2A
100
AcDbVisualStyle
  2
Sketchy
 70
    24
177
     3
291
     0
 70
    58
 90
        1
176
     1
 90
        2
176
     1
 90
        2
176
     1
 90
        0
176
     1
 40
0.6
176
     1
 40
30.0
176
     1
 62
     7
176
     1
 90
        2
176
     1
 90
        2
176
     1
 62
     7
176
     1
 62
     7
176
     1
 90
        1
176
     1
 90
        1
176
     1
 40
40.0
176
     1
 90
       11
176
     1
 62
     7
176
     1
 40
1.0
176
     1
 90
        1
176
     1
 90
        6
176
     1
 90
        2
176
     1
 62
     7
176
     1
 90
        6
176
     1
 90
        0
176
     1
 90
        0
176
     1
290
     0
176
     1
 90
        1
176
     1
 40
0.0
176
     1
 90
        0
176
     1
290
     0
176
     1
290
     1
176
     1
290
     1
176
     1
290
     0
176
     1
290
     0
176
     1
290
     0
176
     1
290
     0
176
     1
290
     0
176
     1
290
     0
176
     1
 90
       50
176
     1
 40
0.0
176
     1
 40
1.0
176
     1
 90
        0
176
     1
 62
    18
420
        0
176
     1
 90
       50
176
     1
 90
        3
176
     1
 62
     5
420
      255
176
     1
290
     0
176
     1
 90
       50
176
     1
 90
       50
176
     1
 90
       50
176
     1
290
     0
176
     1
 90
       50
176
     1
 62
   256
176
     0
 40
1.0
176
     0
 90
        2
176
     1
  1
strokes_ogs.tif
176
     1
290
     0
176
     1
 40
1.0
176
     1
 40
1.0
176
     1
  0
VISUALSTYLE
  5
37
102
{ACAD_REACTORS
330
2A
102
}
330
2A
100
AcDbVisualStyle
  2
Thicken
 70
    13
177
     3
291
     1
 70
    58
 90
        2
176
     1
 90
        2
176
     1
 90
        0
176
     1
 90
        0
176
     1
 40
0.6
176
     1
 40
30.0
176
     1
 62
     7
176
     1
 90
        1
176
     1
 90
        4
176
     1
 62
     7
176
     1
 62
   257
176
     1
 90
        1
176
     1
 90
        1
176
     1
 40
1.0
176
     1
 90
       12
176
     1
 62
     7
176
     1
 40
1.0
176
     1
 90
        1
176
     1
 90
        6
176
     1
 90
        2
176
     1
 62
     7
176
     1
 90
        5
176
     1
 90
        0
176
     1
 90
        0
176
     1
290
     0
176
     1
 90
        1
176
     1
 40
0.0
176
     1
 90
        0
176
     1
290
     0
176
     1
290
     1
176
     1
290
     1
176
     1
290
     0
176
     1
290
     0
176
     1
290
     0
176
     1
290
     0
176
     1
290
     0
176
     1
290
     0
176
     1
 90
       50
176
     1
 40
0.0
176
     1
 40
1.0
176
     1
 90
        0
176
     1
 62
    18
420
        0
176
     1
 90
       50
176
     1
 90
        3
176
     1
 62
     5
420
      255
176
     1
290
     0
176
     1
 90
       50
176
     1
 90
       50
176
     1
 90
       50
176
     1
290
     0
176
     1
 90
       50
176
     1
 62
   256
176
     0
 40
1.0
176
     0
 90
        2
176
     1
  1
strokes_ogs.tif
176
     1
290
     0
176
     1
 40
1.0
176
     1
 40
1.0
176
     1
  0
VISUALSTYLE
  5
30
102
{ACAD_REACTORS
330
2A
102
}
330
2A
100
AcDbVisualStyle
  2
Wireframe
 70
     5
177
     3
291
     0
 70
    58
 90
        0
176
     1
 90
        2
176
     1
 90
        0
176
     1
 90
        0
176
     1
 40
0.6
176
     1
 40
30.0
176
     1
 62
     7
176
     1
 90
        1
176
     1
 90
        4
176
     1
 62
     7
176
     1
 62
   257
176
     1
 90
        1
176
     1
 90
        1
176
     1
 40
1.0
176
     1
 90
        0
176
     1
 62
   257
176
     1
 40
1.0
176
     1
 90
        1
176
     1
 90
        6
176
     1
 90
        2
176
     1
 62
     7
176
     1
 90
        3
176
     1
 90
        0
176
     1
 90
        0
176
     1
290
     0
176
     1
 90
        1
176
     1
 40
0.0
176
     1
 90
        0
176
     1
290
     0
176
     1
290
     1
176
     1
290
     1
176
     1
290
     0
176
     1
290
     0
176
     1
290
     0
176
     1
290
     0
176
     1
290
     0
176
     1
290
     0
176
     1
 90
       50
176
     1
 40
0.0
176
     1
 40
1.0
176
     1
 90
        0
176
     1
 62
    18
420
        0
176
     1
 90
       50
176
     1
 90
        3
176
     1
 62
     5
420
      255
176
     1
290
     0
176
     1
 90
       50
176
     1
 90
       50
176
     1
 90
       50
176
     1
290
     0
176
     1
 90
       50
176
     1
 62
   256
176
     0
 40
1.0
176
     0
 90
        2
176
     1
  1
strokes_ogs.tif
176
     1
290
     0
176
     1
 40
1.0
176
     1
 40
1.0
176
     1
  0
VISUALSTYLE
  5
40
102
{ACAD_REACTORS
330
2A
102
}
330
2A
100
AcDbVisualStyle
  2
X-Ray
 70
    25
177
     3
291
     0
 70
    58
 90
        2
176
     1
 90
        2
176
     1
 90
        1
176
     1
 90
        1
176
     1
 40
0.5
176
     1
 40
30.0
176
     1
 62
     7
176
     1
 90
        1
176
     1
 90
        0
176
     1
 62
     7
176
     1
 62
   257
176
     1
 90
        1
176
     1
 90
        1
176
     1
 40
1.0
176
     1
 90
        8
176
     1
 62
     7
176
     1
 40
1.0
176
     1
 90
        1
176
     1
 90
        6
176
     1
 90
        2
176
     1
 62
     7
176
     1
 90
        3
176
     1
 90
        0
176
     1
 90
        0
176
     1
290
     0
176
     1
 90
       13
176
     1
 40
0.0
176
     1
 90
        0
176
     1
290
     0
176
     1
290
     1
176
     1
290
     1
176
     1
290
     0
176
     1
290
     0
176
     1
290
     0
176
     1
290
     0
176
     1
290
     0
176
     1
290
     0
176
     1
 90
       50
176
     1
 40
0.0
176
     1
 40
1.0
176
     1
 90
        0
176
     1
 62
    18
420
        0
176
     1
 90
       50
176
     1
 90
        3
176
     1
 62
     5
420
      255
176
     1
290
     0
176
     1
 90
       50
176
     1
 90
       50
176
     1
 90
       50
176
     1
290
     0
176
     1
 90
       50
176
     1
 62
   256
176
     0
 40
1.0
176
     0
 90
        2
176
     1
  1
strokes_ogs.tif
176
     1
290
     0
176
     1
 40
1.0
176
     1
 40
1.0
176
     1
  0
DICTIONARYVAR
  5
8CA
102
{ACAD_REACTORS
330
557
102
}
330
557
100
DictionaryVariables
280
     0
  1
1:1
  0
DICTIONARYVAR
  5
559
102
{ACAD_REACTORS
330
557
102
}
330
557
100
DictionaryVariables
280
     0
  1
Standard
  0
DICTIONARYVAR
  5
558
102
{ACAD_REACTORS
330
557
102
}
330
557
100
DictionaryVariables
280
     0
  1
Standard
  0
DICTIONARYVAR
  5
55E
102
{ACAD_REACTORS
330
557
102
}
330
557
100
DictionaryVariables
280
     0
  1
2
  0
DICTIONARYVAR
  5
55F
102
{ACAD_REACTORS
330
557
102
}
330
557
100
DictionaryVariables
280
     0
  1
1
  0
DICTIONARYVAR
  5
563
102
{ACAD_REACTORS
330
557
102
}
330
557
100
DictionaryVariables
280
     0
  1
1
  0
DICTIONARY
  5
9A5
330
6A
100
AcDbDictionary
280
     1
281
     1
  3
ACAD_ROUNDTRIP_2008_TABLESTYLE_CELLSTYLEMAP
360
9A6
  0
CELLSTYLEMAP
  5
9A6
102
{ACAD_REACTORS
330
9A5
102
}
330
9A5
100
AcDbCellStyleMap
 90
        3
300
CELLSTYLE
  1
TABLEFORMAT_BEGIN
 90
        5
170
     1
 91
        0
 92
    32768
 62
   257
 93
        1
300
CONTENTFORMAT
  1
CONTENTFORMAT_BEGIN
 90
        0
 91
        0
 92
        4
 93
        0
300

 40
0.0
140
1.0
 94
        5
 62
     0
340
11
144
6.0
309
CONTENTFORMAT_END
171
     1
301
MARGIN
  1
CELLMARGIN_BEGIN
 40
1.5
 40
1.5
 40
1.5
 40
1.5
 40
0.18
 40
0.18
309
CELLMARGIN_END
 94
        6
 95
        1
302
GRIDFORMAT
  1
GRIDFORMAT_BEGIN
 90
        0
 91
        1
 62
     0
 92
       -2
340
0
 93
        0
 40
0.045
309
GRIDFORMAT_END
 95
        2
302
GRIDFORMAT
  1
GRIDFORMAT_BEGIN
 90
        0
 91
        1
 62
     0
 92
       -2
340
0
 93
        0
 40
0.045
309
GRIDFORMAT_END
 95
        4
302
GRIDFORMAT
  1
GRIDFORMAT_BEGIN
 90
        0
 91
        1
 62
     0
 92
       -2
340
0
 93
        0
 40
0.045
309
GRIDFORMAT_END
 95
        8
302
GRIDFORMAT
  1
GRIDFORMAT_BEGIN
 90
        0
 91
        1
 62
     0
 92
       -2
340
0
 93
        0
 40
0.045
309
GRIDFORMAT_END
 95
       16
302
GRIDFORMAT
  1
GRIDFORMAT_BEGIN
 90
        0
 91
        1
 62
     0
 92
       -2
340
0
 93
        0
 40
0.045
309
GRIDFORMAT_END
 95
       32
302
GRIDFORMAT
  1
GRIDFORMAT_BEGIN
 90
        0
 91
        1
 62
     0
 92
       -2
340
0
 93
        0
 40
0.045
309
GRIDFORMAT_END
309
TABLEFORMAT_END
  1
CELLSTYLE_BEGIN
 90
        1
 91
        1
300
_TITLE
309
CELLSTYLE_END
300
CELLSTYLE
  1
TABLEFORMAT_BEGIN
 90
        5
170
     1
 91
        0
 92
        0
 62
   257
 93
        1
300
CONTENTFORMAT
  1
CONTENTFORMAT_BEGIN
 90
        0
 91
        0
 92
        4
 93
        0
300

 40
0.0
140
1.0
 94
        5
 62
     0
340
11
144
4.5
309
CONTENTFORMAT_END
171
     1
301
MARGIN
  1
CELLMARGIN_BEGIN
 40
1.5
 40
1.5
 40
1.5
 40
1.5
 40
0.18
 40
0.18
309
CELLMARGIN_END
 94
        6
 95
        1
302
GRIDFORMAT
  1
GRIDFORMAT_BEGIN
 90
        0
 91
        1
 62
     0
 92
       -2
340
0
 93
        0
 40
0.045
309
GRIDFORMAT_END
 95
        2
302
GRIDFORMAT
  1
GRIDFORMAT_BEGIN
 90
        0
 91
        1
 62
     0
 92
       -2
340
0
 93
        0
 40
0.045
309
GRIDFORMAT_END
 95
        4
302
GRIDFORMAT
  1
GRIDFORMAT_BEGIN
 90
        0
 91
        1
 62
     0
 92
       -2
340
0
 93
        0
 40
0.045
309
GRIDFORMAT_END
 95
        8
302
GRIDFORMAT
  1
GRIDFORMAT_BEGIN
 90
        0
 91
        1
 62
     0
 92
       -2
340
0
 93
        0
 40
0.045
309
GRIDFORMAT_END
 95
       16
302
GRIDFORMAT
  1
GRIDFORMAT_BEGIN
 90
        0
 91
        1
 62
     0
 92
       -2
340
0
 93
        0
 40
0.045
309
GRIDFORMAT_END
 95
       32
302
GRIDFORMAT
  1
GRIDFORMAT_BEGIN
 90
        0
 91
        1
 62
     0
 92
       -2
340
0
 93
        0
 40
0.045
309
GRIDFORMAT_END
309
TABLEFORMAT_END
  1
CELLSTYLE_BEGIN
 90
        2
 91
        1
300
_HEADER
309
CELLSTYLE_END
300
CELLSTYLE
  1
TABLEFORMAT_BEGIN
 90
        5
170
     1
 91
        0
 92
        0
 62
   257
 93
        1
300
CONTENTFORMAT
  1
CONTENTFORMAT_BEGIN
 90
        0
 91
        0
 92
        4
 93
        0
300

 40
0.0
140
1.0
 94
        2
 62
     0
340
11
144
4.5
309
CONTENTFORMAT_END
171
     1
301
MARGIN
  1
CELLMARGIN_BEGIN
 40
1.5
 40
1.5
 40
1.5
 40
1.5
 40
0.18
 40
0.18
309
CELLMARGIN_END
 94
        6
 95
        1
302
GRIDFORMAT
  1
GRIDFORMAT_BEGIN
 90
        0
 91
        1
 62
     0
 92
       -2
340
0
 93
        0
 40
0.045
309
GRIDFORMAT_END
 95
        2
302
GRIDFORMAT
  1
GRIDFORMAT_BEGIN
 90
        0
 91
        1
 62
     0
 92
       -2
340
0
 93
        0
 40
0.045
309
GRIDFORMAT_END
 95
        4
302
GRIDFORMAT
  1
GRIDFORMAT_BEGIN
 90
        0
 91
        1
 62
     0
 92
       -2
340
0
 93
        0
 40
0.045
309
GRIDFORMAT_END
 95
        8
302
GRIDFORMAT
  1
GRIDFORMAT_BEGIN
 90
        0
 91
        1
 62
     0
 92
       -2
340
0
 93
        0
 40
0.045
309
GRIDFORMAT_END
 95
       16
302
GRIDFORMAT
  1
GRIDFORMAT_BEGIN
 90
        0
 91
        1
 62
     0
 92
       -2
340
0
 93
        0
 40
0.045
309
GRIDFORMAT_END
 95
       32
302
GRIDFORMAT
  1
GRIDFORMAT_BEGIN
 90
        0
 91
        1
 62
     0
 92
       -2
340
0
 93
        0
 40
0.045
309
GRIDFORMAT_END
309
TABLEFORMAT_END
  1
CELLSTYLE_BEGIN
 90
        3
 91
        2
300
_DATA
309
CELLSTYLE_END
  0
ENDSEC
  0
EOF
