  0
SECTION
  2
HEADER
  9
$ACADVER
  1
AC1015
  9
$ACADMAINTVER
 70
    20
  9
$DWGCODEPAGE
  3
ANSI_932
  9
$INSBASE
 10
0.0
 20
0.0
 30
0.0
  9
$EXTMIN
 10
-361.262685
 20
101.2088524567516
 30
0.0
  9
$EXTMAX
 10
-142.866375
 20
259.4309883958916
 30
0.0
  9
$LIMMIN
 10
20.349817
 20
3.796451999999998
  9
$LIMMAX
 10
424.3498169999998
 20
284.796452
  9
$ORTHOMODE
 70
     0
  9
$REGENMODE
 70
     1
  9
$FILLMODE
 70
     1
  9
$QTEXTMODE
 70
     0
  9
$MIRRTEXT
 70
     1
  9
$LTSCALE
 40
1.0
  9
$ATTMODE
 70
     1
  9
$TEXTSIZE
 40
3.2
  9
$TRACEWID
 40
0.05
  9
$TEXTSTYLE
  7
MX_NOTE_STANDARD
  9
$CLAYER
  8
0
  9
$CELTYPE
  6
CONTINUOUS
  9
$CECOLOR
 62
   256
  9
$CELTSCALE
 40
1.0
  9
$DISPSILH
 70
     0
  9
$DIMSCALE
 40
1.0
  9
$DIMASZ
 40
2.5
  9
$DIMEXO
 40
1.0
  9
$DIMDLI
 40
3.75
  9
$DIMRND
 40
0.0
  9
$DIMDLE
 40
0.0
  9
$DIMEXE
 40
2.286
  9
$DIMTP
 40
0.0
  9
$DIMTM
 40
0.0
  9
$DIMTXT
 40
3.2
  9
$DIMCEN
 40
2.5
  9
$DIMTSZ
 40
0.0
  9
$DIMTOL
 70
     0
  9
$DIMLIM
 70
     0
  9
$DIMTIH
 70
     0
  9
$DIMTOH
 70
     0
  9
$DIMSE1
 70
     0
  9
$DIMSE2
 70
     0
  9
$DIMTAD
 70
     1
  9
$DIMZIN
 70
     8
  9
$DIMBLK
  1

  9
$DIMASO
 70
     1
  9
$DIMSHO
 70
     1
  9
$DIMPOST
  1

  9
$DIMAPOST
  1

  9
$DIMALT
 70
     0
  9
$DIMALTD
 70
     4
  9
$DIMALTF
 40
0.03937
  9
$DIMLFAC
 40
1.0
  9
$DIMTOFL
 70
     1
  9
$DIMTVP
 40
0.0
  9
$DIMTIX
 70
     0
  9
$DIMSOXD
 70
     0
  9
$DIMSAH
 70
     0
  9
$DIMBLK1
  1

  9
$DIMBLK2
  1

  9
$DIMSTYLE
  2
MXDIMSTYLE
  9
$DIMCLRD
 70
     0
  9
$DIMCLRE
 70
     0
  9
$DIMCLRT
 70
     0
  9
$DIMTFAC
 40
1.0
  9
$DIMGAP
 40
1.0
  9
$DIMJUST
 70
     0
  9
$DIMSD1
 70
     0
  9
$DIMSD2
 70
     0
  9
$DIMTOLJ
 70
     1
  9
$DIMTZIN
 70
     0
  9
$DIMALTZ
 70
     0
  9
$DIMALTTZ
 70
     0
  9
$DIMUPT
 70
     1
  9
$DIMDEC
 70
     4
  9
$DIMTDEC
 70
     4
  9
$DIMALTU
 70
     2
  9
$DIMALTTD
 70
     4
  9
$DIMTXSTY
  7
MX_NOTE_STANDARD
  9
$DIMAUNIT
 70
     0
  9
$DIMADEC
 70
     0
  9
$DIMALTRND
 40
0.0
  9
$DIMAZIN
 70
     0
  9
$DIMDSEP
 70
     0
  9
$DIMATFIT
 70
     3
  9
$DIMFRAC
 70
     0
  9
$DIMLDRBLK
  1

  9
$DIMLUNIT
 70
     2
  9
$DIMLWD
 70
     0
  9
$DIMLWE
 70
     0
  9
$DIMTMOVE
 70
     0
  9
$LUNITS
 70
     2
  9
$LUPREC
 70
     2
  9
$SKETCHINC
 40
0.1
  9
$FILLETRAD
 40
0.0
  9
$AUNITS
 70
     0
  9
$AUPREC
 70
     0
  9
$MENU
  1
acad
  9
$ELEVATION
 40
0.0
  9
$PELEVATION
 40
0.0
  9
$THICKNESS
 40
0.0
  9
$LIMCHECK
 70
     0
  9
$CHAMFERA
 40
0.0
  9
$CHAMFERB
 40
0.0
  9
$CHAMFERC
 40
0.0
  9
$CHAMFERD
 40
0.0
  9
$SKPOLY
 70
     0
  9
$TDCREATE
 40
2459301.623900463
  9
$TDUCREATE
 40
2459301.248900463
  9
$TDUPDATE
 40
2459305.498807871
  9
$TDUUPDATE
 40
2459305.123807870
  9
$TDINDWG
 40
0.1127314815
  9
$TDUSRTIMER
 40
0.1127314815
  9
$USRTIMER
 70
     1
  9
$ANGBASE
 50
0.0
  9
$ANGDIR
 70
     0
  9
$PDMODE
 70
     0
  9
$PDSIZE
 40
0.0
  9
$PLINEWID
 40
0.0
  9
$SPLFRAME
 70
     0
  9
$SPLINETYPE
 70
     6
  9
$SPLINESEGS
 70
     8
  9
$HANDSEED
  5
EB0
  9
$SURFTAB1
 70
     6
  9
$SURFTAB2
 70
     6
  9
$SURFTYPE
 70
     6
  9
$SURFU
 70
     6
  9
$SURFV
 70
     6
  9
$UCSBASE
  2

  9
$UCSNAME
  2

  9
$UCSORG
 10
0.0
 20
0.0
 30
0.0
  9
$UCSXDIR
 10
1.0
 20
0.0
 30
0.0
  9
$UCSYDIR
 10
0.0
 20
1.0
 30
0.0
  9
$UCSORTHOREF
  2

  9
$UCSORTHOVIEW
 70
     0
  9
$UCSORGTOP
 10
0.0
 20
0.0
 30
0.0
  9
$UCSORGBOTTOM
 10
0.0
 20
0.0
 30
0.0
  9
$UCSORGLEFT
 10
0.0
 20
0.0
 30
0.0
  9
$UCSORGRIGHT
 10
0.0
 20
0.0
 30
0.0
  9
$UCSORGFRONT
 10
0.0
 20
0.0
 30
0.0
  9
$UCSORGBACK
 10
0.0
 20
0.0
 30
0.0
  9
$PUCSBASE
  2

  9
$PUCSNAME
  2

  9
$PUCSORG
 10
0.0
 20
0.0
 30
0.0
  9
$PUCSXDIR
 10
1.0
 20
0.0
 30
0.0
  9
$PUCSYDIR
 10
0.0
 20
1.0
 30
0.0
  9
$PUCSORTHOREF
  2

  9
$PUCSORTHOVIEW
 70
     0
  9
$PUCSORGTOP
 10
0.0
 20
0.0
 30
0.0
  9
$PUCSORGBOTTOM
 10
0.0
 20
0.0
 30
0.0
  9
$PUCSORGLEFT
 10
0.0
 20
0.0
 30
0.0
  9
$PUCSORGRIGHT
 10
0.0
 20
0.0
 30
0.0
  9
$PUCSORGFRONT
 10
0.0
 20
0.0
 30
0.0
  9
$PUCSORGBACK
 10
0.0
 20
0.0
 30
0.0
  9
$USERI1
 70
     0
  9
$USERI2
 70
     0
  9
$USERI3
 70
     0
  9
$USERI4
 70
     0
  9
$USERI5
 70
     0
  9
$USERR1
 40
0.0
  9
$USERR2
 40
0.0
  9
$USERR3
 40
0.0
  9
$USERR4
 40
0.0
  9
$USERR5
 40
0.0
  9
$WORLDVIEW
 70
     1
  9
$SHADEDGE
 70
     3
  9
$SHADEDIF
 70
    70
  9
$TILEMODE
 70
     1
  9
$MAXACTVP
 70
    16
  9
$PINSBASE
 10
0.0
 20
0.0
 30
0.0
  9
$PLIMCHECK
 70
     0
  9
$PEXTMIN
 10
1.000000000000000E+20
 20
1.000000000000000E+20
 30
1.000000000000000E+20
  9
$PEXTMAX
 10
-1.000000000000000E+20
 20
-1.000000000000000E+20
 30
-1.000000000000000E+20
  9
$PLIMMIN
 10
0.0
 20
0.0
  9
$PLIMMAX
 10
12.0
 20
9.0
  9
$UNITMODE
 70
     0
  9
$VISRETAIN
 70
     0
  9
$PLINEGEN
 70
     1
  9
$PSLTSCALE
 70
     0
  9
$TREEDEPTH
 70
  3020
  9
$CMLSTYLE
  2
Standard
  9
$CMLJUST
 70
     0
  9
$CMLSCALE
 40
1.0
  9
$PROXYGRAPHICS
 70
     1
  9
$MEASUREMENT
 70
     1
  9
$CELWEIGHT
370
     0
  9
$ENDCAPS
280
     0
  9
$JOINSTYLE
280
     0
  9
$LWDISPLAY
290
     0
  9
$INSUNITS
 70
     0
  9
$HYPERLINKBASE
  1

  9
$STYLESHEET
  1

  9
$XEDIT
290
     1
  9
$CEPSNTYPE
380
     0
  9
$PSTYLEMODE
290
     1
  9
$FINGERPRINTGUID
  2

  9
$VERSIONGUID
  2
{6D146DB8-F030-AE42-AC67-08444263647F}
  9
$EXTNAMES
290
     1
  9
$PSVPSCALE
 40
0.0
  9
$OLESTARTUP
290
     0
  0
ENDSEC
  0
SECTION
  2
CLASSES
  0
CLASS
  1
IMAGE
  2
AcDbRasterImage
  3
ISM
 90
    34943
280
     0
281
     1
  0
CLASS
  1
DICTIONARYVAR
  2
AcDbDictionaryVar
  3
ObjectDBX Classes
 90
        0
280
     0
281
     0
  0
CLASS
  1
RASTERVARIABLES
  2
AcDbRasterVariables
  3
ISM
 90
    32768
280
     0
281
     0
  0
CLASS
  1
IMAGEDEF
  2
AcDbRasterImageDef
  3
ISM
 90
    32768
280
     0
281
     0
  0
CLASS
  1
IMAGEDEF_REACTOR
  2
AcDbRasterImageDefReactor
  3
ISM
 90
    32769
280
     0
281
     0
  0
CLASS
  1
IDBUFFER
  2
AcDbIdBuffer
  3
ObjectDBX Classes
 90
    32768
280
     0
281
     0
  0
CLASS
  1
SPATIAL_FILTER
  2
AcDbSpatialFilter
  3
ObjectDBX Classes
 90
    32768
280
     0
281
     0
  0
CLASS
  1
SORTENTSTABLE
  2
AcDbSortentsTable
  3
ObjectDBX Classes
 90
        0
280
     0
281
     0
  0
CLASS
  1
LAYER_INDEX
  2
AcDbLayerIndex
  3
ObjectDBX Classes
 90
    32768
280
     0
281
     0
  0
CLASS
  1
SPATIAL_INDEX
  2
AcDbSpatialIndex
  3
ObjectDBX Classes
 90
    32768
280
     0
281
     0
  0
CLASS
  1
OBJECT_PTR
  2
CAseDLPNTableRecord
  3
ASE-LPNTableRecord
 90
    32769
280
     0
281
     0
  0
CLASS
  1
LAYOUT
  2
AcDbLayout
  3
ObjectDBX Classes
 90
        0
280
     0
281
     0
  0
CLASS
  1
PLOTSETTINGS
  2
AcDbPlotSettings
  3
ObjectDBX Classes
 90
    32768
280
     0
281
     0
  0
CLASS
  1
ACDBDICTIONARYWDFLT
  2
AcDbDictionaryWithDefault
  3
ObjectDBX Classes
 90
        0
280
     0
281
     0
  0
CLASS
  1
ACDBPLACEHOLDER
  2
AcDbPlaceHolder
  3
ObjectDBX Classes
 90
        0
280
     0
281
     0
  0
CLASS
  1
MATERIAL
  2
AcDbMaterial
  3
ObjectDBX Classes
 90
     1153
280
     0
281
     0
  0
CLASS
  1
VISUALSTYLE
  2
AcDbVisualStyle
  3
ObjectDBX Classes
 90
     4095
280
     0
281
     0
  0
CLASS
  1
TABLESTYLE
  2
AcDbTableStyle
  3
ObjectDBX Classes
 90
     4095
280
     0
281
     0
  0
CLASS
  1
SCALE
  2
AcDbScale
  3
ObjectDBX Classes
 90
     1153
280
     0
281
     0
  0
CLASS
  1
MLEADERSTYLE
  2
AcDbMLeaderStyle
  3
ACDB_MLEADERSTYLE_CLASS
 90
     4095
280
     0
281
     0
  0
CLASS
  1
ACDBSECTIONVIEWSTYLE
  2
AcDbSectionViewStyle
  3
ObjectDBX Classes
 90
     1025
280
     0
281
     0
  0
CLASS
  1
ACDBDETAILVIEWSTYLE
  2
AcDbDetailViewStyle
  3
ObjectDBX Classes
 90
     1025
280
     0
281
     0
  0
CLASS
  1
AMGSETTINGSOBJ
  2
AmgSettingsObj
  3
"AcadM|Product Description: AutoCAD Mechanical|Company: Autodesk, Inc."
 90
     1024
280
     0
281
     0
  0
CLASS
  1
ACME_DOCUMENT
  2
AcMeDbDoc
  3
AcMeServices
 90
     1024
280
     0
281
     0
  0
CLASS
  1
ACMESCOPE
  2
AcMeScope
  3
AcMeServices
 90
     1024
280
     0
281
     0
  0
CLASS
  1
ACMECOMMANDHISTORY
  2
AcMeCommandHistory
  3
AcMeServices
 90
     1024
280
     0
281
     0
  0
CLASS
  1
ACIMSYSVARMAN
  2
AcImSysVarManager
  3
AcMeServices
 90
     1024
280
     0
281
     0
  0
CLASS
  1
ACIMINTSYSVAR
  2
AcImIntSysVar
  3
AcMeServices
 90
     1024
280
     0
281
     0
  0
CLASS
  1
ACMESTATEMGR
  2
AcMeStateMgr
  3
AcMeServices
 90
     1024
280
     0
281
     0
  0
CLASS
  1
ACDBENTITYCACHE
  2
AcMeEntityCache
  3
AcMeServices
 90
     1024
280
     0
281
     0
  0
CLASS
  1
ACGREFMASTER
  2
AcGrefMaster
  3
AcAttribServices
 90
     1024
280
     0
281
     0
  0
CLASS
  1
ACME_DATABASE
  2
AcMeDbDatabase
  3
AcMeServices
 90
     1024
280
     0
281
     0
  0
CLASS
  1
ACRFINSADJUSTERMGR
  2
AcRfInsAdjusterMgr
  3
AcMeServices
 90
     1024
280
     0
281
     0
  0
CLASS
  1
ACGREFACADMASTER
  2
AcGrefacadMaster
  3
AcGrefServices
 90
     1024
280
     0
281
     0
  0
CLASS
  1
AMIMASTER
  2
AmiMaster
  3
AmiServices
 90
     1024
280
     0
281
     0
  0
CLASS
  1
AMDTMENUSTATEMGR
  2
AmdtMenuStateMgr
  3
McadcomServices
 90
     1024
280
     0
281
     0
  0
CLASS
  1
AMDTMCOMMENUSTATE
  2
AmdtMcomMenuState
  3
McadcomServices
 90
     1024
280
     0
281
     0
  0
CLASS
  1
MAPIAMMOUDLE
  2
MApiAmModule
  3
MApiAmServices
 90
     1024
280
     0
281
     0
  0
CLASS
  1
ACIMSTRSYSVAR
  2
AcImStrSysVar
  3
AcMeServices
 90
     1024
280
     0
281
     0
  0
CLASS
  1
AMDTAMMENUSTATE
  2
AmdtAmMenuState
  3
DesignerAssemblies_arx
 90
     1024
280
     0
281
     0
  0
CLASS
  1
ACAMPROJECT
  2
AcAmProject
  3
DesignerAssemblies
 90
     1024
280
     0
281
     0
  0
CLASS
  1
ACAMGRCOMPDEF
  2
AcAmGrCompDef
  3
DesignerAssemblies
 90
     1024
280
     0
281
     0
  0
CLASS
  1
ACAMCOMPDEF
  2
AcAmCompDef
  3
DesignerAssemblies
 90
     1024
280
     0
281
     0
  0
CLASS
  1
ACAMCOMPDEFMGR
  2
AcAmCompDefMgr
  3
DesignerAssemblies
 90
     1024
280
     0
281
     0
  0
CLASS
  1
AMCONTEXTMGR
  2
AcAmContextMgr
  3
DesignerAssemblies
 90
     1024
280
     0
281
     0
  0
CLASS
  1
ACAMCONTEXTMODELER
  2
AcAmContextModeler
  3
DesignerAssemblies
 90
     1024
280
     0
281
     0
  0
CLASS
  1
ACMDATADICTIONARY
  2
AcmDataDictionary
  3
"AcmSymBB|Product Description: AutoCAD Mechanical|Company: Autodesk, Inc."
 90
     1024
280
     0
281
     0
  0
CLASS
  1
ACAMGRCOMPDEFSET
  2
AcAmGrCompDefSet
  3
DesignerAssemblies
 90
     1024
280
     0
281
     0
  0
CLASS
  1
AMDTBROWSERDBTAB
  2
AmdtBrowserDbTab
  3
McadcomServices
 90
     1024
280
     0
281
     0
  0
CLASS
  1
CBROWSERAPPOBJECT
  2
CBrowserAppObject
  3
McadcomServices
 90
     1024
280
     0
281
     0
  0
CLASS
  1
DM_PLACEHOLDER
  2
AcDmSelsetPlaceholder
  3
McadcomServices
 90
     1024
280
     0
281
     0
  0
CLASS
  1
ACMSTANDARDISO
  2
AcmStandardISO
  3
"Amdt_StdImp|Product Description: AutoCAD Mechanical|Company: Autodesk, Inc."
 90
     1024
280
     0
281
     0
  0
CLASS
  1
AMDTEDGESTANDARDISO13715
  2
AmdtEdgeStdISO13715
  3
"Amdt_StdImp|Product Description: AutoCAD Mechanical|Company: Autodesk, Inc."
 90
     1024
280
     0
281
     0
  0
CLASS
  1
ACMSURFSTANDARDISO2002
  2
AcmSurfTextStdISO2002
  3
"Amdt_StdImp|Product Description: AutoCAD Mechanical|Company: Autodesk, Inc."
 90
     1024
280
     0
281
     0
  0
CLASS
  1
ACMFCFSTANDARDISO2012
  2
AcmFCFStdISO2012
  3
"Amdt_StdImp|Product Description: AutoCAD Mechanical|Company: Autodesk, Inc."
 90
     1024
280
     0
281
     0
  0
CLASS
  1
ACMWELDSTANDARDISO
  2
AcmWeldingStdISO
  3
"Amdt_StdImp|Product Description: AutoCAD Mechanical|Company: Autodesk, Inc."
 90
     1024
280
     0
281
     0
  0
CLASS
  1
ACMIDSTANDARDISO2012
  2
AcmIdStdISO2012
  3
"Amdt_StdImp|Product Description: AutoCAD Mechanical|Company: Autodesk, Inc."
 90
     1024
280
     0
281
     0
  0
CLASS
  1
ACMDATUMSTANDARDISO2012
  2
AcmDatumStdISO2012
  3
"Amdt_StdImp|Product Description: AutoCAD Mechanical|Company: Autodesk, Inc."
 90
     1024
280
     0
281
     0
  0
CLASS
  1
ACMBOMSTANDARDISO
  2
AcmBOMStdISO
  3
"Amdt_StdImp|Product Description: AutoCAD Mechanical|Company: Autodesk, Inc."
 90
     1024
280
     0
281
     0
  0
CLASS
  1
ACMDETAILSTANDARDISO
  2
AmdtDetailSymStdISO
  3
"Amdt_StdImp|Product Description: AutoCAD Mechanical|Company: Autodesk, Inc."
 90
     1024
280
     0
281
     0
  0
CLASS
  1
ACMSECTIONSTANDARDISO2001
  2
AmdtSectionSymStdISO2001
  3
"Amdt_StdImp|Product Description: AutoCAD Mechanical|Company: Autodesk, Inc."
 90
     1024
280
     0
281
     0
  0
CLASS
  1
ACMCENTERLINESTANDARDISO
  2
AmdtCenterLineStdISO
  3
"Amdt_StdImp|Product Description: AutoCAD Mechanical|Company: Autodesk, Inc."
 90
     1024
280
     0
281
     0
  0
CLASS
  1
ACMTHREADLINESTANDARDISO
  2
AmdtThreadLineStdISO
  3
"Amdt_StdImp|Product Description: AutoCAD Mechanical|Company: Autodesk, Inc."
 90
     1024
280
     0
281
     0
  0
CLASS
  1
ACMNOTESTANDARDISO
  2
AmdtNoteStdISO
  3
"Amdt_StdImp|Product Description: AutoCAD Mechanical|Company: Autodesk, Inc."
 90
     1024
280
     0
281
     0
  0
CLASS
  1
ACMTAPERSTANDARDISO
  2
AcmTaperStdISO
  3
"Amdt_StdImp|Product Description: AutoCAD Mechanical|Company: Autodesk, Inc."
 90
     1024
280
     0
281
     0
  0
CLASS
  1
ACMANOOTATIONVIEWSTANDARDISO
  2
AmdtAnViewStdISO
  3
"Amdt_StdImp|Product Description: AutoCAD Mechanical|Company: Autodesk, Inc."
 90
     1024
280
     0
281
     0
  0
CLASS
  1
ACAMGLAYSTD
  2
AcAmgLayStd
  3
"AmgLay|Product Description: AutoCAD Mechanical|Company: Autodesk, Inc."
 90
     1024
280
     0
281
     0
  0
CLASS
  1
ACAMGTITLESTD
  2
AcAmgTitleStd
  3
"AmgTitle|Product Description: AutoCAD Mechanical|Company: Autodesk, Inc."
 90
     1024
280
     0
281
     0
  0
CLASS
  1
ACAMGDIMSTD
  2
AcAmgDimStd
  3
"AmgDim|Product Description: AutoCAD Mechanical|Company: Autodesk, Inc."
 90
     1024
280
     0
281
     0
  0
CLASS
  1
AMGOBJPROPCFG
  2
AmgObjPropCfg
  3
"AmgLay|Product Description: AutoCAD Mechanical|Company: Autodesk, Inc."
 90
     1024
280
     0
281
     0
  0
CLASS
  1
ACAMGHOLECHARTSTDISO
  2
AcAmgHoleChartStdISO
  3
"AmgDim" "Product Description: AutoCAD Mechanical|Company: Autodesk, Inc."
 90
     1024
280
     0
281
     0
  0
CLASS
  1
ACMSECTIONSTANDARDCUSTOM
  2
AmdtSectionSymStdCustom
  3
"Amdt_StdImp|Product Description: AutoCAD Mechanical|Company: Autodesk, Inc."
 90
     1024
280
     0
281
     0
  0
CLASS
  1
ACMDETAILTANDARDCUSTOM
  2
AmdtDetailSymStdCustom
  3
"Amdt_StdImp|Product Description: AutoCAD Mechanical|Company: Autodesk, Inc."
 90
     1024
280
     0
281
     0
  0
CLASS
  1
FIELD
  2
AcDbField
  3
ObjectDBX Classes
 90
     1152
280
     0
281
     0
  0
CLASS
  1
FIELDLIST
  2
AcDbFieldList
  3
ObjectDBX Classes
 90
     1152
280
     0
281
     0
  0
CLASS
  1
AMDTNOTETEMPLATEDB
  2
AmdtNoteTemplateDB
  3
"AcmSymBB" "Product Description: AutoCAD Mechanical|Company: Autodesk, Inc."
 90
     1024
280
     0
281
     0
  0
CLASS
  1
ACAMGFILTERDAT
  2
AcAmgFilterDat
  3
"AcadM|Product Description: AutoCAD Mechanical|Company: Autodesk, Inc."
 90
    33792
280
     0
281
     0
  0
CLASS
  1
CAMSSTRUCTBTNSTATE
  2
StructBtnState
  3
DesignerAssemblies_arx
 90
     1024
280
     0
281
     0
  0
CLASS
  1
CELLSTYLEMAP
  2
AcDbCellStyleMap
  3
ObjectDBX Classes
 90
     1152
280
     0
281
     0
  0
ENDSEC
  0
SECTION
  2
TABLES
  0
TABLE
  2
VPORT
  5
7
330
0
100
AcDbSymbolTable
 70
     1
  0
VPORT
  5
15
330
7
100
AcDbSymbolTableRecord
100
AcDbViewportTableRecord
  2
*ACTIVE
 70
     0
 10
0.0
 20
0.0
 11
1.0
 21
1.0
 12
-270.3631617055497
 22
93.4604825631254
 13
0.0
 23
0.0
 14
1.0
 24
1.0
 15
0.0
 25
0.0
 16
0.0
 26
0.0
 36
1.0
 17
0.0
 27
0.0
 37
0.0
 40
348.37535364166
 41
1.781305114638447
 42
50.0
 43
0.0
 44
0.0
 50
0.0
 51
0.0
 71
     0
 72
   100
 73
     1
 74
     1
 75
     0
 76
     0
 77
     0
 78
     0
281
     0
 65
     0
110
0.0
120
0.0
130
0.0
111
1.0
121
0.0
131
0.0
112
0.0
122
1.0
132
0.0
 79
     0
146
0.0
1001
ACAD_NAV_VCDISPLAY
1070
     3
  0
ENDTAB
  0
TABLE
  2
LTYPE
  5
4
330
0
100
AcDbSymbolTable
 70
    16
  0
LTYPE
  5
11
330
4
100
AcDbSymbolTableRecord
100
AcDbLinetypeTableRecord
  2
BYBLOCK
 70
     0
  3

 72
    65
 73
     0
 40
0.0
  0
LTYPE
  5
12
330
4
100
AcDbSymbolTableRecord
100
AcDbLinetypeTableRecord
  2
BYLAYER
 70
     0
  3

 72
    65
 73
     0
 40
0.0
  0
LTYPE
  5
13
330
4
100
AcDbSymbolTableRecord
100
AcDbLinetypeTableRecord
  2
CONTINUOUS
 70
     0
  3
Solid line
 72
    65
 73
     0
 40
0.0
  0
LTYPE
  5
37
330
4
100
AcDbSymbolTableRecord
100
AcDbLinetypeTableRecord
  2
PHANTOM
 70
     0
  3
Phantom ______  __  __  ______  __  __  ______
 72
    65
 73
     6
 40
63.5
 49
31.75
 74
     0
 49
-6.349999999999997
 74
     0
 49
6.349999999999997
 74
     0
 49
-6.349999999999997
 74
     0
 49
6.349999999999997
 74
     0
 49
-6.349999999999997
 74
     0
  0
LTYPE
  5
75
330
4
100
AcDbSymbolTableRecord
100
AcDbLinetypeTableRecord
  2
CENTER
 70
     0
  3
Center ____ _ ____ _ ____ _ ____ _ ____ _ ____
 72
    65
 73
     4
 40
50.8
 49
31.75
 74
     0
 49
-6.349999999999997
 74
     0
 49
6.349999999999997
 74
     0
 49
-6.349999999999997
 74
     0
  0
LTYPE
  5
EB
330
4
100
AcDbSymbolTableRecord
100
AcDbLinetypeTableRecord
  2
DASHED
 70
     0
  3
Dashed __ __ __ __ __ __ __ __ __ __ __ __ __ _
 72
    65
 73
     2
 40
19.05
 49
12.7
 74
     0
 49
-6.349999999999997
 74
     0
  0
LTYPE
  5
490
330
4
100
AcDbSymbolTableRecord
100
AcDbLinetypeTableRecord
  2
HIDDEN
 70
     0
  3
Hidden __ __ __ __ __ __ __ __ __ __ __ __ __ _
 72
    65
 73
     2
 40
9.524999999999996
 49
6.349999999999997
 74
     0
 49
-3.174999999999998
 74
     0
  0
LTYPE
  5
491
330
4
100
AcDbSymbolTableRecord
100
AcDbLinetypeTableRecord
  2
PHANTOM2
 70
     0
  3
Phantom (.5x) ___ _ _ ___ _ _ ___ _ _ ___ _ _
 72
    65
 73
     6
 40
31.75
 49
15.875
 74
     0
 49
-3.174999999999998
 74
     0
 49
3.174999999999998
 74
     0
 49
-3.174999999999998
 74
     0
 49
3.174999999999998
 74
     0
 49
-3.174999999999998
 74
     0
  0
LTYPE
  5
4CD
330
4
100
AcDbSymbolTableRecord
100
AcDbLinetypeTableRecord
  2
AM_ISO02W050
 70
     0
  3
__ __ __ __ __ __ __ __ __ __ __ __ __ __ __
 72
    65
 73
     2
 40
7.5
 49
6.0
 74
     0
 49
-1.5
 74
     0
  0
LTYPE
  5
4CE
330
4
100
AcDbSymbolTableRecord
100
AcDbLinetypeTableRecord
  2
AM_ISO08W050
 70
     0
  3
____ . ____ . ____ . ____ . ____ . ____ . ____
 72
    65
 73
     4
 40
18.0
 49
12.0
 74
     0
 49
-1.5
 74
     0
 49
3.0
 74
     0
 49
-1.5
 74
     0
  0
LTYPE
  5
4CF
330
4
100
AcDbSymbolTableRecord
100
AcDbLinetypeTableRecord
  2
AM_ISO09W050
 70
     0
  3
_____ . . _____ . . _____ . . ____ .. ____
 72
    65
 73
     6
 40
22.5
 49
12.0
 74
     0
 49
-1.5
 74
     0
 49
3.0
 74
     0
 49
-1.5
 74
     0
 49
3.0
 74
     0
 49
-1.5
 74
     0
  0
LTYPE
  5
4D0
330
4
100
AcDbSymbolTableRecord
100
AcDbLinetypeTableRecord
  2
Amconstr
 70
     0
  3
_______________________
 72
    65
 73
     2
 40
9999.0
 49
9999.0
 74
     0
 49
0.0
 74
     0
  0
LTYPE
  5
4D1
330
4
100
AcDbSymbolTableRecord
100
AcDbLinetypeTableRecord
  2
AM_ISO08W050x2
 70
     0
  3
__ . __ . __ . __ . __ . __
 72
    65
 73
     4
 40
9.0
 49
6.0
 74
     0
 49
-0.75
 74
     0
 49
1.5
 74
     0
 49
-0.75
 74
     0
  0
LTYPE
  5
4D2
330
4
100
AcDbSymbolTableRecord
100
AcDbLinetypeTableRecord
  2
AM_ISO02W050x2
 70
     0
  3
 _ _ _ _ _ _ _ _ _ _ _ _
 72
    65
 73
     2
 40
3.75
 49
3.0
 74
     0
 49
-0.75
 74
     0
  0
LTYPE
  5
4D5
330
4
100
AcDbSymbolTableRecord
100
AcDbLinetypeTableRecord
  2
Amzigzag
 70
     0
  3
/\/-/\/-/\/-/\/-/\/-/\/
 72
    65
 73
     2
 40
11.0001
 49
0.0001
 74
     4
 75
   136
340
4D4
 46
0.04
 50
0.0
 44
0.0
 45
0.0
 49
-11.0
 74
     0
  0
LTYPE
  5
4E5
330
4
100
AcDbSymbolTableRecord
100
AcDbLinetypeTableRecord
  2
ACISOWELD
 70
     0
  3
_ _ _ _ _
 72
    65
 73
     2
 40
2.0
 49
2.0
 74
     0
 49
-1.0
 74
     0
  0
LTYPE
  5
4E6
330
4
100
AcDbSymbolTableRecord
100
AcDbLinetypeTableRecord
  2
ACISOTGL
 70
     0
  3
_ _ _ _ _
 72
    65
 73
     2
 40
3.0
 49
2.0
 74
     0
 49
-1.0
 74
     0
  0
LTYPE
  5
4E7
330
4
100
AcDbSymbolTableRecord
100
AcDbLinetypeTableRecord
  2
ACISOTGB
 70
     0
  3
__ . . __ . .
 72
    65
 73
     6
 40
9.0
 49
4.0
 74
     0
 49
-1.0
 74
     0
 49
1.0
 74
     0
 49
-1.0
 74
     0
 49
1.0
 74
     0
 49
-1.0
 74
     0
  0
ENDTAB
  0
TABLE
  2
LAYER
  5
2
102
{ACAD_XDICTIONARY
360
743
102
}
330
0
100
AcDbSymbolTable
 70
     9
  0
LAYER
  5
14
102
{ACAD_XDICTIONARY
360
724
102
}
330
2
100
AcDbSymbolTableRecord
100
AcDbLayerTableRecord
  2
0
 70
     0
 62
     7
  6
CONTINUOUS
370
    -3
390
1D
  0
LAYER
  5
23
102
{ACAD_XDICTIONARY
360
726
102
}
330
2
100
AcDbSymbolTableRecord
100
AcDbLayerTableRecord
  2
1
 70
     0
 62
     7
  6
CONTINUOUS
370
    -3
390
1D
  0
LAYER
  5
24
102
{ACAD_XDICTIONARY
360
728
102
}
330
2
100
AcDbSymbolTableRecord
100
AcDbLayerTableRecord
  2
AM_0
 70
     0
 62
     7
  6
CONTINUOUS
370
    -3
390
1D
  0
LAYER
  5
25
102
{ACAD_XDICTIONARY
360
72A
102
}
330
2
100
AcDbSymbolTableRecord
100
AcDbLayerTableRecord
  2
AM_5
 70
     0
 62
     7
  6
CONTINUOUS
370
    -3
390
1D
  0
LAYER
  5
26
102
{ACAD_XDICTIONARY
360
72C
102
}
330
2
100
AcDbSymbolTableRecord
100
AcDbLayerTableRecord
  2
AM_7
 70
     0
 62
     7
  6
CONTINUOUS
370
    -3
390
1D
  0
LAYER
  5
27
102
{ACAD_XDICTIONARY
360
72E
102
}
330
2
100
AcDbSymbolTableRecord
100
AcDbLayerTableRecord
  2
AM_8
 70
     0
 62
     7
  6
CONTINUOUS
370
    -3
390
1D
  0
LAYER
  5
28
102
{ACAD_XDICTIONARY
360
730
102
}
330
2
100
AcDbSymbolTableRecord
100
AcDbLayerTableRecord
  2
_X__
 70
     0
 62
     7
  6
CONTINUOUS
370
    -3
390
1D
  0
LAYER
  5
29
330
2
100
AcDbSymbolTableRecord
100
AcDbLayerTableRecord
  2
DEFPOINTS
 70
     0
 62
     7
  6
CONTINUOUS
290
     0
370
    -3
390
1D
  0
LAYER
  5
908
330
2
100
AcDbSymbolTableRecord
100
AcDbLayerTableRecord
  2
AM_CL
 70
     0
 62
     1
  6
Amconstr
370
    25
390
1D
1001
AcAecLayerStandard
1000

1000

  0
ENDTAB
  0
TABLE
  2
STYLE
  5
3
330
0
100
AcDbSymbolTable
 70
    15
  0
STYLE
  5
17
330
3
100
AcDbSymbolTableRecord
100
AcDbTextStyleTableRecord
  2
MX_NOTE_STANDARD
 70
     0
 40
0.0
 41
1.0
 50
0.0
 71
     0
 42
3.2
  3
txt.sh
  4
extfont
  0
STYLE
  5
9D
330
3
100
AcDbSymbolTableRecord
100
AcDbTextStyleTableRecord
  2
MX_DIMTXSTY_1
 70
     0
 40
0.0
 41
0.9869999999999999
 50
0.0
 71
     0
 42
3.2
  3
txt.sh
  4
extfont
  0
STYLE
  5
AB
330
3
100
AcDbSymbolTableRecord
100
AcDbTextStyleTableRecord
  2
MX_DIMTXSTY_2
 70
     0
 40
0.0
 41
0.9839999999999999
 50
0.0
 71
     0
 42
3.2
  3
txt.sh
  4
extfont
  0
STYLE
  5
BD
330
3
100
AcDbSymbolTableRecord
100
AcDbTextStyleTableRecord
  2
MX_DIMTXSTY_3
 70
     0
 40
0.0
 41
1.008
 50
0.0
 71
     0
 42
3.2
  3
txt.sh
  4
extfont
  0
STYLE
  5
CA
330
3
100
AcDbSymbolTableRecord
100
AcDbTextStyleTableRecord
  2
MX_DIMTXSTY_4
 70
     0
 40
0.0
 41
0.937
 50
0.0
 71
     0
 42
3.2
  3
txt.sh
  4
extfont
  0
STYLE
  5
D7
330
3
100
AcDbSymbolTableRecord
100
AcDbTextStyleTableRecord
  2
MX_DIMTXSTY_5
 70
     0
 40
0.0
 41
1.0
 50
0.0
 71
     0
 42
3.2
  3
txt.sh
  4
extfont
  0
STYLE
  5
F9
330
3
100
AcDbSymbolTableRecord
100
AcDbTextStyleTableRecord
  2
MX_DIMTXSTY_6
 70
     0
 40
0.0
 41
1.333
 50
0.0
 71
     0
 42
3.2
  3
txt.sh
  4
extfont
  0
STYLE
  5
105
330
3
100
AcDbSymbolTableRecord
100
AcDbTextStyleTableRecord
  2
MX_DIMTXSTY_7
 70
     0
 40
0.0
 41
0.954
 50
0.0
 71
     0
 42
3.2
  3
txt.sh
  4
extfont
  0
STYLE
  5
1BA
330
3
100
AcDbSymbolTableRecord
100
AcDbTextStyleTableRecord
  2
MX_DIMTXSTY_8
 70
     0
 40
0.0
 41
1.108999999999997
 50
0.0
 71
     0
 42
3.2
  3
txt.sh
  4
extfont
  0
STYLE
  5
1E3
330
3
100
AcDbSymbolTableRecord
100
AcDbTextStyleTableRecord
  2
MX_DIMTXSTY_9
 70
     0
 40
0.0
 41
1.076999999999997
 50
0.0
 71
     0
 42
3.2
  3
txt.sh
  4
extfont
  0
STYLE
  5
200
330
3
100
AcDbSymbolTableRecord
100
AcDbTextStyleTableRecord
  2
MX_DIMTXSTY_10
 70
     0
 40
0.0
 41
1.024
 50
0.0
 71
     0
 42
3.2
  3
txt.sh
  4
extfont
  0
STYLE
  5
431
330
3
100
AcDbSymbolTableRecord
100
AcDbTextStyleTableRecord
  2
Standard
 70
     0
 40
0.0
 41
1.0
 50
0.0
 71
     0
 42
0.2
  3

  4

  0
STYLE
  5
4D4
330
3
100
AcDbSymbolTableRecord
100
AcDbTextStyleTableRecord
  2

 70
     1
 40
0.0
 41
1.0
 50
0.0
 71
     0
 42
3.2
  3
genltshp.shx
  4

  0
STYLE
  5
4E3
330
3
100
AcDbSymbolTableRecord
100
AcDbTextStyleTableRecord
  2
ACISOTS
 70
     0
 40
0.0
 41
1.0
 50
0.0
 71
     0
 42
3.2
  3
isocp.shx
  4

  0
STYLE
  5
4E4
330
3
100
AcDbSymbolTableRecord
100
AcDbTextStyleTableRecord
  2
ACISOGDT
 70
     0
 40
0.0
 41
1.0
 50
0.0
 71
     0
 42
3.2
  3
amgdt.shx
  4

  0
ENDTAB
  0
TABLE
  2
VIEW
  5
5
330
0
100
AcDbSymbolTable
 70
     0
  0
ENDTAB
  0
TABLE
  2
UCS
  5
6
330
0
100
AcDbSymbolTable
 70
     0
  0
ENDTAB
  0
TABLE
  2
APPID
  5
8
330
0
100
AcDbSymbolTable
 70
    24
  0
APPID
  5
16
330
8
100
AcDbSymbolTableRecord
100
AcDbRegAppTableRecord
  2
ACAD
 70
     0
  0
APPID
  5
3B3
330
8
100
AcDbSymbolTableRecord
100
AcDbRegAppTableRecord
  2
CONTENTBLOCKDESCRIPTION
 70
     0
  0
APPID
  5
489
330
8
100
AcDbSymbolTableRecord
100
AcDbRegAppTableRecord
  2
MCAD_NO_VIS
 70
     0
  0
APPID
  5
48A
330
8
100
AcDbSymbolTableRecord
100
AcDbRegAppTableRecord
  2
ACAD_TEMP_GRAPHIC
 70
     0
  0
APPID
  5
496
330
8
100
AcDbSymbolTableRecord
100
AcDbRegAppTableRecord
  2
ACATTRIBSERVICES
 70
     0
  0
APPID
  5
4AE
330
8
100
AcDbSymbolTableRecord
100
AcDbRegAppTableRecord
  2
DESIGNERASSEMBLIES
 70
     0
  0
APPID
  5
4CA
330
8
100
AcDbSymbolTableRecord
100
AcDbRegAppTableRecord
  2
ACAD_DSTYLE_DIMJAG
 70
     0
  0
APPID
  5
4CB
330
8
100
AcDbSymbolTableRecord
100
AcDbRegAppTableRecord
  2
ACAD_DSTYLE_DIMBREAK
 70
     0
  0
APPID
  5
4F7
330
8
100
AcDbSymbolTableRecord
100
AcDbRegAppTableRecord
  2
ACAD_NAV_VCDISPLAY
 70
     0
  0
APPID
  5
734
330
8
100
AcDbSymbolTableRecord
100
AcDbRegAppTableRecord
  2
DCO15
 70
     0
  0
APPID
  5
7C0
330
8
100
AcDbSymbolTableRecord
100
AcDbRegAppTableRecord
  2
ACAD_MLEADERVER
 70
     0
  0
APPID
  5
7C5
330
8
100
AcDbSymbolTableRecord
100
AcDbRegAppTableRecord
  2
ACAD_DSTYLE_DIMARC_LENGTH_SYMBOL
 70
     0
  0
APPID
  5
7C6
330
8
100
AcDbSymbolTableRecord
100
AcDbRegAppTableRecord
  2
ACAD_DSTYLE_DIM_LINETYPE
 70
     0
  0
APPID
  5
7C7
330
8
100
AcDbSymbolTableRecord
100
AcDbRegAppTableRecord
  2
ACAD_DSTYLE_DIM_EXT1_LINETYPE
 70
     0
  0
APPID
  5
7C8
330
8
100
AcDbSymbolTableRecord
100
AcDbRegAppTableRecord
  2
ACAD_DSTYLE_DIM_EXT2_LINETYPE
 70
     0
  0
APPID
  5
827
330
8
100
AcDbSymbolTableRecord
100
AcDbRegAppTableRecord
  2
ACAD_EXEMPT_FROM_CAD_STANDARDS
 70
     0
  0
APPID
  5
904
330
8
100
AcDbSymbolTableRecord
100
AcDbRegAppTableRecord
  2
GENIUS_GENODEF_13
 70
     0
  0
APPID
  5
905
330
8
100
AcDbSymbolTableRecord
100
AcDbRegAppTableRecord
  2
GENIUS_GENOBJ-N-CEN_13
 70
     0
  0
APPID
  5
906
330
8
100
AcDbSymbolTableRecord
100
AcDbRegAppTableRecord
  2
GENIUS_GENCEN_19
 70
     0
  0
APPID
  5
909
330
8
100
AcDbSymbolTableRecord
100
AcDbRegAppTableRecord
  2
AcAecLayerStandard
 70
     0
  0
APPID
  5
97D
330
8
100
AcDbSymbolTableRecord
100
AcDbRegAppTableRecord
  2
GENIUS_GENDTOL_13
 70
     0
  0
APPID
  5
990
330
8
100
AcDbSymbolTableRecord
100
AcDbRegAppTableRecord
  2
ACAD_DSTYLE_DIMINSPECT
 70
     0
  0
APPID
  5
99A
330
8
100
AcDbSymbolTableRecord
100
AcDbRegAppTableRecord
  2
AcadAnnoMonitorAlertIconDisabled
 70
     0
  0
APPID
  5
D75
330
8
100
AcDbSymbolTableRecord
100
AcDbRegAppTableRecord
  2
ACAD_DSTYLE_DIMANGULAR_EXTENSION
 70
     0
  0
ENDTAB
  0
TABLE
  2
DIMSTYLE
  5
9
330
0
100
AcDbSymbolTable
 70
    11
100
AcDbDimStyleTable
 71
     1
340
18
  0
DIMSTYLE
105
18
330
9
100
AcDbSymbolTableRecord
100
AcDbDimStyleTableRecord
  2
MXDIMSTYLE
 70
     0
 41
2.5
 42
1.0
 43
3.75
 44
2.286
 73
     0
 74
     0
 77
     1
 78
     8
140
3.2
141
2.5
143
0.03937
147
1.0
171
     4
172
     1
274
     4
288
     1
340
17
  0
DIMSTYLE
105
95
102
{ACAD_REACTORS
330
1E9
330
1F7
330
206
330
22D
330
23A
330
505
330
50C
330
52D
330
573
330
574
330
576
330
52E
102
}
330
9
100
AcDbSymbolTableRecord
100
AcDbDimStyleTableRecord
  2
MX_DIMSTYLE_MODEL_SPACE
 70
     0
 41
2.5
 42
1.0
 43
3.75
 44
2.286
 73
     0
 74
     0
 77
     1
 78
     8
140
3.2
141
2.5
143
0.03937
147
1.0
171
     4
172
     1
274
     4
288
     1
340
17
  0
DIMSTYLE
105
4C9
102
{ACAD_REACTORS
330
8A3
102
}
330
9
100
AcDbSymbolTableRecord
100
AcDbDimStyleTableRecord
  2
AM_ISO
 70
     0
  4
"
 41
3.5
 42
1.0
 43
10.0
 44
1.0
 47
0.1
 48
0.1
 73
     0
 74
     0
 77
     1
 78
     8
 79
     2
140
3.5
141
0.0
143
0.0393701
146
0.71
147
1.5
172
     1
176
   256
177
   256
178
     2
271
     2
272
     3
274
     4
283
     0
284
     8
340
431
371
    -1
372
    -1
1001
ACAD_DSTYLE_DIMJAG
1070
   388
1040
1.5
1001
ACAD_DSTYLE_DIMBREAK
1070
   391
1040
3.75
1001
ACAD_DSTYLE_DIMARC_LENGTH_SYMBOL
1070
   379
1070
     1
1001
ACAD_DSTYLE_DIM_LINETYPE
1070
   380
1005
11
1001
ACAD_DSTYLE_DIM_EXT1_LINETYPE
1070
   381
1005
11
1001
ACAD_DSTYLE_DIM_EXT2_LINETYPE
1070
   382
1005
11
  0
DIMSTYLE
105
4D6
330
9
100
AcDbSymbolTableRecord
100
AcDbDimStyleTableRecord
  2
AM_ISO$3
 70
     0
  4
"
 41
3.5
 42
1.0
 43
10.0
 44
1.0
 47
0.1
 48
0.1
 73
     0
 77
     1
 78
     8
 79
     2
140
3.5
141
0.0
143
0.0393701
146
0.71
147
1.5
176
   256
177
   256
178
     2
271
     2
272
     3
274
     4
283
     0
284
     8
288
     1
289
     0
340
431
371
    -1
372
    -1
1001
ACAD_DSTYLE_DIMBREAK
1070
   391
1040
3.75
1001
ACAD_DSTYLE_DIMJAG
1070
   388
1040
1.5
1001
ACAD_DSTYLE_DIMARC_LENGTH_SYMBOL
1070
   379
1070
     1
1001
ACAD_DSTYLE_DIM_LINETYPE
1070
   380
1005
11
1001
ACAD_DSTYLE_DIM_EXT1_LINETYPE
1070
   381
1005
11
1001
ACAD_DSTYLE_DIM_EXT2_LINETYPE
1070
   382
1005
11
  0
DIMSTYLE
105
4D7
330
9
100
AcDbSymbolTableRecord
100
AcDbDimStyleTableRecord
  2
AM_ISO$4
 70
     0
  4
"
 41
3.5
 42
1.0
 43
10.0
 44
1.0
 47
0.1
 48
0.1
 73
     0
 77
     1
 78
     8
 79
     2
140
3.5
141
0.0
143
0.0393701
146
0.71
147
1.5
176
   256
177
   256
178
     2
271
     2
272
     3
274
     4
283
     0
284
     8
288
     1
289
     0
340
431
371
    -1
372
    -1
1001
ACAD_DSTYLE_DIMBREAK
1070
   391
1040
3.75
1001
ACAD_DSTYLE_DIMJAG
1070
   388
1040
1.5
1001
ACAD_DSTYLE_DIMARC_LENGTH_SYMBOL
1070
   379
1070
     1
1001
ACAD_DSTYLE_DIM_LINETYPE
1070
   380
1005
11
1001
ACAD_DSTYLE_DIM_EXT1_LINETYPE
1070
   381
1005
11
1001
ACAD_DSTYLE_DIM_EXT2_LINETYPE
1070
   382
1005
11
  0
DIMSTYLE
105
4D8
330
9
100
AcDbSymbolTableRecord
100
AcDbDimStyleTableRecord
  2
AM_ISO$6
 70
     0
  4
"
 41
3.5
 42
1.0
 43
10.0
 44
1.0
 47
0.1
 48
0.1
 73
     0
 74
     0
 78
     8
 79
     2
140
3.5
141
0.0
143
0.0393701
146
0.71
147
1.5
172
     1
176
   256
177
   256
178
     2
271
     2
272
     3
274
     4
283
     0
284
     8
340
431
371
    -1
372
    -1
1001
ACAD_DSTYLE_DIMBREAK
1070
   391
1040
3.75
1001
ACAD_DSTYLE_DIMJAG
1070
   388
1040
1.5
1001
ACAD_DSTYLE_DIMARC_LENGTH_SYMBOL
1070
   379
1070
     1
1001
ACAD_DSTYLE_DIM_LINETYPE
1070
   380
1005
11
1001
ACAD_DSTYLE_DIM_EXT1_LINETYPE
1070
   381
1005
11
1001
ACAD_DSTYLE_DIM_EXT2_LINETYPE
1070
   382
1005
11
  0
DIMSTYLE
105
4D9
330
9
100
AcDbSymbolTableRecord
100
AcDbDimStyleTableRecord
  2
AM_ISO$7
 70
     0
  4
"
 41
3.5
 42
1.0
 43
10.0
 44
1.0
 47
0.1
 48
0.1
 73
     0
 74
     0
 77
     1
 78
     8
 79
     2
140
3.5
141
0.0
143
0.0393701
146
0.71
147
1.5
172
     1
176
   256
177
   256
178
     2
271
     2
272
     3
274
     4
283
     0
284
     8
340
431
371
    -1
372
    -1
1001
ACAD_DSTYLE_DIMBREAK
1070
   391
1040
3.75
1001
ACAD_DSTYLE_DIMJAG
1070
   388
1040
1.5
1001
ACAD_DSTYLE_DIMARC_LENGTH_SYMBOL
1070
   379
1070
     1
1001
ACAD_DSTYLE_DIM_LINETYPE
1070
   380
1005
11
1001
ACAD_DSTYLE_DIM_EXT1_LINETYPE
1070
   381
1005
11
1001
ACAD_DSTYLE_DIM_EXT2_LINETYPE
1070
   382
1005
11
  0
DIMSTYLE
105
4DA
330
9
100
AcDbSymbolTableRecord
100
AcDbDimStyleTableRecord
  2
AM_ISO$SF
 70
     0
  4
"
 41
3.5
 42
1.0
 43
10.0
 44
1.0
 47
0.1
 48
0.1
 73
     0
 74
     0
 75
     1
 76
     1
 77
     1
 78
     8
 79
     2
140
3.5
141
0.0
143
0.0393701
146
0.71
147
1.5
172
     1
176
   256
177
   256
178
     2
271
     2
272
     3
274
     4
283
     0
284
     8
340
431
371
    -1
372
    -1
1001
ACAD_DSTYLE_DIMBREAK
1070
   391
1040
3.75
1001
ACAD_DSTYLE_DIMJAG
1070
   388
1040
1.5
1001
ACAD_DSTYLE_DIMARC_LENGTH_SYMBOL
1070
   379
1070
     1
1001
ACAD_DSTYLE_DIM_LINETYPE
1070
   380
1005
11
1001
ACAD_DSTYLE_DIM_EXT1_LINETYPE
1070
   381
1005
11
1001
ACAD_DSTYLE_DIM_EXT2_LINETYPE
1070
   382
1005
11
  0
DIMSTYLE
105
4DF
330
9
100
AcDbSymbolTableRecord
100
AcDbDimStyleTableRecord
  2
AM_ISO$SH
 70
     0
  4
"
 41
3.5
 42
1.0
 43
10.0
 44
1.0
 47
0.1
 48
0.1
 73
     0
 74
     0
 75
     1
 76
     1
 77
     1
 78
     8
 79
     2
140
3.5
141
0.0
143
0.0393701
144
2.0
146
0.71
147
1.5
172
     1
173
     1
176
   256
177
   256
178
     2
271
     2
272
     3
274
     4
283
     0
284
     8
340
431
343
4DB
371
    -1
372
    -1
1001
ACAD_DSTYLE_DIMBREAK
1070
   391
1040
3.75
1001
ACAD_DSTYLE_DIMJAG
1070
   388
1040
1.5
1001
ACAD_DSTYLE_DIMARC_LENGTH_SYMBOL
1070
   379
1070
     1
1001
ACAD_DSTYLE_DIM_LINETYPE
1070
   380
1005
11
1001
ACAD_DSTYLE_DIM_EXT1_LINETYPE
1070
   381
1005
11
1001
ACAD_DSTYLE_DIM_EXT2_LINETYPE
1070
   382
1005
11
  0
DIMSTYLE
105
AC6
102
{ACAD_REACTORS
330
AC8
102
}
330
9
100
AcDbSymbolTableRecord
100
AcDbDimStyleTableRecord
  2
MXDIMSTYLE$0
 70
     0
 41
2.5
 42
1.0
 43
3.75
 44
2.286
 73
     0
 74
     0
 77
     1
 78
     8
140
3.2
141
2.5
143
0.03937
147
1.0
171
     4
172
     1
274
     4
288
     1
340
17
1001
ACAD_DSTYLE_DIMBREAK
1070
   391
1040
3.75
1001
ACAD_DSTYLE_DIMJAG
1070
   388
1040
1.5
  0
DIMSTYLE
105
DE1
102
{ACAD_REACTORS
330
DE2
102
}
330
9
100
AcDbSymbolTableRecord
100
AcDbDimStyleTableRecord
  2
MXDIMSTYLE$2
 70
     0
 41
2.5
 42
1.0
 43
3.75
 44
2.286
 73
     0
 74
     0
 77
     1
 78
     8
140
3.2
141
2.5
143
0.03937
147
1.0
171
     4
172
     1
274
     4
288
     1
340
17
1001
ACAD_DSTYLE_DIMBREAK
1070
   391
1040
3.75
1001
ACAD_DSTYLE_DIMJAG
1070
   388
1040
1.5
  0
ENDTAB
  0
TABLE
  2
BLOCK_RECORD
  5
1
330
0
100
AcDbSymbolTable
 70
    24
  0
BLOCK_RECORD
  5
A
102
{ACAD_XDICTIONARY
360
90B
102
}
330
1
100
AcDbSymbolTableRecord
100
AcDbBlockTableRecord
  2
*MODEL_SPACE
340
20
  0
BLOCK_RECORD
  5
B
330
1
100
AcDbSymbolTableRecord
100
AcDbBlockTableRecord
  2
*PAPER_SPACE
340
21
  0
BLOCK_RECORD
  5
2B
330
1
100
AcDbSymbolTableRecord
100
AcDbBlockTableRecord
  2
SG6コレット
340
0
102
{BLKREFS
331
509
102
}
  0
BLOCK_RECORD
  5
2D
330
1
100
AcDbSymbolTableRecord
100
AcDbBlockTableRecord
  2
SGH6HS-501ナット
340
0
  0
BLOCK_RECORD
  5
1AE
330
1
100
AcDbSymbolTableRecord
100
AcDbBlockTableRecord
  2
_NONE
340
0
  0
BLOCK_RECORD
  5
1DB
330
1
100
AcDbSymbolTableRecord
100
AcDbBlockTableRecord
  2
*D3
340
0
  0
BLOCK_RECORD
  5
1EA
330
1
100
AcDbSymbolTableRecord
100
AcDbBlockTableRecord
  2
*D4
340
0
  0
BLOCK_RECORD
  5
1F8
330
1
100
AcDbSymbolTableRecord
100
AcDbBlockTableRecord
  2
*D5
340
0
  0
BLOCK_RECORD
  5
221
330
1
100
AcDbSymbolTableRecord
100
AcDbBlockTableRecord
  2
*D6
340
0
  0
BLOCK_RECORD
  5
22E
330
1
100
AcDbSymbolTableRecord
100
AcDbBlockTableRecord
  2
*D7
340
0
  0
BLOCK_RECORD
  5
3B2
330
1
100
AcDbSymbolTableRecord
100
AcDbBlockTableRecord
  2
$KST876F
340
0
1001
CONTENTBLOCKDESCRIPTION
1071
        0
1000
ICAD/MX KST symbol
  0
BLOCK_RECORD
  5
4DB
330
1
100
AcDbSymbolTableRecord
100
AcDbBlockTableRecord
  2
GENAXEH
340
0
  0
BLOCK_RECORD
  5
5E4
330
1
100
AcDbSymbolTableRecord
100
AcDbBlockTableRecord
  2
*D12
340
0
  0
BLOCK_RECORD
  5
5F0
330
1
100
AcDbSymbolTableRecord
100
AcDbBlockTableRecord
  2
*D13
340
0
  0
BLOCK_RECORD
  5
606
330
1
100
AcDbSymbolTableRecord
100
AcDbBlockTableRecord
  2
*D15
340
0
  0
BLOCK_RECORD
  5
612
330
1
100
AcDbSymbolTableRecord
100
AcDbBlockTableRecord
  2
*D16
340
0
  0
BLOCK_RECORD
  5
61D
330
1
100
AcDbSymbolTableRecord
100
AcDbBlockTableRecord
  2
*D17
340
0
  0
BLOCK_RECORD
  5
635
330
1
100
AcDbSymbolTableRecord
100
AcDbBlockTableRecord
  2
*D18
340
0
  0
BLOCK_RECORD
  5
661
330
1
100
AcDbSymbolTableRecord
100
AcDbBlockTableRecord
  2
*D19
340
0
  0
BLOCK_RECORD
  5
AC9
330
1
100
AcDbSymbolTableRecord
100
AcDbBlockTableRecord
  2
*D22
340
0
  0
BLOCK_RECORD
  5
DE3
330
1
100
AcDbSymbolTableRecord
100
AcDbBlockTableRecord
  2
*D23
340
0
  0
ENDTAB
  0
ENDSEC
  0
SECTION
  2
BLOCKS
  0
BLOCK
  5
D
330
A
100
AcDbEntity
  8
0
100
AcDbBlockBegin
  2
*MODEL_SPACE
 70
     0
 10
0.0
 20
0.0
 30
0.0
  3
*MODEL_SPACE
  1

  0
ENDBLK
  5
E
330
A
100
AcDbEntity
  8
0
100
AcDbBlockEnd
  0
BLOCK
  5
F
330
B
100
AcDbEntity
 67
     1
  8
0
100
AcDbBlockBegin
  2
*PAPER_SPACE
 70
     0
 10
0.0
 20
0.0
 30
0.0
  3
*PAPER_SPACE
  1

  0
ENDBLK
  5
10
330
B
100
AcDbEntity
 67
     1
  8
0
100
AcDbBlockEnd
  0
BLOCK
  5
35
330
2B
100
AcDbEntity
  8
0
370
    -2
100
AcDbBlockBegin
  2
SG6コレット
 70
     0
 10
0.0
 20
0.0
 30
0.0
  3
SG6コレット
  1

  0
POINT
  5
36
330
2B
100
AcDbEntity
  8
0
  6
Continuous
 62
     7
100
AcDbPoint
 10
0.0
 20
0.0
 30
0.0
  0
LINE
  5
38
330
2B
100
AcDbEntity
  8
0
  6
PHANTOM
 62
   110
100
AcDbLine
 10
-18.2
 20
-3.1
 30
0.0
 11
-18.5
 21
-3.399999999999999
 31
0.0
  0
LINE
  5
39
330
2B
100
AcDbEntity
  8
0
  6
PHANTOM
 62
   110
100
AcDbLine
 10
-18.2
 20
3.1
 30
0.0
 11
-18.5
 21
3.399999999999999
 31
0.0
  0
LINE
  5
3A
330
2B
100
AcDbEntity
  8
0
  6
PHANTOM
 62
   110
100
AcDbLine
 10
-18.2
 20
-3.1
 30
0.0
 11
-18.2
 21
-1.368129999999999
 31
0.0
  0
LINE
  5
3B
330
2B
100
AcDbEntity
  8
0
  6
PHANTOM
 62
   110
100
AcDbLine
 10
-18.2
 20
3.1
 30
0.0
 11
-18.2
 21
1.368129999999999
 31
0.0
  0
LINE
  5
3C
330
2B
100
AcDbEntity
  8
0
  6
PHANTOM
 62
   110
100
AcDbLine
 10
-3.5
 20
-4.0
 30
0.0
 11
-3.5
 21
-5.075
 31
0.0
  0
LINE
  5
3D
330
2B
100
AcDbEntity
  8
0
  6
PHANTOM
 62
   110
100
AcDbLine
 10
-3.5
 20
-4.0
 30
0.0
 11
-2.0
 21
-4.0
 31
0.0
  0
LINE
  5
3E
330
2B
100
AcDbEntity
  8
0
  6
PHANTOM
 62
   110
100
AcDbLine
 10
-2.0
 20
-4.0
 30
0.0
 11
-2.0
 21
-4.65
 31
0.0
  0
LINE
  5
3F
330
2B
100
AcDbEntity
  8
0
  6
PHANTOM
 62
   110
100
AcDbLine
 10
-2.0
 20
-4.65
 30
0.0
 11
-1.8
 21
-4.849999999999997
 31
0.0
  0
LINE
  5
40
330
2B
100
AcDbEntity
  8
0
  6
PHANTOM
 62
   110
100
AcDbLine
 10
-1.8
 20
-4.849999999999997
 30
0.0
 11
-1.5
 21
-4.849999999999997
 31
0.0
  0
LINE
  5
41
330
2B
100
AcDbEntity
  8
0
  6
PHANTOM
 62
   110
100
AcDbLine
 10
-1.5
 20
-4.849999999999997
 30
0.0
 11
0.0
 21
-3.983975
 31
0.0
  0
LINE
  5
42
330
2B
100
AcDbEntity
  8
0
  6
PHANTOM
 62
   110
100
AcDbLine
 10
0.0
 20
0.0
 30
0.0
 11
0.0
 21
-3.983975
 31
0.0
  0
LINE
  5
43
330
2B
100
AcDbEntity
  8
0
  6
PHANTOM
 62
   110
100
AcDbLine
 10
0.0
 20
0.0
 30
0.0
 11
0.0
 21
3.983975
 31
0.0
  0
LINE
  5
44
330
2B
100
AcDbEntity
  8
0
  6
PHANTOM
 62
   110
100
AcDbLine
 10
-1.5
 20
4.849999999999997
 30
0.0
 11
0.0
 21
3.983975
 31
0.0
  0
LINE
  5
45
330
2B
100
AcDbEntity
  8
0
  6
PHANTOM
 62
   110
100
AcDbLine
 10
-1.8
 20
4.849999999999997
 30
0.0
 11
-1.5
 21
4.849999999999997
 31
0.0
  0
LINE
  5
46
330
2B
100
AcDbEntity
  8
0
  6
PHANTOM
 62
   110
100
AcDbLine
 10
-2.0
 20
4.65
 30
0.0
 11
-1.8
 21
4.849999999999997
 31
0.0
  0
LINE
  5
47
330
2B
100
AcDbEntity
  8
0
  6
PHANTOM
 62
   110
100
AcDbLine
 10
-2.0
 20
4.0
 30
0.0
 11
-2.0
 21
4.65
 31
0.0
  0
LINE
  5
48
330
2B
100
AcDbEntity
  8
0
  6
PHANTOM
 62
   110
100
AcDbLine
 10
-3.5
 20
4.0
 30
0.0
 11
-2.0
 21
4.0
 31
0.0
  0
LINE
  5
49
330
2B
100
AcDbEntity
  8
0
  6
PHANTOM
 62
   110
100
AcDbLine
 10
-3.5
 20
4.0
 30
0.0
 11
-3.5
 21
5.075
 31
0.0
  0
LINE
  5
4A
330
2B
100
AcDbEntity
  8
0
  6
PHANTOM
 62
   110
100
AcDbLine
 10
-18.5
 20
-4.325001
 30
0.0
 11
-3.5
 21
-5.075
 31
0.0
  0
LINE
  5
4B
330
2B
100
AcDbEntity
  8
0
  6
PHANTOM
 62
   110
100
AcDbLine
 10
-18.5
 20
0.0
 30
0.0
 11
-18.5
 21
-4.325001
 31
0.0
  0
LINE
  5
4C
330
2B
100
AcDbEntity
  8
0
  6
PHANTOM
 62
   110
100
AcDbLine
 10
-13.0
 20
0.0
 30
0.0
 11
-13.0
 21
-3.1
 31
0.0
  0
LINE
  5
4D
330
2B
100
AcDbEntity
  8
0
  6
PHANTOM
 62
   110
100
AcDbLine
 10
-18.2
 20
-3.1
 30
0.0
 11
-13.0
 21
-3.1
 31
0.0
  0
LINE
  5
4E
330
2B
100
AcDbEntity
  8
0
  6
PHANTOM
 62
   110
100
AcDbLine
 10
-12.07624
 20
-1.5
 30
0.0
 11
-13.0
 21
-3.1
 31
0.0
  0
LINE
  5
4F
330
2B
100
AcDbEntity
  8
0
  6
PHANTOM
 62
   110
100
AcDbLine
 10
-13.0
 20
0.0
 30
0.0
 11
-13.0
 21
3.1
 31
0.0
  0
LINE
  5
50
330
2B
100
AcDbEntity
  8
0
  6
PHANTOM
 62
   110
100
AcDbLine
 10
-12.07624
 20
1.5
 30
0.0
 11
-13.0
 21
3.1
 31
0.0
  0
LINE
  5
51
330
2B
100
AcDbEntity
  8
0
  6
PHANTOM
 62
   110
100
AcDbLine
 10
-18.5
 20
4.325001
 30
0.0
 11
-3.5
 21
5.075
 31
0.0
  0
LINE
  5
52
330
2B
100
AcDbEntity
  8
0
  6
PHANTOM
 62
   110
100
AcDbLine
 10
-18.5
 20
4.325001
 30
0.0
 11
-18.5
 21
0.0
 31
0.0
  0
LINE
  5
53
330
2B
100
AcDbEntity
  8
0
  6
PHANTOM
 62
   110
100
AcDbLine
 10
-18.2
 20
3.1
 30
0.0
 11
-13.0
 21
3.1
 31
0.0
  0
LINE
  5
54
330
2B
100
AcDbEntity
  8
0
  6
PHANTOM
 62
   110
100
AcDbLine
 10
-12.07624
 20
1.5
 30
0.0
 11
-0.3
 21
1.5
 31
0.0
  0
LINE
  5
55
330
2B
100
AcDbEntity
  8
0
  6
PHANTOM
 62
   110
100
AcDbLine
 10
-12.07624
 20
-1.5
 30
0.0
 11
-0.3
 21
-1.5
 31
0.0
  0
LINE
  5
56
330
2B
100
AcDbEntity
  8
0
  6
PHANTOM
 62
   110
100
AcDbLine
 10
-12.07624
 20
-1.5
 30
0.0
 11
-12.07624
 21
0.0
 31
0.0
  0
LINE
  5
57
330
2B
100
AcDbEntity
  8
0
  6
PHANTOM
 62
   110
100
AcDbLine
 10
-0.3
 20
0.0
 30
0.0
 11
-0.3
 21
1.5
 31
0.0
  0
LINE
  5
58
330
2B
100
AcDbEntity
  8
0
  6
PHANTOM
 62
   110
100
AcDbLine
 10
-0.3
 20
0.0
 30
0.0
 11
-0.3
 21
-1.5
 31
0.0
  0
LINE
  5
59
330
2B
100
AcDbEntity
  8
0
  6
PHANTOM
 62
   110
100
AcDbLine
 10
-0.3
 20
1.5
 30
0.0
 11
0.0
 21
1.8
 31
0.0
  0
LINE
  5
5A
330
2B
100
AcDbEntity
  8
0
  6
PHANTOM
 62
   110
100
AcDbLine
 10
-0.3
 20
-1.5
 30
0.0
 11
0.0
 21
-1.8
 31
0.0
  0
LINE
  5
5B
330
2B
100
AcDbEntity
  8
0
  6
PHANTOM
 62
   110
100
AcDbLine
 10
-12.07624
 20
0.0
 30
0.0
 11
-12.07624
 21
1.5
 31
0.0
  0
ENDBLK
  5
5C
330
2B
100
AcDbEntity
  8
0
370
    -2
100
AcDbBlockEnd
  0
BLOCK
  5
63
330
2D
100
AcDbEntity
  8
0
370
    -2
100
AcDbBlockBegin
  2
SGH6HS-501ナット
 70
     0
 10
0.0
 20
0.0
 30
0.0
  3
SGH6HS-501ナット
  1

  0
LINE
  5
64
330
2D
100
AcDbEntity
  8
0
  6
Continuous
 62
    80
100
AcDbLine
 10
-5.5
 20
5.218670999999997
 30
0.0
 11
-9.263994
 21
8.436005999999999
 31
0.0
  0
LINE
  5
65
330
2D
100
AcDbEntity
  8
0
  6
Continuous
 62
    80
100
AcDbLine
 10
-9.5
 20
5.218670999999997
 30
0.0
 11
-5.5
 21
8.637735000000001
 31
0.0
  0
ARC
  5
66
330
2D
100
AcDbEntity
  8
0
  6
Continuous
 62
   100
100
AcDbCircle
 10
-7.237499999999998
 20
6.928202999999999
 30
0.0
 40
2.4375
100
AcDbArc
 50
315.464866
 51
44.535134
  0
LINE
  5
67
330
2D
100
AcDbEntity
  8
0
  6
Continuous
 62
   100
100
AcDbLine
 10
-9.062265
 20
8.637735000000001
 30
0.0
 11
-5.5
 21
8.637735000000001
 31
0.0
  0
LINE
  5
68
330
2D
100
AcDbEntity
  8
0
  6
Continuous
 62
   100
100
AcDbLine
 10
-9.5
 20
5.218670999999997
 30
0.0
 11
-5.5
 21
5.218670999999997
 31
0.0
  0
LINE
  5
69
330
2D
100
AcDbEntity
  8
0
  6
Continuous
 62
   100
100
AcDbLine
 10
-9.5
 20
3.419064
 30
0.0
 11
-5.5
 21
3.419064
 31
0.0
  0
LINE
  5
6A
330
2D
100
AcDbEntity
  8
0
  6
Continuous
 62
   100
100
AcDbLine
 10
-2.5
 20
8.699999999999999
 30
0.0
 11
0.0
 21
7.256624
 31
0.0
  0
LINE
  5
6B
330
2D
100
AcDbEntity
  8
0
  6
Continuous
 62
   100
100
AcDbLine
 10
-5.5
 20
5.218670999999997
 30
0.0
 11
-5.5
 21
8.637735000000001
 31
0.0
  0
LINE
  5
6C
330
2D
100
AcDbEntity
  8
0
  6
Continuous
 62
   100
100
AcDbLine
 10
-9.5
 20
8.199999999999999
 30
0.0
 11
-9.0
 21
8.699999999999999
 31
0.0
  0
LINE
  5
6D
330
2D
100
AcDbEntity
  8
0
  6
Continuous
 62
   100
100
AcDbLine
 10
-2.5
 20
8.699999999999999
 30
0.0
 11
-9.0
 21
8.699999999999999
 31
0.0
  0
LINE
  5
6E
330
2D
100
AcDbEntity
  8
0
  6
Continuous
 62
   100
100
AcDbLine
 10
-9.5
 20
0.0
 30
0.0
 11
-9.5
 21
8.199999999999999
 31
0.0
  0
LINE
  5
6F
330
2D
100
AcDbEntity
  8
0
  6
Continuous
 62
   100
100
AcDbLine
 10
0.0
 20
0.0
 30
0.0
 11
0.0
 21
7.256624
 31
0.0
  0
LINE
  5
70
330
2D
100
AcDbEntity
  8
0
  6
Continuous
 62
   100
100
AcDbLine
 10
-2.5
 20
0.0
 30
0.0
 11
-2.5
 21
8.699999999999999
 31
0.0
  0
LINE
  5
71
330
2D
100
AcDbEntity
  8
0
  6
Continuous
 62
   100
100
AcDbLine
 10
-5.5
 20
0.0
 30
0.0
 11
-5.5
 21
3.419064
 31
0.0
  0
LINE
  5
72
330
2D
100
AcDbEntity
  8
0
  6
Continuous
 62
    80
100
AcDbLine
 10
-9.5
 20
3.419064
 30
0.0
 11
-7.5
 21
0.0
 31
0.0
  0
LINE
  5
73
330
2D
100
AcDbEntity
  8
0
  6
Continuous
 62
    80
100
AcDbLine
 10
-7.5
 20
0.0
 30
0.0
 11
-5.5
 21
3.419064
 31
0.0
  0
ARC
  5
74
330
2D
100
AcDbEntity
  8
0
  6
Continuous
 62
   100
100
AcDbCircle
 10
-13.5
 20
0.0
 30
0.0
 40
8.699999999999999
100
AcDbArc
 50
0.0
 51
23.141041
  0
LINE
  5
76
330
2D
100
AcDbEntity
  8
0
  6
CENTER
 62
    80
100
AcDbLine
 10
0.0
 20
0.0
 30
0.0
 11
-9.5
 21
0.0
 31
0.0
  0
LINE
  5
77
330
2D
100
AcDbEntity
  8
0
  6
Continuous
 62
   100
100
AcDbLine
 10
-9.5
 20
0.0
 30
0.0
 11
-9.5
 21
-8.199999999999999
 31
0.0
  0
LINE
  5
78
330
2D
100
AcDbEntity
  8
0
  6
Continuous
 62
   100
100
AcDbLine
 10
0.0
 20
0.0
 30
0.0
 11
0.0
 21
-7.256624
 31
0.0
  0
LINE
  5
79
330
2D
100
AcDbEntity
  8
0
  6
Continuous
 62
   100
100
AcDbLine
 10
-2.5
 20
-8.699999999999999
 30
0.0
 11
-9.0
 21
-8.699999999999999
 31
0.0
  0
LINE
  5
7A
330
2D
100
AcDbEntity
  8
0
  6
Continuous
 62
   100
100
AcDbLine
 10
-9.5
 20
-8.199999999999999
 30
0.0
 11
-9.0
 21
-8.699999999999999
 31
0.0
  0
LINE
  5
7B
330
2D
100
AcDbEntity
  8
0
  6
Continuous
 62
   100
100
AcDbLine
 10
-2.5
 20
0.0
 30
0.0
 11
-2.5
 21
-8.699999999999999
 31
0.0
  0
LINE
  5
7C
330
2D
100
AcDbEntity
  8
0
  6
Continuous
 62
   100
100
AcDbLine
 10
-5.5
 20
0.0
 30
0.0
 11
-5.5
 21
-3.419064
 31
0.0
  0
LINE
  5
7D
330
2D
100
AcDbEntity
  8
0
  6
Continuous
 62
   100
100
AcDbLine
 10
-5.5
 20
-5.218670999999997
 30
0.0
 11
-5.5
 21
-8.637735000000001
 31
0.0
  0
LINE
  5
7E
330
2D
100
AcDbEntity
  8
0
  6
Continuous
 62
   100
100
AcDbLine
 10
-2.5
 20
-8.699999999999999
 30
0.0
 11
0.0
 21
-7.256624
 31
0.0
  0
LINE
  5
7F
330
2D
100
AcDbEntity
  8
0
  6
Continuous
 62
   100
100
AcDbLine
 10
-9.5
 20
-3.419064
 30
0.0
 11
-5.5
 21
-3.419064
 31
0.0
  0
LINE
  5
80
330
2D
100
AcDbEntity
  8
0
  6
Continuous
 62
   100
100
AcDbLine
 10
-9.5
 20
-5.218670999999997
 30
0.0
 11
-5.5
 21
-5.218670999999997
 31
0.0
  0
LINE
  5
81
330
2D
100
AcDbEntity
  8
0
  6
Continuous
 62
   100
100
AcDbLine
 10
-9.062265
 20
-8.637735000000001
 30
0.0
 11
-5.5
 21
-8.637735000000001
 31
0.0
  0
LINE
  5
82
330
2D
100
AcDbEntity
  8
0
  6
Continuous
 62
    80
100
AcDbLine
 10
-9.5
 20
-3.419064
 30
0.0
 11
-7.5
 21
0.0
 31
0.0
  0
LINE
  5
83
330
2D
100
AcDbEntity
  8
0
  6
Continuous
 62
    80
100
AcDbLine
 10
-7.5
 20
0.0
 30
0.0
 11
-5.5
 21
-3.419064
 31
0.0
  0
ARC
  5
84
330
2D
100
AcDbEntity
  8
0
  6
Continuous
 62
   100
100
AcDbCircle
 10
-13.5
 20
0.0
 30
0.0
 40
8.699999999999999
100
AcDbArc
 50
336.858959
 51
0.0
  0
ARC
  5
85
330
2D
100
AcDbEntity
  8
0
  6
Continuous
 62
   100
100
AcDbCircle
 10
-7.237499999999998
 20
-6.928202999999999
 30
0.0
 40
2.4375
100
AcDbArc
 50
315.464866
 51
44.535134
  0
LINE
  5
86
330
2D
100
AcDbEntity
  8
0
  6
Continuous
 62
    80
100
AcDbLine
 10
-9.5
 20
-5.218670999999997
 30
0.0
 11
-5.5
 21
-8.637735000000001
 31
0.0
  0
LINE
  5
87
330
2D
100
AcDbEntity
  8
0
  6
Continuous
 62
    80
100
AcDbLine
 10
-5.5
 20
-5.218670999999997
 30
0.0
 11
-9.263994
 21
-8.436005999999999
 31
0.0
  0
ENDBLK
  5
88
330
2D
100
AcDbEntity
  8
0
370
    -2
100
AcDbBlockEnd
  0
BLOCK
  5
1AF
330
1AE
100
AcDbEntity
  8
0
  6
ByBlock
 62
     0
370
    -2
100
AcDbBlockBegin
  2
_NONE
 70
     2
 10
0.0
 20
0.0
 30
0.0
  3
_NONE
  1

  0
CIRCLE
  5
1B0
330
1AE
100
AcDbEntity
  8
0
  6
ByBlock
 62
     0
370
    -2
100
AcDbCircle
 10
0.0
 20
0.0
 30
0.0
 40
0.25
  0
ENDBLK
  5
1B1
330
1AE
100
AcDbEntity
  8
0
  6
ByBlock
 62
     0
370
    -2
100
AcDbBlockEnd
  0
BLOCK
  5
1DC
330
1DB
100
AcDbEntity
  8
0
  6
ByBlock
 62
     0
370
    -2
100
AcDbBlockBegin
  2
*D3
 70
     1
 10
0.0
 20
0.0
 30
0.0
  3
*D3
  1

  0
LINE
  5
1DD
330
1DB
100
AcDbEntity
  8
0
  6
Continuous
 62
     7
100
AcDbLine
 10
269.903305
 20
187.459555
 30
0.0
 11
269.903305
 21
157.459555
 31
0.0
  0
LINE
  5
1DE
330
1DB
100
AcDbEntity
  8
0
  6
Continuous
 62
     7
100
AcDbLine
 10
269.903305
 20
157.459555
 30
0.0
 11
269.903305
 21
130.996272
 31
0.0
  0
LINE
  5
1DF
330
1DB
100
AcDbEntity
  8
0
  6
Continuous
 62
     7
100
AcDbLine
 10
249.632035
 20
187.459555
 30
0.0
 11
270.603305
 21
187.459555
 31
0.0
  0
LINE
  5
1E0
330
1DB
100
AcDbEntity
  8
0
  6
Continuous
 62
     7
100
AcDbLine
 10
249.632035
 20
157.459555
 30
0.0
 11
270.603305
 21
157.459555
 31
0.0
  0
SOLID
  5
1E1
330
1DB
100
AcDbEntity
  8
0
  6
Continuous
 62
     7
100
AcDbTrace
 10
269.369971
 20
184.259555
 30
0.0
 11
270.43664
 21
184.259555
 31
0.0
 12
269.903305
 22
187.459555
 32
0.0
 13
269.903305
 23
187.459555
 33
0.0
  0
SOLID
  5
1E2
330
1DB
100
AcDbEntity
  8
0
  6
Continuous
 62
     7
100
AcDbTrace
 10
270.43664
 20
160.659556
 30
0.0
 11
269.369971
 21
160.659556
 31
0.0
 12
269.903305
 22
157.459555
 32
0.0
 13
269.903305
 23
157.459555
 33
0.0
  0
MTEXT
  5
1E4
102
{ACAD_XDICTIONARY
360
788
102
}
330
1DB
100
AcDbEntity
  8
0
  6
Continuous
 62
     7
100
AcDbMText
 10
267.303305
 20
140.29151
 30
0.0
 40
3.2
 41
0.0
 71
     5
 72
     1
  1
\A1;\U+220530{\A1;\H0.50x;\S 0^ -0.005;}
  7
MX_DIMTXSTY_9
 11
0.0
 21
1.0
 31
0.0
 73
     1
 44
1.0
1001
ACAD
1000
MTEXTBEGIN
1070
    73
1070
     1
1070
    44
1040
1.0
1070
    74
1070
     0
1000
MTEXTEND
  0
POINT
  5
1E5
330
1DB
100
AcDbEntity
  8
DEFPOINTS
  6
Continuous
 62
     0
100
AcDbPoint
 10
249.132035
 20
187.459555
 30
0.0
  0
POINT
  5
1E6
330
1DB
100
AcDbEntity
  8
DEFPOINTS
  6
Continuous
 62
     0
100
AcDbPoint
 10
249.132035
 20
157.459555
 30
0.0
  0
POINT
  5
1E7
330
1DB
100
AcDbEntity
  8
DEFPOINTS
  6
Continuous
 62
     0
100
AcDbPoint
 10
269.903305
 20
157.459555
 30
0.0
  0
ENDBLK
  5
1E8
330
1DB
100
AcDbEntity
  8
0
  6
ByBlock
 62
     0
370
    -2
100
AcDbBlockEnd
  0
BLOCK
  5
1EB
330
1EA
100
AcDbEntity
  8
0
  6
ByBlock
 62
     0
370
    -2
100
AcDbBlockBegin
  2
*D4
 70
     1
 10
0.0
 20
0.0
 30
0.0
  3
*D4
  1

  0
LINE
  5
1EC
330
1EA
100
AcDbEntity
  8
0
  6
Continuous
 62
     7
100
AcDbLine
 10
246.469883
 20
158.959555
 30
0.0
 11
246.469883
 21
185.959555
 31
0.0
  0
LINE
  5
1ED
330
1EA
100
AcDbEntity
  8
0
  6
Continuous
 62
     7
100
AcDbLine
 10
246.469883
 20
135.997945
 30
0.0
 11
246.469883
 21
158.959555
 31
0.0
  0
LINE
  5
1EE
330
1EA
100
AcDbEntity
  8
0
  6
Continuous
 62
     7
100
AcDbLine
 10
247.766009
 20
158.959555
 30
0.0
 11
245.769883
 21
158.959555
 31
0.0
  0
LINE
  5
1EF
330
1EA
100
AcDbEntity
  8
0
  6
Continuous
 62
     7
100
AcDbLine
 10
247.766009
 20
185.959555
 30
0.0
 11
245.769883
 21
185.959555
 31
0.0
  0
SOLID
  5
1F0
330
1EA
100
AcDbEntity
  8
0
  6
Continuous
 62
     7
100
AcDbTrace
 10
247.003218
 20
162.159556
 30
0.0
 11
245.936549
 21
162.159556
 31
0.0
 12
246.469883
 22
158.959555
 32
0.0
 13
246.469883
 23
158.959555
 33
0.0
  0
SOLID
  5
1F1
330
1EA
100
AcDbEntity
  8
0
  6
Continuous
 62
     7
100
AcDbTrace
 10
245.936549
 20
182.759555
 30
0.0
 11
247.003218
 21
182.759555
 31
0.0
 12
246.469883
 22
185.959555
 32
0.0
 13
246.469883
 23
185.959555
 33
0.0
  0
MTEXT
  5
1F2
330
1EA
100
AcDbEntity
  8
0
  6
Continuous
 62
     7
100
AcDbMText
 10
243.869883
 20
146.771278
 30
0.0
 40
3.2
 41
0.0
 71
     5
 72
     1
  1
\A1;27(2面幅)
  7
MX_DIMTXSTY_5
 11
0.0
 21
1.0
 31
0.0
 73
     1
 44
1.0
1001
ACAD
1000
MTEXTBEGIN
1070
    73
1070
     1
1070
    44
1040
1.0
1070
    74
1070
     0
1000
MTEXTEND
  0
POINT
  5
1F3
330
1EA
100
AcDbEntity
  8
DEFPOINTS
  6
Continuous
 62
     0
100
AcDbPoint
 10
248.266009
 20
158.959555
 30
0.0
  0
POINT
  5
1F4
330
1EA
100
AcDbEntity
  8
DEFPOINTS
  6
Continuous
 62
     0
100
AcDbPoint
 10
248.266009
 20
185.959555
 30
0.0
  0
POINT
  5
1F5
330
1EA
100
AcDbEntity
  8
DEFPOINTS
  6
Continuous
 62
     0
100
AcDbPoint
 10
246.469883
 20
185.959555
 30
0.0
  0
ENDBLK
  5
1F6
330
1EA
100
AcDbEntity
  8
0
  6
ByBlock
 62
     0
370
    -2
100
AcDbBlockEnd
  0
BLOCK
  5
1F9
330
1F8
100
AcDbEntity
  8
0
  6
ByBlock
 62
     0
370
    -2
100
AcDbBlockBegin
  2
*D5
 70
     1
 10
0.0
 20
0.0
 30
0.0
  3
*D5
  1

  0
LINE
  5
1FA
330
1F8
100
AcDbEntity
  8
0
  6
Continuous
 62
     7
100
AcDbLine
 10
201.699697
 20
157.459555
 30
0.0
 11
201.699697
 21
187.459555
 31
0.0
  0
LINE
  5
1FB
330
1F8
100
AcDbEntity
  8
0
  6
Continuous
 62
     7
100
AcDbLine
 10
201.699697
 20
139.977044
 30
0.0
 11
201.699697
 21
157.459555
 31
0.0
  0
LINE
  5
1FC
330
1F8
100
AcDbEntity
  8
0
  6
Continuous
 62
     7
100
AcDbLine
 10
220.899984
 20
157.459555
 30
0.0
 11
200.999697
 21
157.459555
 31
0.0
  0
LINE
  5
1FD
330
1F8
100
AcDbEntity
  8
0
  6
Continuous
 62
     7
100
AcDbLine
 10
220.899984
 20
187.459555
 30
0.0
 11
200.999697
 21
187.459555
 31
0.0
  0
SOLID
  5
1FE
330
1F8
100
AcDbEntity
  8
0
  6
Continuous
 62
     7
100
AcDbTrace
 10
202.233032
 20
160.659556
 30
0.0
 11
201.166363
 21
160.659556
 31
0.0
 12
201.699697
 22
157.459555
 32
0.0
 13
201.699697
 23
157.459555
 33
0.0
  0
SOLID
  5
1FF
330
1F8
100
AcDbEntity
  8
0
  6
Continuous
 62
     7
100
AcDbTrace
 10
201.166363
 20
184.259555
 30
0.0
 11
202.233032
 21
184.259555
 31
0.0
 12
201.699697
 22
187.459555
 32
0.0
 13
201.699697
 23
187.459555
 33
0.0
  0
MTEXT
  5
201
102
{ACAD_XDICTIONARY
360
78A
102
}
330
1F8
100
AcDbEntity
  8
0
  6
Continuous
 62
     7
100
AcDbMText
 10
199.099697
 20
144.853234
 30
0.0
 40
3.2
 41
0.0
 71
     5
 72
     1
  1
\A1;\U+220530
  7
MX_DIMTXSTY_10
 11
0.0
 21
1.0
 31
0.0
 73
     1
 44
1.0
1001
ACAD
1000
MTEXTBEGIN
1070
    73
1070
     1
1070
    44
1040
1.0
1070
    74
1070
     0
1000
MTEXTEND
  0
POINT
  5
202
330
1F8
100
AcDbEntity
  8
DEFPOINTS
  6
Continuous
 62
     0
100
AcDbPoint
 10
221.399984
 20
157.459555
 30
0.0
  0
POINT
  5
203
330
1F8
100
AcDbEntity
  8
DEFPOINTS
  6
Continuous
 62
     0
100
AcDbPoint
 10
221.399984
 20
187.459555
 30
0.0
  0
POINT
  5
204
330
1F8
100
AcDbEntity
  8
DEFPOINTS
  6
Continuous
 62
     0
100
AcDbPoint
 10
201.699697
 20
187.459555
 30
0.0
  0
ENDBLK
  5
205
330
1F8
100
AcDbEntity
  8
0
  6
ByBlock
 62
     0
370
    -2
100
AcDbBlockEnd
  0
BLOCK
  5
222
330
221
100
AcDbEntity
  8
0
  6
ByBlock
 62
     0
370
    -2
100
AcDbBlockBegin
  2
*D6
 70
     1
 10
0.0
 20
0.0
 30
0.0
  3
*D6
  1

  0
LINE
  5
223
330
221
100
AcDbEntity
  8
0
  6
Continuous
 62
     7
100
AcDbLine
 10
210.188446
 20
117.459555
 30
0.0
 11
273.415583
 21
117.459555
 31
0.0
  0
LINE
  5
224
330
221
100
AcDbEntity
  8
0
  6
Continuous
 62
     7
100
AcDbLine
 10
210.188446
 20
98.426839
 30
0.0
 11
210.188446
 21
118.159555
 31
0.0
  0
LINE
  5
225
330
221
100
AcDbEntity
  8
0
  6
Continuous
 62
     7
100
AcDbLine
 10
273.415583
 20
100.176839
 30
0.0
 11
273.415583
 21
118.159555
 31
0.0
  0
SOLID
  5
226
330
221
100
AcDbEntity
  8
0
  6
Continuous
 62
     7
100
AcDbTrace
 10
213.388446
 20
116.926221
 30
0.0
 11
213.388446
 21
117.99289
 31
0.0
 12
210.188446
 22
117.459555
 32
0.0
 13
210.188446
 23
117.459555
 33
0.0
  0
SOLID
  5
227
330
221
100
AcDbEntity
  8
0
  6
Continuous
 62
     7
100
AcDbTrace
 10
270.215583
 20
117.99289
 30
0.0
 11
270.215583
 21
116.926221
 31
0.0
 12
273.415583
 22
117.459555
 32
0.0
 13
273.415583
 23
117.459555
 33
0.0
  0
MTEXT
  5
228
330
221
100
AcDbEntity
  8
0
  6
Continuous
 62
     7
100
AcDbMText
 10
242.922016
 20
120.059555
 30
0.0
 40
3.2
 41
0.0
 71
     5
 72
     1
  1
\A1;(500)
  7
MX_DIMTXSTY_5
 73
     1
 44
1.0
1001
ACAD
1000
MTEXTBEGIN
1070
    73
1070
     1
1070
    44
1040
1.0
1070
    74
1070
     0
1000
MTEXTEND
  0
POINT
  5
229
330
221
100
AcDbEntity
  8
DEFPOINTS
  6
Continuous
 62
     0
100
AcDbPoint
 10
210.188446
 20
97.926839
 30
0.0
  0
POINT
  5
22A
330
221
100
AcDbEntity
  8
DEFPOINTS
  6
Continuous
 62
     0
100
AcDbPoint
 10
273.415583
 20
99.676839
 30
0.0
  0
POINT
  5
22B
330
221
100
AcDbEntity
  8
DEFPOINTS
  6
Continuous
 62
     0
100
AcDbPoint
 10
273.415583
 20
117.459555
 30
0.0
  0
ENDBLK
  5
22C
330
221
100
AcDbEntity
  8
0
  6
ByBlock
 62
     0
370
    -2
100
AcDbBlockEnd
  0
BLOCK
  5
22F
330
22E
100
AcDbEntity
  8
0
  6
ByBlock
 62
     0
370
    -2
100
AcDbBlockBegin
  2
*D7
 70
     1
 10
0.0
 20
0.0
 30
0.0
  3
*D7
  1

  0
LINE
  5
230
330
22E
100
AcDbEntity
  8
0
  6
Continuous
 62
     7
100
AcDbLine
 10
32.83508
 20
117.459555
 30
0.0
 11
153.688446
 21
117.459555
 31
0.0
  0
LINE
  5
231
330
22E
100
AcDbEntity
  8
0
  6
Continuous
 62
     7
100
AcDbLine
 10
32.83508
 20
94.876838
 30
0.0
 11
32.83508
 21
118.159555
 31
0.0
  0
LINE
  5
232
330
22E
100
AcDbEntity
  8
0
  6
Continuous
 62
     7
100
AcDbLine
 10
153.688446
 20
100.176839
 30
0.0
 11
153.688446
 21
118.159555
 31
0.0
  0
SOLID
  5
233
330
22E
100
AcDbEntity
  8
0
  6
Continuous
 62
     7
100
AcDbTrace
 10
36.03508
 20
116.926221
 30
0.0
 11
36.03508
 21
117.99289
 31
0.0
 12
32.83508
 22
117.459555
 32
0.0
 13
32.83508
 23
117.459555
 33
0.0
  0
SOLID
  5
234
330
22E
100
AcDbEntity
  8
0
  6
Continuous
 62
     7
100
AcDbTrace
 10
150.488445
 20
117.99289
 30
0.0
 11
150.488445
 21
116.926221
 31
0.0
 12
153.688446
 22
117.459555
 32
0.0
 13
153.688446
 23
117.459555
 33
0.0
  0
MTEXT
  5
235
330
22E
100
AcDbEntity
  8
0
  6
Continuous
 62
     7
100
AcDbMText
 10
94.27509699999999
 20
120.059555
 30
0.0
 40
3.2
 41
0.0
 71
     5
 72
     1
  1
\A1;(5000)
  7
MX_DIMTXSTY_5
 73
     1
 44
1.0
1001
ACAD
1000
MTEXTBEGIN
1070
    73
1070
     1
1070
    44
1040
1.0
1070
    74
1070
     0
1000
MTEXTEND
  0
POINT
  5
236
330
22E
100
AcDbEntity
  8
DEFPOINTS
  6
Continuous
 62
     0
100
AcDbPoint
 10
32.83508
 20
94.376838
 30
0.0
  0
POINT
  5
237
330
22E
100
AcDbEntity
  8
DEFPOINTS
  6
Continuous
 62
     0
100
AcDbPoint
 10
153.688446
 20
99.676839
 30
0.0
  0
POINT
  5
238
330
22E
100
AcDbEntity
  8
DEFPOINTS
  6
Continuous
 62
     0
100
AcDbPoint
 10
153.688446
 20
117.459555
 30
0.0
  0
ENDBLK
  5
239
330
22E
100
AcDbEntity
  8
0
  6
ByBlock
 62
     0
370
    -2
100
AcDbBlockEnd
  0
BLOCK
  5
3B4
330
3B2
100
AcDbEntity
  8
0
  6
ByBlock
 62
     0
370
    -2
100
AcDbBlockBegin
  2
$KST876F
 70
     2
 10
0.0
 20
0.0
 30
0.0
  3
$KST876F
  1

  0
POLYLINE
  5
3B5
330
3B2
100
AcDbEntity
  8
0
  6
ByBlock
 62
     0
370
    -2
100
AcDb2dPolyline
 66
     1
 10
0.0
 20
0.0
 30
0.0
  0
VERTEX
  5
3B6
330
3B5
100
AcDbEntity
  8
0
  6
ByBlock
 62
     0
370
    -2
100
AcDbVertex
100
AcDb2dVertex
 10
-0.334513
 20
0.119469
 30
0.0
  0
VERTEX
  5
3B7
330
3B5
100
AcDbEntity
  8
0
  6
ByBlock
 62
     0
370
    -2
100
AcDbVertex
100
AcDb2dVertex
 10
-0.318584
 20
0.175221
 30
0.0
  0
VERTEX
  5
3B8
330
3B5
100
AcDbEntity
  8
0
  6
ByBlock
 62
     0
370
    -2
100
AcDbVertex
100
AcDb2dVertex
 10
-0.29469
 20
0.199115
 30
0.0
  0
VERTEX
  5
3B9
330
3B5
100
AcDbEntity
  8
0
  6
ByBlock
 62
     0
370
    -2
100
AcDbVertex
100
AcDb2dVertex
 10
-0.262832
 20
0.215044
 30
0.0
  0
VERTEX
  5
3BA
330
3B5
100
AcDbEntity
  8
0
  6
ByBlock
 62
     0
370
    -2
100
AcDbVertex
100
AcDb2dVertex
 10
-0.215044
 20
0.215044
 30
0.0
  0
VERTEX
  5
3BB
330
3B5
100
AcDbEntity
  8
0
  6
ByBlock
 62
     0
370
    -2
100
AcDbVertex
100
AcDb2dVertex
 10
-0.183186
 20
0.199115
 30
0.0
  0
VERTEX
  5
3BC
330
3B5
100
AcDbEntity
  8
0
  6
ByBlock
 62
     0
370
    -2
100
AcDbVertex
100
AcDb2dVertex
 10
-0.167257
 20
0.175221
 30
0.0
  0
VERTEX
  5
3BD
330
3B5
100
AcDbEntity
  8
0
  6
ByBlock
 62
     0
370
    -2
100
AcDbVertex
100
AcDb2dVertex
 10
-0.167257
 20
-0.29469
 30
0.0
  0
SEQEND
  5
3BE
330
3B5
100
AcDbEntity
  8
0
  6
ByBlock
 62
     0
370
    -2
  0
POLYLINE
  5
3BF
330
3B2
100
AcDbEntity
  8
0
  6
ByBlock
 62
     0
370
    -2
100
AcDb2dPolyline
 66
     1
 10
0.0
 20
0.0
 30
0.0
  0
VERTEX
  5
3C0
330
3BF
100
AcDbEntity
  8
0
  6
ByBlock
 62
     0
370
    -2
100
AcDbVertex
100
AcDb2dVertex
 10
-0.167257
 20
0.119469
 30
0.0
  0
VERTEX
  5
3C1
330
3BF
100
AcDbEntity
  8
0
  6
ByBlock
 62
     0
370
    -2
100
AcDbVertex
100
AcDb2dVertex
 10
-0.151327
 20
0.175221
 30
0.0
  0
VERTEX
  5
3C2
330
3BF
100
AcDbEntity
  8
0
  6
ByBlock
 62
     0
370
    -2
100
AcDbVertex
100
AcDb2dVertex
 10
-0.127434
 20
0.199115
 30
0.0
  0
VERTEX
  5
3C3
330
3BF
100
AcDbEntity
  8
0
  6
ByBlock
 62
     0
370
    -2
100
AcDbVertex
100
AcDb2dVertex
 10
-0.095575
 20
0.215044
 30
0.0
  0
VERTEX
  5
3C4
330
3BF
100
AcDbEntity
  8
0
  6
ByBlock
 62
     0
370
    -2
100
AcDbVertex
100
AcDb2dVertex
 10
-0.039823
 20
0.215044
 30
0.0
  0
VERTEX
  5
3C5
330
3BF
100
AcDbEntity
  8
0
  6
ByBlock
 62
     0
370
    -2
100
AcDbVertex
100
AcDb2dVertex
 10
-0.007965
 20
0.199115
 30
0.0
  0
VERTEX
  5
3C6
330
3BF
100
AcDbEntity
  8
0
  6
ByBlock
 62
     0
370
    -2
100
AcDbVertex
100
AcDb2dVertex
 10
0.007965
 20
0.175221
 30
0.0
  0
VERTEX
  5
3C7
330
3BF
100
AcDbEntity
  8
0
  6
ByBlock
 62
     0
370
    -2
100
AcDbVertex
100
AcDb2dVertex
 10
0.007965
 20
-0.29469
 30
0.0
  0
SEQEND
  5
3C8
330
3BF
100
AcDbEntity
  8
0
  6
ByBlock
 62
     0
370
    -2
  0
POLYLINE
  5
3C9
330
3B2
100
AcDbEntity
  8
0
  6
ByBlock
 62
     0
370
    -2
100
AcDb2dPolyline
 66
     1
 10
0.0
 20
0.0
 30
0.0
  0
VERTEX
  5
3CA
330
3C9
100
AcDbEntity
  8
0
  6
ByBlock
 62
     0
370
    -2
100
AcDbVertex
100
AcDb2dVertex
 10
0.079646
 20
-0.29469
 30
0.0
  0
VERTEX
  5
3CB
330
3C9
100
AcDbEntity
  8
0
  6
ByBlock
 62
     0
370
    -2
100
AcDbVertex
100
AcDb2dVertex
 10
0.079646
 20
0.215044
 30
0.0
  0
VERTEX
  5
3CC
330
3C9
100
AcDbEntity
  8
0
  6
ByBlock
 62
     0
370
    -2
100
AcDbVertex
100
AcDb2dVertex
 10
0.039823
 20
0.215044
 30
0.0
  0
SEQEND
  5
3CD
330
3C9
100
AcDbEntity
  8
0
  6
ByBlock
 62
     0
370
    -2
  0
POLYLINE
  5
3CE
330
3B2
100
AcDbEntity
  8
0
  6
ByBlock
 62
     0
370
    -2
100
AcDb2dPolyline
 66
     1
 10
0.0
 20
0.0
 30
0.0
  0
VERTEX
  5
3CF
330
3CE
100
AcDbEntity
  8
0
  6
ByBlock
 62
     0
370
    -2
100
AcDbVertex
100
AcDb2dVertex
 10
0.079646
 20
0.119469
 30
0.0
  0
VERTEX
  5
3D0
330
3CE
100
AcDbEntity
  8
0
  6
ByBlock
 62
     0
370
    -2
100
AcDbVertex
100
AcDb2dVertex
 10
0.095575
 20
0.175221
 30
0.0
  0
VERTEX
  5
3D1
330
3CE
100
AcDbEntity
  8
0
  6
ByBlock
 62
     0
370
    -2
100
AcDbVertex
100
AcDb2dVertex
 10
0.119469
 20
0.199115
 30
0.0
  0
VERTEX
  5
3D2
330
3CE
100
AcDbEntity
  8
0
  6
ByBlock
 62
     0
370
    -2
100
AcDbVertex
100
AcDb2dVertex
 10
0.151327
 20
0.215044
 30
0.0
  0
VERTEX
  5
3D3
330
3CE
100
AcDbEntity
  8
0
  6
ByBlock
 62
     0
370
    -2
100
AcDbVertex
100
AcDb2dVertex
 10
0.199115
 20
0.215044
 30
0.0
  0
VERTEX
  5
3D4
330
3CE
100
AcDbEntity
  8
0
  6
ByBlock
 62
     0
370
    -2
100
AcDbVertex
100
AcDb2dVertex
 10
0.230973
 20
0.199115
 30
0.0
  0
VERTEX
  5
3D5
330
3CE
100
AcDbEntity
  8
0
  6
ByBlock
 62
     0
370
    -2
100
AcDbVertex
100
AcDb2dVertex
 10
0.246903
 20
0.175221
 30
0.0
  0
VERTEX
  5
3D6
330
3CE
100
AcDbEntity
  8
0
  6
ByBlock
 62
     0
370
    -2
100
AcDbVertex
100
AcDb2dVertex
 10
0.246903
 20
-0.29469
 30
0.0
  0
SEQEND
  5
3D7
330
3CE
100
AcDbEntity
  8
0
  6
ByBlock
 62
     0
370
    -2
  0
POLYLINE
  5
3D8
330
3B2
100
AcDbEntity
  8
0
  6
ByBlock
 62
     0
370
    -2
100
AcDb2dPolyline
 66
     1
 10
0.0
 20
0.0
 30
0.0
  0
VERTEX
  5
3D9
330
3D8
100
AcDbEntity
  8
0
  6
ByBlock
 62
     0
370
    -2
100
AcDbVertex
100
AcDb2dVertex
 10
0.246903
 20
0.119469
 30
0.0
  0
VERTEX
  5
3DA
330
3D8
100
AcDbEntity
  8
0
  6
ByBlock
 62
     0
370
    -2
100
AcDbVertex
100
AcDb2dVertex
 10
0.262832
 20
0.175221
 30
0.0
  0
VERTEX
  5
3DB
330
3D8
100
AcDbEntity
  8
0
  6
ByBlock
 62
     0
370
    -2
100
AcDbVertex
100
AcDb2dVertex
 10
0.286726
 20
0.199115
 30
0.0
  0
VERTEX
  5
3DC
330
3D8
100
AcDbEntity
  8
0
  6
ByBlock
 62
     0
370
    -2
100
AcDbVertex
100
AcDb2dVertex
 10
0.318584
 20
0.215044
 30
0.0
  0
VERTEX
  5
3DD
330
3D8
100
AcDbEntity
  8
0
  6
ByBlock
 62
     0
370
    -2
100
AcDbVertex
100
AcDb2dVertex
 10
0.374336
 20
0.215044
 30
0.0
  0
VERTEX
  5
3DE
330
3D8
100
AcDbEntity
  8
0
  6
ByBlock
 62
     0
370
    -2
100
AcDbVertex
100
AcDb2dVertex
 10
0.406195
 20
0.199115
 30
0.0
  0
VERTEX
  5
3DF
330
3D8
100
AcDbEntity
  8
0
  6
ByBlock
 62
     0
370
    -2
100
AcDbVertex
100
AcDb2dVertex
 10
0.422124
 20
0.175221
 30
0.0
  0
VERTEX
  5
3E0
330
3D8
100
AcDbEntity
  8
0
  6
ByBlock
 62
     0
370
    -2
100
AcDbVertex
100
AcDb2dVertex
 10
0.422124
 20
-0.29469
 30
0.0
  0
SEQEND
  5
3E1
330
3D8
100
AcDbEntity
  8
0
  6
ByBlock
 62
     0
370
    -2
  0
POLYLINE
  5
3E2
330
3B2
100
AcDbEntity
  8
0
  6
ByBlock
 62
     0
370
    -2
100
AcDb2dPolyline
 66
     1
 10
0.0
 20
0.0
 30
0.0
  0
VERTEX
  5
3E3
330
3E2
100
AcDbEntity
  8
0
  6
ByBlock
 62
     0
370
    -2
100
AcDbVertex
100
AcDb2dVertex
 10
0.382301
 20
-0.29469
 30
0.0
  0
VERTEX
  5
3E4
330
3E2
100
AcDbEntity
  8
0
  6
ByBlock
 62
     0
370
    -2
100
AcDbVertex
100
AcDb2dVertex
 10
0.4619470000000003
 20
-0.29469
 30
0.0
  0
SEQEND
  5
3E5
330
3E2
100
AcDbEntity
  8
0
  6
ByBlock
 62
     0
370
    -2
  0
POLYLINE
  5
3E6
330
3B2
100
AcDbEntity
  8
0
  6
ByBlock
 62
     0
370
    -2
100
AcDb2dPolyline
 66
     1
 10
0.0
 20
0.0
 30
0.0
  0
VERTEX
  5
3E7
330
3E6
100
AcDbEntity
  8
0
  6
ByBlock
 62
     0
370
    -2
100
AcDbVertex
100
AcDb2dVertex
 10
0.20708
 20
-0.29469
 30
0.0
  0
VERTEX
  5
3E8
330
3E6
100
AcDbEntity
  8
0
  6
ByBlock
 62
     0
370
    -2
100
AcDbVertex
100
AcDb2dVertex
 10
0.286726
 20
-0.29469
 30
0.0
  0
SEQEND
  5
3E9
330
3E6
100
AcDbEntity
  8
0
  6
ByBlock
 62
     0
370
    -2
  0
POLYLINE
  5
3EA
330
3B2
100
AcDbEntity
  8
0
  6
ByBlock
 62
     0
370
    -2
100
AcDb2dPolyline
 66
     1
 10
0.0
 20
0.0
 30
0.0
  0
VERTEX
  5
3EB
330
3EA
100
AcDbEntity
  8
0
  6
ByBlock
 62
     0
370
    -2
100
AcDbVertex
100
AcDb2dVertex
 10
0.055752
 20
-0.29469
 30
0.0
  0
VERTEX
  5
3EC
330
3EA
100
AcDbEntity
  8
0
  6
ByBlock
 62
     0
370
    -2
100
AcDbVertex
100
AcDb2dVertex
 10
0.119469
 20
-0.29469
 30
0.0
  0
SEQEND
  5
3ED
330
3EA
100
AcDbEntity
  8
0
  6
ByBlock
 62
     0
370
    -2
  0
POLYLINE
  5
3EE
330
3B2
100
AcDbEntity
  8
0
  6
ByBlock
 62
     0
370
    -2
100
AcDb2dPolyline
 66
     1
 10
0.0
 20
0.0
 30
0.0
  0
VERTEX
  5
3EF
330
3EE
100
AcDbEntity
  8
0
  6
ByBlock
 62
     0
370
    -2
100
AcDbVertex
100
AcDb2dVertex
 10
-0.031858
 20
-0.29469
 30
0.0
  0
VERTEX
  5
3F0
330
3EE
100
AcDbEntity
  8
0
  6
ByBlock
 62
     0
370
    -2
100
AcDbVertex
100
AcDb2dVertex
 10
0.031858
 20
-0.29469
 30
0.0
  0
SEQEND
  5
3F1
330
3EE
100
AcDbEntity
  8
0
  6
ByBlock
 62
     0
370
    -2
  0
POLYLINE
  5
3F2
330
3B2
100
AcDbEntity
  8
0
  6
ByBlock
 62
     0
370
    -2
100
AcDb2dPolyline
 66
     1
 10
0.0
 20
0.0
 30
0.0
  0
VERTEX
  5
3F3
330
3F2
100
AcDbEntity
  8
0
  6
ByBlock
 62
     0
370
    -2
100
AcDbVertex
100
AcDb2dVertex
 10
-0.20708
 20
-0.29469
 30
0.0
  0
VERTEX
  5
3F4
330
3F2
100
AcDbEntity
  8
0
  6
ByBlock
 62
     0
370
    -2
100
AcDbVertex
100
AcDb2dVertex
 10
-0.127434
 20
-0.29469
 30
0.0
  0
SEQEND
  5
3F5
330
3F2
100
AcDbEntity
  8
0
  6
ByBlock
 62
     0
370
    -2
  0
POLYLINE
  5
3F6
330
3B2
100
AcDbEntity
  8
0
  6
ByBlock
 62
     0
370
    -2
100
AcDb2dPolyline
 66
     1
 10
0.0
 20
0.0
 30
0.0
  0
VERTEX
  5
3F7
330
3F6
100
AcDbEntity
  8
0
  6
ByBlock
 62
     0
370
    -2
100
AcDbVertex
100
AcDb2dVertex
 10
-0.374336
 20
-0.29469
 30
0.0
  0
VERTEX
  5
3F8
330
3F6
100
AcDbEntity
  8
0
  6
ByBlock
 62
     0
370
    -2
100
AcDbVertex
100
AcDb2dVertex
 10
-0.29469
 20
-0.29469
 30
0.0
  0
SEQEND
  5
3F9
330
3F6
100
AcDbEntity
  8
0
  6
ByBlock
 62
     0
370
    -2
  0
POLYLINE
  5
3FA
330
3B2
100
AcDbEntity
  8
0
  6
ByBlock
 62
     0
370
    -2
100
AcDb2dPolyline
 66
     1
 10
0.0
 20
0.0
 30
0.0
  0
VERTEX
  5
3FB
330
3FA
100
AcDbEntity
  8
0
  6
ByBlock
 62
     0
370
    -2
100
AcDbVertex
100
AcDb2dVertex
 10
-0.334513
 20
-0.29469
 30
0.0
  0
VERTEX
  5
3FC
330
3FA
100
AcDbEntity
  8
0
  6
ByBlock
 62
     0
370
    -2
100
AcDbVertex
100
AcDb2dVertex
 10
-0.334513
 20
0.215044
 30
0.0
  0
VERTEX
  5
3FD
330
3FA
100
AcDbEntity
  8
0
  6
ByBlock
 62
     0
370
    -2
100
AcDbVertex
100
AcDb2dVertex
 10
-0.374336
 20
0.215044
 30
0.0
  0
SEQEND
  5
3FE
330
3FA
100
AcDbEntity
  8
0
  6
ByBlock
 62
     0
370
    -2
  0
ENDBLK
  5
3FF
330
3B2
100
AcDbEntity
  8
0
  6
ByBlock
 62
     0
370
    -2
100
AcDbBlockEnd
  0
BLOCK
  5
4DD
330
4DB
100
AcDbEntity
  8
0
370
     0
100
AcDbBlockBegin
  2
GENAXEH
 70
     0
 10
0.0
 20
0.0
 30
0.0
  3
GENAXEH
  1

  0
LINE
  5
4DC
330
4DB
100
AcDbEntity
  8
0
100
AcDbLine
 10
-1.0
 20
0.0
 30
0.0
 11
1.0
 21
0.0
 31
0.0
  0
ENDBLK
  5
4DE
330
4DB
100
AcDbEntity
  8
0
370
     0
100
AcDbBlockEnd
  0
BLOCK
  5
5E5
330
5E4
100
AcDbEntity
  8
0
370
     0
100
AcDbBlockBegin
  2
*D12
 70
     1
 10
0.0
 20
0.0
 30
0.0
  3
*D12
  1

  0
LINE
  5
B7B
330
5E4
100
AcDbEntity
  8
0
  6
Continuous
 62
     0
370
    -2
100
AcDbLine
 10
-176.366375
 20
177.959555
 30
0.0
 11
-176.366375
 21
232.588428
 31
0.0
  0
LINE
  5
B7C
330
5E4
100
AcDbEntity
  8
0
  6
Continuous
 62
     0
370
    -2
100
AcDbLine
 10
-260.566375
 20
178.259558
 30
0.0
 11
-260.566375
 21
232.588428
 31
0.0
  0
LINE
  5
B7D
330
5E4
100
AcDbEntity
  8
0
  6
Continuous
 62
     0
370
    -2
100
AcDbLine
 10
-179.366375
 20
230.302428
 30
0.0
 11
-257.566375
 21
230.302428
 31
0.0
  0
SOLID
  5
B7E
330
5E4
100
AcDbEntity
  8
0
  6
Continuous
 62
     0
370
     0
100
AcDbTrace
 10
-179.366375
 20
230.802428
 30
0.0
 11
-179.366375
 21
229.802428
 31
0.0
 12
-176.366375
 22
230.302428
 32
0.0
 13
-176.366375
 23
230.302428
 33
0.0
  0
SOLID
  5
B7F
330
5E4
100
AcDbEntity
  8
0
  6
Continuous
 62
     0
370
     0
100
AcDbTrace
 10
-257.566375
 20
230.802428
 30
0.0
 11
-257.566375
 21
229.802428
 31
0.0
 12
-260.566375
 22
230.302428
 32
0.0
 13
-260.566375
 23
230.302428
 33
0.0
  0
MTEXT
  5
B80
330
5E4
100
AcDbEntity
  8
0
  6
Continuous
 62
     0
100
AcDbMText
 10
-189.066375
 20
232.902428
 30
0.0
 40
3.2
 41
0.0
 71
     5
 72
     1
  1
\A1;（84）
  7
MX_DIMTXSTY_1
 73
     1
 44
0.9
1001
ACAD
1000
MTEXTBEGIN
1070
    73
1070
     1
1070
    44
1040
0.9
1070
    74
1070
     0
1000
MTEXTEND
  0
POINT
  5
B81
330
5E4
100
AcDbEntity
  8
DEFPOINTS
  6
Continuous
 62
     0
370
     0
100
AcDbPoint
 10
-176.366375
 20
176.959555
 30
0.0
  0
POINT
  5
B82
330
5E4
100
AcDbEntity
  8
DEFPOINTS
  6
Continuous
 62
     0
370
     0
100
AcDbPoint
 10
-260.566375
 20
177.259558
 30
0.0
  0
POINT
  5
B83
330
5E4
100
AcDbEntity
  8
DEFPOINTS
  6
Continuous
 62
     0
370
     0
100
AcDbPoint
 10
-260.566375
 20
230.302428
 30
0.0
  0
ENDBLK
  5
5E6
330
5E4
100
AcDbEntity
  8
0
370
     0
100
AcDbBlockEnd
  0
BLOCK
  5
5F1
330
5F0
100
AcDbEntity
  8
0
370
     0
100
AcDbBlockBegin
  2
*D13
 70
     1
 10
0.0
 20
0.0
 30
0.0
  3
*D13
  1

  0
LINE
  5
CC3
330
5F0
100
AcDbEntity
  8
0
  6
Continuous
 62
     0
370
    -2
100
AcDbLine
 10
-201.0144333218523
 20
169.459555
 30
0.0
 11
-201.0144333218523
 21
155.459555
 31
0.0
  0
LINE
  5
CC4
330
5F0
100
AcDbEntity
  8
0
  6
Continuous
 62
     0
370
    -2
100
AcDbLine
 10
-201.0144333218523
 20
152.459555
 30
0.0
 11
-201.0144333218523
 21
131.801955
 31
0.0
  0
SOLID
  5
CC5
330
5F0
100
AcDbEntity
  8
0
  6
Continuous
 62
     0
370
     0
100
AcDbTrace
 10
-201.5144333218524
 20
169.459555
 30
0.0
 11
-200.5144333218523
 21
169.459555
 31
0.0
 12
-201.0144333218523
 22
172.459555
 32
0.0
 13
-201.0144333218523
 23
172.459555
 33
0.0
  0
SOLID
  5
CC6
330
5F0
100
AcDbEntity
  8
0
  6
Continuous
 62
     0
370
     0
100
AcDbTrace
 10
-201.5144333218524
 20
155.459555
 30
0.0
 11
-200.5144333218523
 21
155.459555
 31
0.0
 12
-201.0144333218523
 22
152.459555
 32
0.0
 13
-201.0144333218523
 23
152.459555
 33
0.0
  0
MTEXT
  5
CC7
102
{ACAD_XDICTIONARY
360
EAE
102
}
330
5F0
100
AcDbEntity
  8
0
  6
Continuous
 62
     0
100
AcDbMText
 10
-204.6650999885189
 20
140.234275
 30
0.0
 40
3.2
 41
0.0
 71
     5
 72
     1
  1
\A1;\U+220520{}{\H0.71x;\C3;\S 0^ -0.1;}
  7
MX_DIMTXSTY_3
 11
0.0000000000000001
 21
1.0
 31
0.0
 73
     1
 44
0.9
1001
ACAD
1000
MTEXTBEGIN
1070
    73
1070
     1
1070
    44
1040
0.9
1070
    74
1070
     0
1000
MTEXTEND
  0
POINT
  5
CC8
330
5F0
100
AcDbEntity
  8
DEFPOINTS
  6
Continuous
 62
     0
370
     0
100
AcDbPoint
 10
-222.5663750000001
 20
152.459555
 30
0.0
  0
POINT
  5
CC9
330
5F0
100
AcDbEntity
  8
DEFPOINTS
  6
Continuous
 62
     0
370
     0
100
AcDbPoint
 10
-222.5663750000001
 20
172.459555
 30
0.0
  0
POINT
  5
CCA
330
5F0
100
AcDbEntity
  8
DEFPOINTS
  6
Continuous
 62
     0
370
     0
100
AcDbPoint
 10
-201.0144333218523
 20
172.459555
 30
0.0
  0
ENDBLK
  5
5F2
330
5F0
100
AcDbEntity
  8
0
370
     0
100
AcDbBlockEnd
  0
BLOCK
  5
607
330
606
100
AcDbEntity
  8
0
370
     0
100
AcDbBlockBegin
  2
*D15
 70
     1
 10
0.0
 20
0.0
 30
0.0
  3
*D15
  1

  0
LINE
  5
8E4
330
606
100
AcDbEntity
  8
0
  6
Continuous
 62
     0
370
    -2
100
AcDbLine
 10
-222.566375
 20
192.459555
 30
0.0
 11
-222.566375
 21
206.320444
 31
0.0
  0
LINE
  5
8E5
330
606
100
AcDbEntity
  8
0
  6
Continuous
 62
     0
370
    -2
100
AcDbLine
 10
-230.566375
 20
192.459555
 30
0.0
 11
-230.566375
 21
206.320444
 31
0.0
  0
LINE
  5
8E6
330
606
100
AcDbEntity
  8
0
  6
Continuous
 62
     0
370
    -2
100
AcDbLine
 10
-225.566375
 20
204.034444
 30
0.0
 11
-227.566375
 21
204.034444
 31
0.0
  0
SOLID
  5
8E7
330
606
100
AcDbEntity
  8
0
  6
Continuous
 62
     0
370
     0
100
AcDbTrace
 10
-225.566375
 20
204.534444
 30
0.0
 11
-225.566375
 21
203.534444
 31
0.0
 12
-222.566375
 22
204.034444
 32
0.0
 13
-222.566375
 23
204.034444
 33
0.0
  0
SOLID
  5
8E8
330
606
100
AcDbEntity
  8
0
  6
Continuous
 62
     0
370
     0
100
AcDbTrace
 10
-227.566375
 20
204.534444
 30
0.0
 11
-227.566375
 21
203.534444
 31
0.0
 12
-230.566375
 22
204.034444
 32
0.0
 13
-230.566375
 23
204.034444
 33
0.0
  0
MTEXT
  5
8E9
330
606
100
AcDbEntity
  8
0
  6
Continuous
 62
     0
100
AcDbMText
 10
-225.566375
 20
206.634444
 30
0.0
 40
3.2
 41
0.0
 71
     5
 72
     1
  1
\A1;8
  7
MX_DIMTXSTY_5
 73
     1
 44
0.9
1001
ACAD
1000
MTEXTBEGIN
1070
    73
1070
     1
1070
    44
1040
0.9
1070
    74
1070
     0
1000
MTEXTEND
  0
POINT
  5
8EA
330
606
100
AcDbEntity
  8
DEFPOINTS
  6
Continuous
 62
     0
370
     0
100
AcDbPoint
 10
-222.566375
 20
191.459555
 30
0.0
  0
POINT
  5
8EB
330
606
100
AcDbEntity
  8
DEFPOINTS
  6
Continuous
 62
     0
370
     0
100
AcDbPoint
 10
-230.566375
 20
191.459555
 30
0.0
  0
POINT
  5
8EC
330
606
100
AcDbEntity
  8
DEFPOINTS
  6
Continuous
 62
     0
370
     0
100
AcDbPoint
 10
-230.566375
 20
204.034444
 30
0.0
  0
ENDBLK
  5
608
330
606
100
AcDbEntity
  8
0
370
     0
100
AcDbBlockEnd
  0
BLOCK
  5
613
330
612
100
AcDbEntity
  8
0
370
     0
100
AcDbBlockBegin
  2
*D16
 70
     1
 10
0.0
 20
0.0
 30
0.0
  3
*D16
  1

  0
LINE
  5
ABC
330
612
100
AcDbEntity
  8
1
  6
Continuous
 62
     0
370
    -2
100
AcDbLine
 10
-241.4188701234264
 20
176.259555
 30
0.0
 11
-241.4188701234264
 21
148.659555
 31
0.0
  0
LINE
  5
ABD
330
612
100
AcDbEntity
  8
1
  6
Continuous
 62
     0
370
    -2
100
AcDbLine
 10
-241.4188701234264
 20
145.459555
 30
0.0
 11
-241.4188701234264
 21
123.1070216666667
 31
0.0
  0
SOLID
  5
ABE
330
612
100
AcDbEntity
  8
1
  6
Continuous
 62
     0
370
     0
100
AcDbTrace
 10
-241.9522034567597
 20
176.259555
 30
0.0
 11
-240.8855367900931
 21
176.259555
 31
0.0
 12
-241.4188701234264
 22
179.459555
 32
0.0
 13
-241.4188701234264
 23
179.459555
 33
0.0
  0
SOLID
  5
ABF
330
612
100
AcDbEntity
  8
1
  6
Continuous
 62
     0
370
     0
100
AcDbTrace
 10
-241.9522034567597
 20
148.659555
 30
0.0
 11
-240.8855367900931
 21
148.659555
 31
0.0
 12
-241.4188701234264
 22
145.459555
 32
0.0
 13
-241.4188701234264
 23
145.459555
 33
0.0
  0
MTEXT
  5
AC0
102
{ACAD_XDICTIONARY
360
EAC
102
}
330
612
100
AcDbEntity
  8
1
  6
Continuous
 62
     0
100
AcDbMText
 10
-244.285536790093
 20
132.6832883333334
 30
0.0
 40
3.2
 41
0.0
 71
     5
 72
     1
  1
\A1;\U+220534{\H0.5x;\S 0^ -0.05;}
  7
MX_DIMTXSTY_8
 11
0.0000000000000001
 21
1.0
 31
0.0
 73
     1
 44
1.0
1001
ACAD
1000
MTEXTBEGIN
1070
    73
1070
     1
1070
    44
1040
1.0
1070
    74
1070
     0
1000
MTEXTEND
  0
POINT
  5
AC1
330
612
100
AcDbEntity
  8
DEFPOINTS
  6
Continuous
 62
     0
370
     0
100
AcDbPoint
 10
-258.5663750000001
 20
145.459555
 30
0.0
  0
POINT
  5
AC2
330
612
100
AcDbEntity
  8
DEFPOINTS
  6
Continuous
 62
     0
370
     0
100
AcDbPoint
 10
-258.5663750000001
 20
179.459555
 30
0.0
  0
POINT
  5
AC3
330
612
100
AcDbEntity
  8
DEFPOINTS
  6
Continuous
 62
     0
370
     0
100
AcDbPoint
 10
-241.4188701234264
 20
179.459555
 30
0.0
  0
ENDBLK
  5
614
330
612
100
AcDbEntity
  8
0
370
     0
100
AcDbBlockEnd
  0
BLOCK
  5
61E
330
61D
100
AcDbEntity
  8
0
370
     0
100
AcDbBlockBegin
  2
*D17
 70
     1
 10
0.0
 20
0.0
 30
0.0
  3
*D17
  1

  0
LINE
  5
9C9
330
61D
100
AcDbEntity
  8
1
  6
Continuous
 62
     0
370
    -2
100
AcDbLine
 10
-323.012685
 20
186.4542352489414
 30
0.0
 11
-323.012685
 21
215.766027
 31
0.0
  0
LINE
  5
9CA
330
61D
100
AcDbEntity
  8
1
  6
Continuous
 62
     0
370
    -2
100
AcDbLine
 10
-357.012685
 20
186.4542352489414
 30
0.0
 11
-357.012685
 21
215.766027
 31
0.0
  0
LINE
  5
9CB
330
61D
100
AcDbEntity
  8
1
  6
Continuous
 62
     0
370
    -2
100
AcDbLine
 10
-326.212685
 20
215.066027
 30
0.0
 11
-353.8126850000001
 21
215.066027
 31
0.0
  0
SOLID
  5
9CC
330
61D
100
AcDbEntity
  8
1
  6
Continuous
 62
     0
370
     0
100
AcDbTrace
 10
-326.212685
 20
215.5993603333333
 30
0.0
 11
-326.212685
 21
214.5326936666667
 31
0.0
 12
-323.012685
 22
215.066027
 32
0.0
 13
-323.012685
 23
215.066027
 33
0.0
  0
SOLID
  5
9CD
330
61D
100
AcDbEntity
  8
1
  6
Continuous
 62
     0
370
     0
100
AcDbTrace
 10
-353.8126850000001
 20
215.5993603333333
 30
0.0
 11
-353.8126850000001
 21
214.5326936666667
 31
0.0
 12
-357.012685
 22
215.066027
 32
0.0
 13
-357.012685
 23
215.066027
 33
0.0
  0
MTEXT
  5
9CE
330
61D
100
AcDbEntity
  8
1
  6
Continuous
 62
     0
100
AcDbMText
 10
-338.611041
 20
217.9326936666666
 30
0.0
 40
3.2
 41
0.0
 71
     5
 72
     1
  1
\A1;34{\H1.6;\S 0^ -0.05;}
  7
MX_DIMTXSTY_5
 73
     1
 44
1.0
1001
ACAD
1000
MTEXTBEGIN
1070
    73
1070
     1
1070
    44
1040
1.0
1070
    74
1070
     0
1000
MTEXTEND
  0
POINT
  5
9CF
330
61D
100
AcDbEntity
  8
DEFPOINTS
  6
Continuous
 62
     0
370
     0
100
AcDbPoint
 10
-323.012685
 20
185.9542352489414
 30
0.0
  0
POINT
  5
9D0
330
61D
100
AcDbEntity
  8
DEFPOINTS
  6
Continuous
 62
     0
370
     0
100
AcDbPoint
 10
-357.012685
 20
185.9542352489414
 30
0.0
  0
POINT
  5
9D1
330
61D
100
AcDbEntity
  8
DEFPOINTS
  6
Continuous
 62
     0
370
     0
100
AcDbPoint
 10
-357.012685
 20
215.066027
 30
0.0
  0
ENDBLK
  5
61F
330
61D
100
AcDbEntity
  8
0
370
     0
100
AcDbBlockEnd
  0
BLOCK
  5
636
330
635
100
AcDbEntity
  8
0
370
     0
100
AcDbBlockBegin
  2
*D18
 70
     1
 10
0.0
 20
0.0
 30
0.0
  3
*D18
  1

  0
LINE
  5
C59
330
635
100
AcDbEntity
  8
1
  6
Continuous
 62
     0
370
    -2
100
AcDbLine
 10
-160.866375
 20
171.459555
 30
0.0
 11
-160.866375
 21
194.917399
 31
0.0
  0
LINE
  5
C5A
330
635
100
AcDbEntity
  8
1
  6
Continuous
 62
     0
370
    -2
100
AcDbLine
 10
-176.366375
 20
172.459555
 30
0.0
 11
-176.366375
 21
194.917399
 31
0.0
  0
LINE
  5
C5B
330
635
100
AcDbEntity
  8
1
  6
Continuous
 62
     0
370
    -2
100
AcDbLine
 10
-173.166375
 20
194.217399
 30
0.0
 11
-164.066375
 21
194.217399
 31
0.0
  0
LINE
  5
C5C
330
635
100
AcDbEntity
  8
1
  6
Continuous
 62
     0
370
    -2
100
AcDbLine
 10
-160.866375
 20
194.217399
 30
0.0
 11
-142.866375
 21
194.217399
 31
0.0
  0
SOLID
  5
C5D
330
635
100
AcDbEntity
  8
1
  6
Continuous
 62
     0
370
     0
100
AcDbTrace
 10
-173.166375
 20
194.7507323333333
 30
0.0
 11
-173.166375
 21
193.6840656666666
 31
0.0
 12
-176.366375
 22
194.217399
 32
0.0
 13
-176.366375
 23
194.217399
 33
0.0
  0
SOLID
  5
C5E
330
635
100
AcDbEntity
  8
1
  6
Continuous
 62
     0
370
     0
100
AcDbTrace
 10
-164.066375
 20
194.7507323333333
 30
0.0
 11
-164.066375
 21
193.6840656666666
 31
0.0
 12
-160.866375
 22
194.217399
 32
0.0
 13
-160.866375
 23
194.217399
 33
0.0
  0
MTEXT
  5
C5F
330
635
100
AcDbEntity
  8
1
  6
Continuous
 62
     0
100
AcDbMText
 10
-150.266375
 20
196.817399
 30
0.0
 40
3.2
 41
0.0
 71
     5
 72
     1
  1
\A1;(15.5)
  7
MX_DIMTXSTY_5
 73
     1
 44
1.0
1001
ACAD
1000
MTEXTBEGIN
1070
    73
1070
     1
1070
    44
1040
1.0
1070
    74
1070
     0
1000
MTEXTEND
  0
POINT
  5
C60
330
635
100
AcDbEntity
  8
DEFPOINTS
  6
Continuous
 62
     0
370
     0
100
AcDbPoint
 10
-160.866375
 20
170.959555
 30
0.0
  0
POINT
  5
C61
330
635
100
AcDbEntity
  8
DEFPOINTS
  6
Continuous
 62
     0
370
     0
100
AcDbPoint
 10
-176.366375
 20
171.959555
 30
0.0
  0
POINT
  5
C62
330
635
100
AcDbEntity
  8
DEFPOINTS
  6
Continuous
 62
     0
370
     0
100
AcDbPoint
 10
-176.366375
 20
194.217399
 30
0.0
  0
ENDBLK
  5
637
330
635
100
AcDbEntity
  8
0
370
     0
100
AcDbBlockEnd
  0
BLOCK
  5
662
330
661
100
AcDbEntity
  8
0
370
     0
100
AcDbBlockBegin
  2
*D19
 70
     1
 10
0.0
 20
0.0
 30
0.0
  3
*D19
  1

  0
LINE
  5
8F3
330
661
100
AcDbEntity
  8
0
  6
Continuous
 62
     0
370
    -2
100
AcDbLine
 10
-230.566375
 20
192.459556
 30
0.0
 11
-230.566375
 21
206.320444
 31
0.0
  0
LINE
  5
8F4
330
661
100
AcDbEntity
  8
0
  6
Continuous
 62
     0
370
    -2
100
AcDbLine
 10
-233.566375
 20
204.034444
 30
0.0
 11
-255.566375
 21
204.034444
 31
0.0
  0
SOLID
  5
8F5
330
661
100
AcDbEntity
  8
0
  6
Continuous
 62
     0
370
     0
100
AcDbTrace
 10
-233.566375
 20
204.534444
 30
0.0
 11
-233.566375
 21
203.534444
 31
0.0
 12
-230.566375
 22
204.034444
 32
0.0
 13
-230.566375
 23
204.034444
 33
0.0
  0
SOLID
  5
8F6
330
661
100
AcDbEntity
  8
0
  6
Continuous
 62
     0
370
     0
100
AcDbTrace
 10
-255.566375
 20
204.534444
 30
0.0
 11
-255.566375
 21
203.534444
 31
0.0
 12
-258.566375
 22
204.034444
 32
0.0
 13
-258.566375
 23
204.034444
 33
0.0
  0
MTEXT
  5
8F7
330
661
100
AcDbEntity
  8
0
  6
Continuous
 62
     0
100
AcDbMText
 10
-245.6467095160192
 20
206.634444
 30
0.0
 40
3.2
 41
0.0
 71
     5
 72
     1
  1
\A1;28
  7
MX_DIMTXSTY_6
 73
     1
 44
0.9
1001
ACAD
1000
MTEXTBEGIN
1070
    73
1070
     1
1070
    44
1040
0.9
1070
    74
1070
     0
1000
MTEXTEND
  0
POINT
  5
8F8
330
661
100
AcDbEntity
  8
DEFPOINTS
  6
Continuous
 62
     0
370
     0
100
AcDbPoint
 10
-230.566375
 20
191.459556
 30
0.0
  0
POINT
  5
8F9
330
661
100
AcDbEntity
  8
DEFPOINTS
  6
Continuous
 62
     0
370
     0
100
AcDbPoint
 10
-258.566375
 20
178.459556
 30
0.0
  0
POINT
  5
8FA
330
661
100
AcDbEntity
  8
DEFPOINTS
  6
Continuous
 62
     0
370
     0
100
AcDbPoint
 10
-258.566375
 20
204.034444
 30
0.0
  0
ENDBLK
  5
663
330
661
100
AcDbEntity
  8
0
370
     0
100
AcDbBlockEnd
  0
BLOCK
  5
ACA
330
AC9
100
AcDbEntity
  8
0
370
     0
100
AcDbBlockBegin
  2
*D22
 70
     1
 10
0.0
 20
0.0
 30
0.0
  3
*D22
  1

  0
LINE
  5
D3F
330
AC9
100
AcDbEntity
  8
AM_5
  6
ByBlock
 62
     0
370
     0
100
AcDbLine
 10
-222.566375
 20
192.459555
 30
0.0
 11
-222.566375
 21
257.5169883958915
 31
0.0
  0
LINE
  5
D40
330
AC9
100
AcDbEntity
  8
AM_5
  6
ByBlock
 62
     0
370
     0
100
AcDbLine
 10
-273.566375
 20
167.44353
 30
0.0
 11
-273.566375
 21
257.5169883958915
 31
0.0
  0
LINE
  5
D41
330
AC9
100
AcDbEntity
  8
AM_5
  6
ByBlock
 62
     0
370
     0
100
AcDbLine
 10
-225.066375
 20
255.2309883958915
 30
0.0
 11
-271.066375
 21
255.2309883958915
 31
0.0
  0
SOLID
  5
D42
330
AC9
100
AcDbEntity
  8
AM_5
 62
     0
370
     0
100
AcDbTrace
 10
-225.066375
 20
255.6476550625581
 30
0.0
 11
-225.066375
 21
254.8143217292248
 31
0.0
 12
-222.566375
 22
255.2309883958915
 32
0.0
 13
-222.566375
 23
255.2309883958915
 33
0.0
  0
SOLID
  5
D43
330
AC9
100
AcDbEntity
  8
AM_5
 62
     0
370
     0
100
AcDbTrace
 10
-271.066375
 20
255.6476550625581
 30
0.0
 11
-271.066375
 21
254.8143217292248
 31
0.0
 12
-273.566375
 22
255.2309883958915
 32
0.0
 13
-273.566375
 23
255.2309883958915
 33
0.0
  0
MTEXT
  5
D44
330
AC9
100
AcDbEntity
  8
AM_5
 62
     0
100
AcDbMText
 10
-248.066375
 20
257.8309883958915
 30
0.0
 40
3.2
 41
0.0
 71
     5
 72
     1
  1
\A1;51
 73
     1
 44
1.0
1001
ACAD
1000
MTEXTBEGIN
1070
    73
1070
     1
1070
    44
1040
1.0
1070
    74
1070
     0
1000
MTEXTEND
  0
POINT
  5
D45
330
AC9
100
AcDbEntity
  8
DEFPOINTS
 62
     0
370
     0
100
AcDbPoint
 10
-222.566375
 20
191.459555
 30
0.0
  0
POINT
  5
D46
330
AC9
100
AcDbEntity
  8
DEFPOINTS
 62
     0
370
     0
100
AcDbPoint
 10
-273.566375
 20
166.44353
 30
0.0
  0
POINT
  5
D47
330
AC9
100
AcDbEntity
  8
DEFPOINTS
 62
     0
370
     0
100
AcDbPoint
 10
-273.566375
 20
255.2309883958915
 30
0.0
  0
ENDBLK
  5
ACB
330
AC9
100
AcDbEntity
  8
0
370
     0
100
AcDbBlockEnd
  0
BLOCK
  5
DE4
330
DE3
100
AcDbEntity
  8
0
370
     0
100
AcDbBlockBegin
  2
*D23
 70
     1
 10
0.0
 20
0.0
 30
0.0
  3
*D23
  1

  0
LINE
  5
E39
330
DE3
100
AcDbEntity
  8
AM_5
  6
ByBlock
 62
     0
370
     0
100
AcDbLine
 10
-340.012685
 20
195.399174
 30
0.0
 11
-340.012685
 21
204.7960092015284
 31
0.0
  0
LINE
  5
E3A
330
DE3
100
AcDbEntity
  8
AM_5
  6
ByBlock
 62
     0
370
     0
100
AcDbLine
 10
-353.0126850000001
 20
184.9762154983954
 30
0.0
 11
-361.1809121007642
 21
199.12399984468
 31
0.0
  0
ARC
  5
E3B
330
DE3
100
AcDbEntity
  8
AM_5
  6
ByBlock
 62
     0
370
     0
100
AcDbCircle
 10
-340.012685
 20
162.4595549999999
 30
0.0
 40
40.05045420152835
100
AcDbArc
 50
93.57705591230544
 51
116.4229440876944
  0
SOLID
  5
E3C
330
DE3
100
AcDbEntity
  8
AM_5
 62
     0
370
     0
100
AcDbTrace
 10
-342.5244715039994
 20
202.8484462997273
 30
0.0
 11
-342.4984626437397
 21
202.0155189417708
 31
0.0
 12
-340.012685
 22
202.5100092015283
 32
0.0
 13
-340.012685
 23
202.5100092015283
 33
0.0
  0
SOLID
  5
E3D
330
DE3
100
AcDbEntity
  8
AM_5
 62
     0
370
     0
100
AcDbTrace
 10
-357.6379203832474
 20
197.9589134666246
 30
0.0
 11
-358.0318597285172
 21
198.6932541482518
 31
0.0
 12
-360.0379121007642
 22
197.1442657716287
 32
0.0
 13
-360.0379121007642
 23
197.1442657716287
 33
0.0
  0
MTEXT
  5
E3E
330
DE3
100
AcDbEntity
  8
AM_5
 62
     0
100
AcDbMText
 10
-351.0514348296283
 20
203.6567302162154
 30
0.0
 40
3.2
 41
0.0
 71
     5
 72
     1
  1
\A1;30\U+00B0
 11
0.9659258262890684
 21
0.2588190451025198
 31
0.0
 73
     1
 44
1.0
1001
ACAD
1000
MTEXTBEGIN
1070
    73
1070
     1
1070
    44
1040
1.0
1070
    74
1070
     0
1000
MTEXTEND
  0
POINT
  5
E3F
330
DE3
100
AcDbEntity
  8
DEFPOINTS
 62
     0
370
     0
100
AcDbPoint
 10
-346.9673733868282
 20
201.9015528093254
 30
0.0
  0
POINT
  5
E40
330
DE3
100
AcDbEntity
  8
DEFPOINTS
 62
     0
370
     0
100
AcDbPoint
 10
-352.512685
 20
184.1101900946109
 30
0.0
  0
POINT
  5
E41
330
DE3
100
AcDbEntity
  8
DEFPOINTS
 62
     0
370
     0
100
AcDbPoint
 10
-340.012685
 20
131.263338
 30
0.0
  0
POINT
  5
E42
330
DE3
100
AcDbEntity
  8
DEFPOINTS
 62
     0
370
     0
100
AcDbPoint
 10
-340.012685
 20
194.399174
 30
0.0
  0
POINT
  5
E43
330
DE3
100
AcDbEntity
  8
DEFPOINTS
 62
     0
370
     0
100
AcDbPoint
 10
-338.512685
 20
159.8614787886467
 30
0.0
  0
ENDBLK
  5
DE5
330
DE3
100
AcDbEntity
  8
0
370
     0
100
AcDbBlockEnd
  0
ENDSEC
  0
SECTION
  2
ENTITIES
  0
LINE
  5
122
330
A
100
AcDbEntity
  8
0
  6
DASHED
 62
     7
 60
     1
100
AcDbLine
 10
282.766009
 20
146.959555
 30
0.0
 11
281.266009
 21
146.959555
 31
0.0
  0
LINE
  5
129
330
A
100
AcDbEntity
  8
0
  6
CENTER
 62
     7
 60
     1
100
AcDbLine
 10
292.7844100000001
 20
150.459555
 30
0.0
 11
277.273408
 21
150.459555
 31
0.0
  0
LINE
  5
14D
330
A
100
AcDbEntity
  8
0
  6
Continuous
 62
     7
 60
     1
100
AcDbLine
 10
281.266009
 20
143.459555
 30
0.0
 11
289.266009
 21
143.459555
 31
0.0
  0
LINE
  5
14F
330
A
100
AcDbEntity
  8
0
  6
Continuous
 62
     7
 60
     1
100
AcDbLine
 10
281.266009
 20
201.459555
 30
0.0
 11
281.266009
 21
143.459555
 31
0.0
  0
SOLID
  5
176
330
A
100
AcDbEntity
  8
1
  6
Continuous
 62
   110
 60
     1
100
AcDbTrace
 10
44.875001
 20
107.9203389999999
 30
0.0
 11
44.875001
 21
106.998772
 31
0.0
 12
41.37500099999999
 22
107.459555
 32
0.0
 13
41.37500099999999
 23
107.459555
 33
0.0
  0
LEADER
  5
1B2
330
A
100
AcDbEntity
  8
1
  6
Continuous
 62
   110
 60
     1
100
AcDbLeader
  3
MXDIMSTYLE
 71
     0
 74
     0
 76
     2
 10
81.71938500000001
 20
107.459555
 30
0.0
 10
41.37500099999999
 20
107.459555
 30
0.0
1001
ACAD
1000
DSTYLE
1002
{
1070
     6
1000
_NONE
1070
     7
1000
_NONE
1070
   173
1070
     1
1070
   341
1005
1AE
1002
}
  0
MTEXT
  5
1B3
330
A
100
AcDbEntity
  8
1
  6
Continuous
 62
   110
 60
     1
100
AcDbMText
 10
72.05946199999998
 20
109.735589
 30
0.0
 40
3.2
 41
0.0
 71
     5
 72
     1
  1
\T1.186;\W0.894;\A1;ドライバーへ
 73
     1
 44
1.0
1001
ACAD
1000
MTEXTBEGIN
1070
    73
1070
     1
1070
    44
1040
1.0
1070
    74
1070
     0
1000
MTEXTEND
  0
DIMENSION
  5
1E9
330
A
100
AcDbEntity
  8
1
  6
Continuous
 62
     7
 60
     1
100
AcDbDimension
  2
*D3
 10
269.903305
 20
157.459555
 30
0.0
 11
269.903305
 21
140.29151
 31
0.0
 70
   128
  1
\U+220530{\A1;\H0.50x;\S 0^ -0.005;}
 71
     5
 42
0.0
  3
MX_DIMSTYLE_MODEL_SPACE
100
AcDbAlignedDimension
 13
249.132035
 23
187.459555
 33
0.0
 14
249.132035
 24
157.459555
 34
0.0
 50
90.0
100
AcDbRotatedDimension
1001
ACAD
1000
DSTYLE
1002
{
1070
     6
1000
SOLID
1070
     7
1000
SOLID
1070
    41
1040
3.2
1070
    42
1040
0.5
1070
    44
1040
0.7
1070
   173
1070
     1
1070
   271
1070
     3
1070
   340
1005
1E3
1002
}
  0
DIMENSION
  5
1F7
330
A
100
AcDbEntity
  8
1
  6
Continuous
 62
     7
 60
     1
100
AcDbDimension
  2
*D4
 10
246.469883
 20
185.959555
 30
0.0
 11
246.469883
 21
146.771278
 31
0.0
 70
   128
  1
27(2面幅)
 71
     5
 42
0.0
  3
MX_DIMSTYLE_MODEL_SPACE
100
AcDbAlignedDimension
 13
248.266009
 23
158.959555
 33
0.0
 14
248.266009
 24
185.959555
 34
0.0
 50
90.0
100
AcDbRotatedDimension
1001
ACAD
1000
DSTYLE
1002
{
1070
     6
1000
SOLID
1070
     7
1000
SOLID
1070
    41
1040
3.2
1070
    42
1040
0.5
1070
    44
1040
0.7
1070
   173
1070
     1
1070
   271
1070
     3
1070
   340
1005
D7
1002
}
  0
DIMENSION
  5
206
330
A
100
AcDbEntity
  8
1
  6
Continuous
 62
     7
 60
     1
100
AcDbDimension
  2
*D5
 10
201.699697
 20
187.459555
 30
0.0
 11
201.699697
 21
144.853234
 31
0.0
 70
   128
  1
\U+220530
 71
     5
 42
0.0
  3
MX_DIMSTYLE_MODEL_SPACE
100
AcDbAlignedDimension
 13
221.399984
 23
157.459555
 33
0.0
 14
221.399984
 24
187.459555
 34
0.0
 50
90.0
100
AcDbRotatedDimension
1001
ACAD
1000
DSTYLE
1002
{
1070
     6
1000
SOLID
1070
     7
1000
SOLID
1070
    41
1040
3.2
1070
    42
1040
0.5
1070
    44
1040
0.7
1070
   173
1070
     1
1070
   271
1070
     3
1070
   340
1005
200
1002
}
  0
DIMENSION
  5
22D
330
A
100
AcDbEntity
  8
1
  6
Continuous
 62
     7
 60
     1
100
AcDbDimension
  2
*D6
 10
273.415583
 20
117.459555
 30
0.0
 11
242.922016
 21
117.459555
 31
0.0
 70
   128
  1
(500)
 71
     5
 42
0.0
  3
MX_DIMSTYLE_MODEL_SPACE
100
AcDbAlignedDimension
 13
210.188446
 23
97.926839
 33
0.0
 14
273.415583
 24
99.676839
 34
0.0
100
AcDbRotatedDimension
1001
ACAD
1000
DSTYLE
1002
{
1070
     6
1000
SOLID
1070
     7
1000
SOLID
1070
    41
1040
3.2
1070
    42
1040
0.5
1070
    44
1040
0.7
1070
   173
1070
     1
1070
   271
1070
     3
1070
   340
1005
D7
1002
}
  0
DIMENSION
  5
23A
330
A
100
AcDbEntity
  8
1
  6
Continuous
 62
     7
 60
     1
100
AcDbDimension
  2
*D7
 10
153.688446
 20
117.459555
 30
0.0
 11
94.27509699999999
 21
117.459555
 31
0.0
 70
   128
  1
(5000)
 71
     5
 42
0.0
  3
MX_DIMSTYLE_MODEL_SPACE
100
AcDbAlignedDimension
 13
32.83508
 23
94.376838
 33
0.0
 14
153.688446
 24
99.676839
 34
0.0
100
AcDbRotatedDimension
1001
ACAD
1000
DSTYLE
1002
{
1070
     6
1000
SOLID
1070
     7
1000
SOLID
1070
    41
1040
3.2
1070
    42
1040
0.5
1070
    44
1040
0.7
1070
   173
1070
     1
1070
   271
1070
     3
1070
   340
1005
D7
1002
}
  0
LINE
  5
28D
330
A
100
AcDbEntity
  8
AM_0
  6
Continuous
 62
     7
 60
     1
100
AcDbLine
 10
114.388446
 20
84.42683800000002
 30
0.0
 11
111.888446
 21
84.42683800000002
 31
0.0
  0
LINE
  5
28E
330
A
100
AcDbEntity
  8
AM_0
  6
Continuous
 62
     7
 60
     1
100
AcDbLine
 10
131.888446
 20
81.176838
 30
0.0
 11
126.888446
 21
84.42683800000002
 31
0.0
  0
LINE
  5
28F
330
A
100
AcDbEntity
  8
AM_0
  6
Continuous
 62
     7
 60
     1
100
AcDbLine
 10
126.888446
 20
84.42683800000002
 30
0.0
 11
115.388446
 21
84.42683800000002
 31
0.0
  0
LINE
  5
290
330
A
100
AcDbEntity
  8
AM_0
  6
Continuous
 62
     7
 60
     1
100
AcDbLine
 10
143.888446
 20
80.67683800000002
 30
0.0
 11
142.388446
 21
80.67683800000002
 31
0.0
  0
LINE
  5
291
330
A
100
AcDbEntity
  8
AM_0
  6
Continuous
 62
     7
 60
     1
100
AcDbLine
 10
153.188446
 20
82.17683800000001
 30
0.0
 11
153.688446
 21
82.676838
 31
0.0
  0
LINE
  5
292
330
A
100
AcDbEntity
  8
AM_0
  6
Continuous
 62
     7
 60
     1
100
AcDbLine
 10
153.188446
 20
82.17683800000001
 30
0.0
 11
143.888446
 21
82.17683800000001
 31
0.0
  0
LINE
  5
293
330
A
100
AcDbEntity
  8
AM_0
  6
Continuous
 62
     7
 60
     1
100
AcDbLine
 10
142.388446
 20
81.176838
 30
0.0
 11
131.888446
 21
81.176838
 31
0.0
  0
LINE
  5
294
330
A
100
AcDbEntity
  8
AM_0
  6
Continuous
 62
     7
 60
     1
100
AcDbLine
 10
166.688446
 20
82.676838
 30
0.0
 11
163.688446
 21
82.676838
 31
0.0
  0
LINE
  5
295
330
A
100
AcDbEntity
  8
AM_0
  6
Continuous
 62
     7
 60
     1
100
AcDbLine
 10
174.688446
 20
82.676838
 30
0.0
 11
176.188446
 21
81.176838
 31
0.0
  0
LINE
  5
296
330
A
100
AcDbEntity
  8
AM_0
  6
Continuous
 62
     7
 60
     1
100
AcDbLine
 10
166.688446
 20
81.176838
 30
0.0
 11
174.688446
 21
81.176838
 31
0.0
  0
LINE
  5
297
330
A
100
AcDbEntity
  8
AM_0
  6
Continuous
 62
     7
 60
     1
100
AcDbLine
 10
166.688446
 20
82.17683800000001
 30
0.0
 11
174.688446
 21
82.17683800000001
 31
0.0
  0
LINE
  5
298
330
A
100
AcDbEntity
  8
AM_0
  6
Continuous
 62
     7
 60
     1
100
AcDbLine
 10
166.688446
 20
83.17683800000002
 30
0.0
 11
174.688446
 21
83.17683800000002
 31
0.0
  0
LINE
  5
299
330
A
100
AcDbEntity
  8
AM_0
  6
Continuous
 62
     7
 60
     1
100
AcDbLine
 10
166.688446
 20
84.176838
 30
0.0
 11
174.688446
 21
84.176838
 31
0.0
  0
LINE
  5
29A
330
A
100
AcDbEntity
  8
AM_0
  6
Continuous
 62
     7
 60
     1
100
AcDbLine
 10
166.688446
 20
85.176838
 30
0.0
 11
174.688446
 21
85.176838
 31
0.0
  0
LINE
  5
29B
330
A
100
AcDbEntity
  8
AM_0
  6
Continuous
 62
     7
 60
     1
100
AcDbLine
 10
190.188446
 20
81.176838
 30
0.0
 11
195.188446
 21
84.42683800000002
 31
0.0
  0
LINE
  5
29C
330
A
100
AcDbEntity
  8
AM_0
  6
Continuous
 62
     7
 60
     1
100
AcDbLine
 10
195.188446
 20
84.42683800000002
 30
0.0
 11
206.688446
 21
84.42683800000002
 31
0.0
  0
LINE
  5
29D
330
A
100
AcDbEntity
  8
AM_0
  6
Continuous
 62
     7
 60
     1
100
AcDbLine
 10
176.188446
 20
81.176838
 30
0.0
 11
190.188446
 21
81.176838
 31
0.0
  0
LINE
  5
29E
330
A
100
AcDbEntity
  8
AM_0
  6
Continuous
 62
     7
 60
     1
100
AcDbLine
 10
207.688446
 20
84.42683800000002
 30
0.0
 11
210.188446
 21
84.42683800000002
 31
0.0
  0
LINE
  5
29F
330
A
100
AcDbEntity
  8
AM_0
  6
Continuous
 62
     3
 60
     1
100
AcDbLine
 10
69.99396800000001
 20
88.026838
 30
0.0
 11
111.888446
 21
88.026838
 31
0.0
  0
LINE
  5
2A0
330
A
100
AcDbEntity
  8
AM_0
  6
Continuous
 62
     3
 60
     1
100
AcDbLine
 10
32.83508
 20
88.026838
 30
0.0
 11
67.674017
 21
88.026838
 31
0.0
  0
LINE
  5
2A1
330
A
100
AcDbEntity
  8
AM_0
  6
Continuous
 62
     3
 60
     1
100
AcDbLine
 10
32.83508
 20
94.32683799999999
 30
0.0
 11
70.19653100000001
 21
94.32683799999999
 31
0.0
  0
LINE
  5
2A2
330
A
100
AcDbEntity
  8
AM_0
  6
Continuous
 62
     7
 60
     1
100
AcDbLine
 10
111.888446
 20
97.926838
 30
0.0
 11
114.388446
 21
97.926838
 31
0.0
  0
LINE
  5
2A3
330
A
100
AcDbEntity
  8
AM_0
  6
Continuous
 62
     7
 60
     1
100
AcDbLine
 10
114.388446
 20
94.269168
 30
0.0
 11
111.888446
 21
94.269168
 31
0.0
  0
LINE
  5
2A4
330
A
100
AcDbEntity
  8
AM_0
  6
Continuous
 62
     7
 60
     1
100
AcDbLine
 10
114.388446
 20
88.084509
 30
0.0
 11
111.888446
 21
88.084509
 31
0.0
  0
LINE
  5
2A5
330
A
100
AcDbEntity
  8
AM_0
  6
Continuous
 62
     7
 60
     1
100
AcDbLine
 10
111.888446
 20
84.42683800000002
 30
0.0
 11
111.888446
 21
97.926838
 31
0.0
  0
LINE
  5
2A6
330
A
100
AcDbEntity
  8
AM_0
  6
Continuous
 62
     7
 60
     1
100
AcDbLine
 10
114.388446
 20
84.42683800000002
 30
0.0
 11
114.388446
 21
97.926838
 31
0.0
  0
LINE
  5
2A7
330
A
100
AcDbEntity
  8
AM_0
  6
Continuous
 62
     7
 60
     1
100
AcDbLine
 10
126.888446
 20
97.926838
 30
0.0
 11
131.888446
 21
101.176838
 31
0.0
  0
LINE
  5
2A8
330
A
100
AcDbEntity
  8
AM_0
  6
Continuous
 62
     7
 60
     1
100
AcDbLine
 10
131.888446
 20
94.29933699999999
 30
0.0
 11
131.888446
 21
101.176838
 31
0.0
  0
LINE
  5
2A9
330
A
100
AcDbEntity
  8
AM_0
  6
Continuous
 62
     7
 60
     1
100
AcDbLine
 10
115.388446
 20
97.926838
 30
0.0
 11
126.888446
 21
97.926838
 31
0.0
  0
LINE
  5
2AA
330
A
100
AcDbEntity
  8
AM_0
  6
Continuous
 62
     7
 60
     1
100
AcDbLine
 10
143.888446
 20
101.676838
 30
0.0
 11
142.388446
 21
101.676838
 31
0.0
  0
LINE
  5
2AB
330
A
100
AcDbEntity
  8
AM_0
  6
Continuous
 62
     7
 60
     1
100
AcDbLine
 10
153.688446
 20
99.67683800000001
 30
0.0
 11
153.188446
 21
100.176838
 31
0.0
  0
LINE
  5
2AC
330
A
100
AcDbEntity
  8
AM_0
  6
Continuous
 62
     7
 60
     1
100
AcDbLine
 10
143.888446
 20
100.176838
 30
0.0
 11
153.188446
 21
100.176838
 31
0.0
  0
LINE
  5
2AD
330
A
100
AcDbEntity
  8
AM_0
  6
Continuous
 62
     7
 60
     1
100
AcDbLine
 10
142.388446
 20
101.176838
 30
0.0
 11
131.888446
 21
101.176838
 31
0.0
  0
LINE
  5
2AE
330
A
100
AcDbEntity
  8
AM_0
  6
Continuous
 62
     7
 60
     1
100
AcDbLine
 10
142.388446
 20
94.29933699999999
 30
0.0
 11
131.888446
 21
94.29933699999999
 31
0.0
  0
LINE
  5
2AF
330
A
100
AcDbEntity
  8
AM_0
  6
Continuous
 62
     7
 60
     1
100
AcDbLine
 10
131.888446
 20
81.176838
 30
0.0
 11
131.888446
 21
88.054339
 31
0.0
  0
LINE
  5
2B0
330
A
100
AcDbEntity
  8
AM_0
  6
Continuous
 62
     7
 60
     1
100
AcDbLine
 10
142.388446
 20
88.054339
 30
0.0
 11
131.888446
 21
88.054339
 31
0.0
  0
LINE
  5
2B1
330
A
100
AcDbEntity
  8
AM_0
  6
Continuous
 62
     7
 60
     1
100
AcDbLine
 10
126.888446
 20
84.42683800000002
 30
0.0
 11
126.888446
 21
97.926838
 31
0.0
  0
LINE
  5
2B2
330
A
100
AcDbEntity
  8
AM_0
  6
Continuous
 62
     7
 60
     1
100
AcDbLine
 10
115.388446
 20
84.42683800000002
 30
0.0
 11
115.388446
 21
97.926838
 31
0.0
  0
LINE
  5
2B3
330
A
100
AcDbEntity
  8
AM_0
  6
Continuous
 62
     7
 60
     1
100
AcDbLine
 10
143.888446
 20
101.676838
 30
0.0
 11
143.888446
 21
80.67683800000002
 31
0.0
  0
LINE
  5
2B4
330
A
100
AcDbEntity
  8
AM_0
  6
Continuous
 62
     7
 60
     1
100
AcDbLine
 10
142.388446
 20
80.67683800000002
 30
0.0
 11
142.388446
 21
101.676838
 31
0.0
  0
LINE
  5
2B5
330
A
100
AcDbEntity
  8
AM_0
  6
Continuous
 62
     7
 60
     1
100
AcDbLine
 10
153.688446
 20
99.67683800000001
 30
0.0
 11
153.688446
 21
82.676838
 31
0.0
  0
LINE
  5
2B6
330
A
100
AcDbEntity
  8
AM_0
  6
Continuous
 62
     7
 60
     1
100
AcDbLine
 10
115.388446
 20
96.576838
 30
0.0
 11
114.388446
 21
96.576838
 31
0.0
  0
LINE
  5
2B7
330
A
100
AcDbEntity
  8
AM_0
  6
Continuous
 62
     7
 60
     1
100
AcDbLine
 10
115.388446
 20
85.776838
 30
0.0
 11
114.388446
 21
85.776838
 31
0.0
  0
LINE
  5
2B8
330
A
100
AcDbEntity
  8
AM_0
  6
Continuous
 62
     3
 60
     1
100
AcDbLine
 10
72.51648199999998
 20
94.32683799999999
 30
0.0
 11
111.888446
 21
94.32683799999999
 31
0.0
  0
LINE
  5
2B9
330
A
100
AcDbEntity
  8
AM_0
  6
Continuous
 62
     7
 60
     1
100
AcDbLine
 10
166.688446
 20
92.026838
 30
0.0
 11
163.688446
 21
92.026838
 31
0.0
  0
LINE
  5
2BA
330
A
100
AcDbEntity
  8
AM_0
  6
Continuous
 62
     7
 60
     1
100
AcDbLine
 10
163.688446
 20
99.67683800000001
 30
0.0
 11
166.688446
 21
99.67683800000001
 31
0.0
  0
LINE
  5
2BB
330
A
100
AcDbEntity
  8
AM_0
  6
Continuous
 62
     7
 60
     1
100
AcDbLine
 10
174.688446
 20
99.67683800000001
 30
0.0
 11
176.188446
 21
101.176838
 31
0.0
  0
LINE
  5
2BC
330
A
100
AcDbEntity
  8
AM_0
  6
Continuous
 62
     7
 60
     1
100
AcDbLine
 10
176.188446
 20
94.29933699999999
 30
0.0
 11
176.188446
 21
101.176838
 31
0.0
  0
LINE
  5
2BD
330
A
100
AcDbEntity
  8
AM_0
  6
Continuous
 62
     7
 60
     1
100
AcDbLine
 10
166.688446
 20
91.176838
 30
0.0
 11
174.688446
 21
91.176838
 31
0.0
  0
LINE
  5
2BE
330
A
100
AcDbEntity
  8
AM_0
  6
Continuous
 62
     7
 60
     1
100
AcDbLine
 10
166.688446
 20
92.17683800000001
 30
0.0
 11
174.688446
 21
92.17683800000001
 31
0.0
  0
LINE
  5
2BF
330
A
100
AcDbEntity
  8
AM_0
  6
Continuous
 62
     7
 60
     1
100
AcDbLine
 10
166.688446
 20
93.17683800000001
 30
0.0
 11
174.688446
 21
93.17683800000001
 31
0.0
  0
LINE
  5
2C0
330
A
100
AcDbEntity
  8
AM_0
  6
Continuous
 62
     7
 60
     1
100
AcDbLine
 10
166.688446
 20
98.17683800000001
 30
0.0
 11
174.688446
 21
98.17683800000001
 31
0.0
  0
LINE
  5
2C1
330
A
100
AcDbEntity
  8
AM_0
  6
Continuous
 62
     7
 60
     1
100
AcDbLine
 10
174.688446
 20
101.176838
 30
0.0
 11
166.688446
 21
101.176838
 31
0.0
  0
LINE
  5
2C2
330
A
100
AcDbEntity
  8
AM_0
  6
Continuous
 62
     7
 60
     1
100
AcDbLine
 10
166.688446
 20
99.176838
 30
0.0
 11
174.688446
 21
99.176838
 31
0.0
  0
LINE
  5
2C3
330
A
100
AcDbEntity
  8
AM_0
  6
Continuous
 62
     7
 60
     1
100
AcDbLine
 10
166.688446
 20
100.176838
 30
0.0
 11
174.688446
 21
100.176838
 31
0.0
  0
LINE
  5
2C4
330
A
100
AcDbEntity
  8
AM_0
  6
Continuous
 62
     7
 60
     1
100
AcDbLine
 10
166.688446
 20
94.176838
 30
0.0
 11
174.688446
 21
94.176838
 31
0.0
  0
LINE
  5
2C5
330
A
100
AcDbEntity
  8
AM_0
  6
Continuous
 62
     7
 60
     1
100
AcDbLine
 10
166.688446
 20
95.176838
 30
0.0
 11
174.688446
 21
95.176838
 31
0.0
  0
LINE
  5
2C6
330
A
100
AcDbEntity
  8
AM_0
  6
Continuous
 62
     7
 60
     1
100
AcDbLine
 10
166.688446
 20
96.17683800000001
 30
0.0
 11
174.688446
 21
96.17683800000001
 31
0.0
  0
LINE
  5
2C7
330
A
100
AcDbEntity
  8
AM_0
  6
Continuous
 62
     7
 60
     1
100
AcDbLine
 10
166.688446
 20
97.17683800000001
 30
0.0
 11
174.688446
 21
97.17683800000001
 31
0.0
  0
LINE
  5
2C8
330
A
100
AcDbEntity
  8
AM_0
  6
Continuous
 62
     7
 60
     1
100
AcDbLine
 10
195.188446
 20
97.926838
 30
0.0
 11
190.188446
 21
101.176838
 31
0.0
  0
LINE
  5
2C9
330
A
100
AcDbEntity
  8
AM_0
  6
Continuous
 62
     7
 60
     1
100
AcDbLine
 10
190.188446
 20
94.29933699999999
 30
0.0
 11
190.188446
 21
101.176838
 31
0.0
  0
LINE
  5
2CA
330
A
100
AcDbEntity
  8
AM_0
  6
Continuous
 62
     7
 60
     1
100
AcDbLine
 10
206.688446
 20
96.576838
 30
0.0
 11
207.688446
 21
96.576838
 31
0.0
  0
LINE
  5
2CB
330
A
100
AcDbEntity
  8
AM_0
  6
Continuous
 62
     7
 60
     1
100
AcDbLine
 10
206.688446
 20
97.926838
 30
0.0
 11
195.188446
 21
97.926838
 31
0.0
  0
LINE
  5
2CC
330
A
100
AcDbEntity
  8
AM_0
  6
Continuous
 62
     7
 60
     1
100
AcDbLine
 10
176.188446
 20
94.29933699999999
 30
0.0
 11
190.188446
 21
94.29933699999999
 31
0.0
  0
LINE
  5
2CD
330
A
100
AcDbEntity
  8
AM_0
  6
Continuous
 62
     7
 60
     1
100
AcDbLine
 10
176.188446
 20
101.176838
 30
0.0
 11
190.188446
 21
101.176838
 31
0.0
  0
LINE
  5
2CE
330
A
100
AcDbEntity
  8
AM_0
  6
Continuous
 62
     7
 60
     1
100
AcDbLine
 10
166.688446
 20
90.32683799999999
 30
0.0
 11
163.688446
 21
90.32683799999999
 31
0.0
  0
LINE
  5
2CF
330
A
100
AcDbEntity
  8
AM_0
  6
Continuous
 62
     7
 60
     1
100
AcDbLine
 10
176.188446
 20
81.176838
 30
0.0
 11
176.188446
 21
88.054339
 31
0.0
  0
LINE
  5
2D0
330
A
100
AcDbEntity
  8
AM_0
  6
Continuous
 62
     7
 60
     1
100
AcDbLine
 10
166.688446
 20
90.176838
 30
0.0
 11
174.688446
 21
90.176838
 31
0.0
  0
LINE
  5
2D1
330
A
100
AcDbEntity
  8
AM_0
  6
Continuous
 62
     7
 60
     1
100
AcDbLine
 10
166.688446
 20
86.176838
 30
0.0
 11
174.688446
 21
86.176838
 31
0.0
  0
LINE
  5
2D2
330
A
100
AcDbEntity
  8
AM_0
  6
Continuous
 62
     7
 60
     1
100
AcDbLine
 10
166.688446
 20
87.17683800000001
 30
0.0
 11
174.688446
 21
87.17683800000001
 31
0.0
  0
LINE
  5
2D3
330
A
100
AcDbEntity
  8
AM_0
  6
Continuous
 62
     7
 60
     1
100
AcDbLine
 10
166.688446
 20
88.17683800000002
 30
0.0
 11
174.688446
 21
88.17683800000002
 31
0.0
  0
LINE
  5
2D4
330
A
100
AcDbEntity
  8
AM_0
  6
Continuous
 62
     7
 60
     1
100
AcDbLine
 10
166.688446
 20
89.176838
 30
0.0
 11
174.688446
 21
89.176838
 31
0.0
  0
LINE
  5
2D5
330
A
100
AcDbEntity
  8
AM_0
  6
Continuous
 62
     7
 60
     1
100
AcDbLine
 10
190.188446
 20
81.176838
 30
0.0
 11
190.188446
 21
88.054339
 31
0.0
  0
LINE
  5
2D6
330
A
100
AcDbEntity
  8
AM_0
  6
Continuous
 62
     7
 60
     1
100
AcDbLine
 10
206.688446
 20
85.776838
 30
0.0
 11
207.688446
 21
85.776838
 31
0.0
  0
LINE
  5
2D7
330
A
100
AcDbEntity
  8
AM_0
  6
Continuous
 62
     7
 60
     1
100
AcDbLine
 10
176.188446
 20
88.054339
 30
0.0
 11
190.188446
 21
88.054339
 31
0.0
  0
LINE
  5
2D8
330
A
100
AcDbEntity
  8
AM_0
  6
Continuous
 62
     7
 60
     1
100
AcDbLine
 10
174.688446
 20
81.176838
 30
0.0
 11
174.688446
 21
101.176838
 31
0.0
  0
LINE
  5
2D9
330
A
100
AcDbEntity
  8
AM_0
  6
Continuous
 62
     7
 60
     1
100
AcDbLine
 10
166.688446
 20
101.176838
 30
0.0
 11
166.688446
 21
81.176838
 31
0.0
  0
LINE
  5
2DA
330
A
100
AcDbEntity
  8
AM_0
  6
Continuous
 62
     7
 60
     1
100
AcDbLine
 10
163.688446
 20
82.676838
 30
0.0
 11
163.688446
 21
99.67683800000001
 31
0.0
  0
LINE
  5
2DB
330
A
100
AcDbEntity
  8
AM_0
  6
Continuous
 62
     7
 60
     1
100
AcDbLine
 10
206.688446
 20
84.42683800000002
 30
0.0
 11
206.688446
 21
97.926838
 31
0.0
  0
LINE
  5
2DC
330
A
100
AcDbEntity
  8
AM_0
  6
Continuous
 62
     7
 60
     1
100
AcDbLine
 10
207.688446
 20
84.42683800000002
 30
0.0
 11
207.688446
 21
97.926838
 31
0.0
  0
LINE
  5
2DD
330
A
100
AcDbEntity
  8
AM_0
  6
Continuous
 62
     7
 60
     1
100
AcDbLine
 10
195.188446
 20
84.42683800000002
 30
0.0
 11
195.188446
 21
97.926838
 31
0.0
  0
LINE
  5
2DE
330
A
100
AcDbEntity
  8
AM_0
  6
Continuous
 62
     7
 60
     1
100
AcDbLine
 10
210.188446
 20
84.42683800000002
 30
0.0
 11
210.188446
 21
97.926838
 31
0.0
  0
LINE
  5
2DF
330
A
100
AcDbEntity
  8
AM_0
  6
Continuous
 62
     7
 60
     1
100
AcDbLine
 10
210.188446
 20
97.926838
 30
0.0
 11
207.688446
 21
97.926838
 31
0.0
  0
LINE
  5
2E0
330
A
100
AcDbEntity
  8
AM_0
  6
Continuous
 62
     7
 60
     1
100
AcDbLine
 10
207.688446
 20
94.269168
 30
0.0
 11
210.188446
 21
94.269168
 31
0.0
  0
LINE
  5
2E1
330
A
100
AcDbEntity
  8
AM_0
  6
Continuous
 62
     7
 60
     1
100
AcDbLine
 10
207.688446
 20
88.084509
 30
0.0
 11
210.188446
 21
88.084509
 31
0.0
  0
LINE
  5
2E2
330
A
100
AcDbEntity
  8
AM_0
  6
Continuous
 62
     3
 60
     1
100
AcDbLine
 10
227.560769
 20
94.32683799999999
 30
0.0
 11
210.188446
 21
94.32683799999999
 31
0.0
  0
LINE
  5
2E3
330
A
100
AcDbEntity
  8
AM_0
  6
Continuous
 62
     3
 60
     1
100
AcDbLine
 10
225.038254
 20
88.026838
 30
0.0
 11
210.188446
 21
88.026838
 31
0.0
  0
LINE
  5
2E4
330
A
100
AcDbEntity
  8
AM_0
  6
Continuous
 62
     3
 60
     1
100
AcDbLine
 10
255.561719
 20
87.97683799999999
 30
0.0
 11
227.353353
 21
87.97683799999999
 31
0.0
  0
LINE
  5
2E5
330
A
100
AcDbEntity
  8
AM_0
  6
Continuous
 62
     7
 60
     1
100
AcDbLine
 10
273.415583
 20
70.67683800000001
 30
0.0
 11
273.915583
 21
70.176838
 31
0.0
  0
LINE
  5
2E6
330
A
100
AcDbEntity
  8
AM_0
  6
Continuous
 62
     7
 60
     1
100
AcDbLine
 10
273.415583
 20
99.67683800000001
 30
0.0
 11
273.915583
 21
100.176838
 31
0.0
  0
LINE
  5
2E7
330
A
100
AcDbEntity
  8
AM_0
  6
Continuous
 62
     7
 60
     1
100
AcDbLine
 10
273.415583
 20
99.67683800000001
 30
0.0
 11
273.415583
 21
70.176838
 31
0.0
  0
LINE
  5
2E8
330
A
100
AcDbEntity
  8
AM_0
  6
Continuous
 62
     3
 60
     1
100
AcDbLine
 10
255.561719
 20
94.376838
 30
0.0
 11
229.885873
 21
94.376838
 31
0.0
  0
LINE
  5
2E9
330
A
100
AcDbEntity
  8
AM_0
  6
Continuous
 62
     7
 60
     1
100
AcDbLine
 10
273.915583
 20
70.176838
 30
0.0
 11
321.415583
 21
70.176838
 31
0.0
  0
LINE
  5
2EA
330
A
100
AcDbEntity
  8
AM_0
  6
Continuous
 62
     7
 60
     1
100
AcDbLine
 10
273.915583
 20
100.176838
 30
0.0
 11
321.415583
 21
100.176838
 31
0.0
  0
LINE
  5
324
330
A
100
AcDbEntity
  8
AM_0
  6
Continuous
 62
     7
 60
     1
100
AcDbLine
 10
273.915583
 20
100.176838
 30
0.0
 11
273.915583
 21
70.176838
 31
0.0
  0
LINE
  5
325
330
A
100
AcDbEntity
  8
AM_0
  6
Continuous
 62
     7
 60
     1
100
AcDbLine
 10
260.415583
 20
98.17683800000001
 30
0.0
 11
262.415583
 21
98.17683800000001
 31
0.0
  0
LINE
  5
326
330
A
100
AcDbEntity
  8
AM_0
  6
Continuous
 62
     7
 60
     1
100
AcDbLine
 10
260.415583
 20
84.176838
 30
0.0
 11
262.415583
 21
84.176838
 31
0.0
  0
LINE
  5
327
330
A
100
AcDbEntity
  8
AM_0
  6
Continuous
 62
     7
 60
     1
100
AcDbLine
 10
257.915583
 20
81.676838
 30
0.0
 11
257.915583
 21
71.676838
 31
0.0
  0
LINE
  5
328
330
A
100
AcDbEntity
  8
AM_0
  6
Continuous
 62
     7
 60
     1
100
AcDbLine
 10
256.915583
 20
81.676838
 30
0.0
 11
256.915583
 21
71.676838
 31
0.0
  0
LINE
  5
329
330
A
100
AcDbEntity
  8
AM_0
  6
Continuous
 62
     7
 60
     1
100
AcDbLine
 10
257.915583
 20
81.676838
 30
0.0
 11
256.915583
 21
81.676838
 31
0.0
  0
LINE
  5
32A
330
A
100
AcDbEntity
  8
AM_0
  6
Continuous
 62
     7
 60
     1
100
AcDbLine
 10
257.915583
 20
71.676838
 30
0.0
 11
256.915583
 21
71.676838
 31
0.0
  0
LINE
  5
32B
330
A
100
AcDbEntity
  8
AM_0
  6
Continuous
 62
     7
 60
     1
100
AcDbLine
 10
268.415583
 20
97.42683800000001
 30
0.0
 11
270.415583
 21
97.42683800000001
 31
0.0
  0
LINE
  5
32C
330
A
100
AcDbEntity
  8
AM_0
  6
Continuous
 62
     7
 60
     1
100
AcDbLine
 10
268.415583
 20
98.17683800000001
 30
0.0
 11
265.415583
 21
98.17683800000001
 31
0.0
  0
LINE
  5
32D
330
A
100
AcDbEntity
  8
AM_0
  6
Continuous
 62
     7
 60
     1
100
AcDbLine
 10
262.415583
 20
98.926838
 30
0.0
 11
265.415583
 21
98.926838
 31
0.0
  0
LINE
  5
32E
330
A
100
AcDbEntity
  8
AM_0
  6
Continuous
 62
     7
 60
     1
100
AcDbLine
 10
262.415583
 20
95.57599899999999
 30
0.0
 11
265.415583
 21
95.57599899999999
 31
0.0
  0
LINE
  5
32F
330
A
100
AcDbEntity
  8
AM_0
  6
Continuous
 62
     7
 60
     1
100
AcDbLine
 10
262.415583
 20
94.50287199999999
 30
0.0
 11
265.415583
 21
94.50287199999999
 31
0.0
  0
LINE
  5
330
330
A
100
AcDbEntity
  8
AM_0
  6
Continuous
 62
     7
 60
     1
100
AcDbLine
 10
268.415583
 20
84.926838
 30
0.0
 11
270.415583
 21
84.926838
 31
0.0
  0
LINE
  5
331
330
A
100
AcDbEntity
  8
AM_0
  6
Continuous
 62
     7
 60
     1
100
AcDbLine
 10
268.415583
 20
98.17683800000001
 30
0.0
 11
268.415583
 21
84.176838
 31
0.0
  0
LINE
  5
332
330
A
100
AcDbEntity
  8
AM_0
  6
Continuous
 62
     7
 60
     1
100
AcDbLine
 10
268.415583
 20
84.176838
 30
0.0
 11
265.415583
 21
84.176838
 31
0.0
  0
LINE
  5
333
330
A
100
AcDbEntity
  8
AM_0
  6
Continuous
 62
     7
 60
     1
100
AcDbLine
 10
262.415583
 20
83.42683800000001
 30
0.0
 11
265.415583
 21
83.42683800000001
 31
0.0
  0
LINE
  5
334
330
A
100
AcDbEntity
  8
AM_0
  6
Continuous
 62
     7
 60
     1
100
AcDbLine
 10
262.415583
 20
86.777677
 30
0.0
 11
265.415583
 21
86.777677
 31
0.0
  0
LINE
  5
335
330
A
100
AcDbEntity
  8
AM_0
  6
Continuous
 62
     7
 60
     1
100
AcDbLine
 10
262.415583
 20
87.85080500000002
 30
0.0
 11
265.415583
 21
87.85080500000002
 31
0.0
  0
LINE
  5
336
330
A
100
AcDbEntity
  8
AM_0
  6
Continuous
 62
     7
 60
     1
100
AcDbLine
 10
262.415583
 20
98.926838
 30
0.0
 11
262.415583
 21
83.42683800000001
 31
0.0
  0
LINE
  5
337
330
A
100
AcDbEntity
  8
AM_0
  6
Continuous
 62
     7
 60
     1
100
AcDbLine
 10
265.415583
 20
98.926838
 30
0.0
 11
265.415583
 21
83.42683800000001
 31
0.0
  0
LINE
  5
338
330
A
100
AcDbEntity
  8
AM_0
  6
Continuous
 62
     7
 60
     1
100
AcDbLine
 10
270.415583
 20
87.85080500000002
 30
0.0
 11
273.415583
 21
87.85080500000002
 31
0.0
  0
LINE
  5
339
330
A
100
AcDbEntity
  8
AM_0
  6
Continuous
 62
     7
 60
     1
100
AcDbLine
 10
270.415583
 20
86.777677
 30
0.0
 11
273.415583
 21
86.777677
 31
0.0
  0
LINE
  5
33A
330
A
100
AcDbEntity
  8
AM_0
  6
Continuous
 62
     7
 60
     1
100
AcDbLine
 10
270.415583
 20
83.42683800000001
 30
0.0
 11
273.415583
 21
83.42683800000001
 31
0.0
  0
LINE
  5
33B
330
A
100
AcDbEntity
  8
AM_0
  6
Continuous
 62
     7
 60
     1
100
AcDbLine
 10
270.415583
 20
94.50287199999999
 30
0.0
 11
273.415583
 21
94.50287199999999
 31
0.0
  0
LINE
  5
33C
330
A
100
AcDbEntity
  8
AM_0
  6
Continuous
 62
     7
 60
     1
100
AcDbLine
 10
270.415583
 20
95.57599899999999
 30
0.0
 11
273.415583
 21
95.57599899999999
 31
0.0
  0
LINE
  5
33D
330
A
100
AcDbEntity
  8
AM_0
  6
Continuous
 62
     7
 60
     1
100
AcDbLine
 10
270.415583
 20
98.926838
 30
0.0
 11
270.415583
 21
83.42683800000001
 31
0.0
  0
LINE
  5
33E
330
A
100
AcDbEntity
  8
AM_0
  6
Continuous
 62
     7
 60
     1
100
AcDbLine
 10
270.415583
 20
98.926838
 30
0.0
 11
273.415583
 21
98.926838
 31
0.0
  0
LINE
  5
33F
330
A
100
AcDbEntity
  8
AM_0
  6
Continuous
 62
     7
 60
     1
100
AcDbLine
 10
273.415583
 20
81.176838
 30
0.0
 11
270.615583
 21
81.176838
 31
0.0
  0
LINE
  5
340
330
A
100
AcDbEntity
  8
AM_0
  6
Continuous
 62
     7
 60
     1
100
AcDbLine
 10
270.615583
 20
81.676838
 30
0.0
 11
270.615583
 21
71.676838
 31
0.0
  0
LINE
  5
341
330
A
100
AcDbEntity
  8
AM_0
  6
Continuous
 62
     7
 60
     1
100
AcDbLine
 10
273.415583
 20
72.176838
 30
0.0
 11
270.615583
 21
72.176838
 31
0.0
  0
LINE
  5
342
330
A
100
AcDbEntity
  8
AM_0
  6
Continuous
 62
     7
 60
     1
100
AcDbLine
 10
258.915583
 20
81.676838
 30
0.0
 11
258.915583
 21
71.676838
 31
0.0
  0
LINE
  5
343
330
A
100
AcDbEntity
  8
AM_0
  6
Continuous
 62
     7
 60
     1
100
AcDbLine
 10
270.615583
 20
81.676838
 30
0.0
 11
258.915583
 21
81.676838
 31
0.0
  0
LINE
  5
344
330
A
100
AcDbEntity
  8
AM_0
  6
Continuous
 62
     7
 60
     1
100
AcDbLine
 10
258.915583
 20
80.67683800000002
 30
0.0
 11
257.915583
 21
80.67683800000002
 31
0.0
  0
LINE
  5
345
330
A
100
AcDbEntity
  8
AM_0
  6
Continuous
 62
     7
 60
     1
100
AcDbLine
 10
270.615583
 20
71.676838
 30
0.0
 11
258.915583
 21
71.676838
 31
0.0
  0
LINE
  5
346
330
A
100
AcDbEntity
  8
AM_0
  6
Continuous
 62
     7
 60
     1
100
AcDbLine
 10
258.915583
 20
72.676838
 30
0.0
 11
257.915583
 21
72.676838
 31
0.0
  0
LINE
  5
347
330
A
100
AcDbEntity
  8
AM_0
  6
Continuous
 62
     7
 60
     1
100
AcDbLine
 10
255.415583
 20
91.176838
 30
0.0
 11
255.415583
 21
89.176838
 31
0.0
  0
LINE
  5
348
330
A
100
AcDbEntity
  8
AM_0
  6
Continuous
 62
     7
 60
     1
100
AcDbLine
 10
255.415583
 20
91.176838
 30
0.0
 11
255.415583
 21
93.17683800000001
 31
0.0
  0
ARC
  5
34B
330
A
100
AcDbEntity
  8
AM_0
  6
Continuous
 62
     7
 60
     1
100
AcDbCircle
 10
260.415583
 20
93.17683800000001
 30
0.0
 40
5.0
100
AcDbArc
 50
90.0
 51
180.0
  0
ARC
  5
34C
330
A
100
AcDbEntity
  8
AM_0
  6
Continuous
 62
     7
 60
     1
100
AcDbCircle
 10
260.415583
 20
89.176838
 30
0.0
 40
5.0
100
AcDbArc
 50
180.0
 51
270.0
  0
SPLINE
  5
354
330
A
100
AcDbEntity
  8
AM_0
  6
Continuous
 62
     7
 60
     1
100
AcDbSpline
210
0.0
220
0.0
230
1.0
 70
  1064
 71
     3
 72
    71
 73
    67
 74
    65
 42
0.000000001
 43
0.0000000001
 44
0.000001
 12
-0.9882796252072699
 22
-0.1526544542428344
 32
0.0
 13
0.9882796252073527
 23
-0.1526544542422996
 33
0.0
 40
0.0
 40
0.0
 40
0.0
 40
0.0
 40
0.0810841694235308
 40
0.1617027118373282
 40
0.2399513765590229
 40
0.3192292869818505
 40
0.3926451829346174
 40
0.4656210396342362
 40
0.5386436262874193
 40
0.6117994743769084
 40
0.6910290913533148
 40
0.7702143232889837
 40
0.8505458805500357
 40
0.9308916271579855
 40
1.028383581581124
 40
1.125871508787786
 40
1.224639704794379
 40
1.323409506235213
 40
1.436469860045726
 40
1.549529915826725
 40
1.662691683174595
 40
1.775853909775463
 40
1.89996474703952
 40
2.024075517337049
 40
2.148206816664539
 40
2.272338356276787
 40
2.40405279859015
 40
2.535767190194811
 40
2.667499663568084
 40
2.799232279779469
 40
2.934817908520269
 40
3.070403474848676
 40
3.205992196661028
 40
3.341581011671586
 40
3.477169826682172
 40
3.61275854849451
 40
3.748344114823001
 40
3.883929743563844
 40
4.0156623597752
 40
4.147394833148495
 40
4.279109224753178
 40
4.410823667066541
 40
4.534955206678747
 40
4.659086506006237
 40
4.783197276303799
 40
4.907308113567848
 40
5.02047034016873
 40
5.133632107516558
 40
5.246692163297571
 40
5.359752517108098
 40
5.45852231854889
 40
5.55729051455543
 40
5.654778441762092
 40
5.752270396185163
 40
5.832616142793214
 40
5.912947700054243
 40
5.992132931989939
 40
6.071362548966479
 40
6.144518397055883
 40
6.217540983709016
 40
6.290516840408635
 40
6.363932736361354
 40
6.443210646784239
 40
6.521459311505934
 40
6.602077853919724
 40
6.683162023343244
 40
6.683162023343244
 40
6.683162023343244
 40
6.683162023343244
 10
131.888445641374
 20
94.29933744846549
 30
0.0
 10
131.8617343638513
 20
94.29521149525511
 30
0.0
 10
131.8090912589209
 20
94.28201516028368
 30
0.0
 10
131.736879803839
 20
94.24515975674085
 30
0.0
 10
131.6796849852034
 20
94.18882238896323
 30
0.0
 10
131.6349662752563
 20
94.12607144523439
 30
0.0
 10
131.5945996401248
 20
94.06256594569782
 30
0.0
 10
131.5588177572197
 20
93.99873045771192
 30
0.0
 10
131.5266550679057
 20
93.93310658565251
 30
0.0
 10
131.4965269715768
 20
93.86425780846179
 30
0.0
 10
131.4679433003288
 20
93.79254032120838
 30
0.0
 10
131.440820717739
 20
93.71770984810202
 30
0.0
 10
131.415731729585
 20
93.64178386671039
 30
0.0
 10
131.3907548891237
 20
93.55942449688548
 30
0.0
 10
131.3661315244981
 20
93.47100506394939
 30
0.0
 10
131.3419778365961
 20
93.37610758139867
 30
0.0
 10
131.3196127711725
 20
93.2803364782133
 30
0.0
 10
131.2978731569741
 20
93.1791070176119
 30
0.0
 10
131.2769306660184
 20
93.07284881950474
 30
0.0
 10
131.256932083311
 20
92.96153199295991
 30
0.0
 10
131.2386667990042
 20
92.84988392595302
 30
0.0
 10
131.221464470749
 20
92.73434229364822
 30
0.0
 10
131.2053653002556
 20
92.61495763263368
 30
0.0
 10
131.1904611408768
 20
92.49173441829707
 30
0.0
 10
131.1771547663511
 20
92.36832185636313
 30
0.0
 10
131.1651198737793
 20
92.2422328802429
 30
0.0
 10
131.154373731629
 20
92.11349066081663
 30
0.0
 10
131.1449749268866
 20
91.9821029794955
 30
0.0
 10
131.1370867827127
 20
91.8506100568803
 30
0.0
 10
131.1305998427639
 20
91.71774878817117
 30
0.0
 10
131.1255160513391
 20
91.58354104869207
 30
0.0
 10
131.1218695612206
 20
91.44800076521539
 30
0.0
 10
131.1196938211555
 20
91.31242788633826
 30
0.0
 10
131.118973647767
 20
91.17683844926629
 30
0.0
 10
131.1196938211555
 20
91.04124901219437
 30
0.0
 10
131.1218695612206
 20
90.90567613331721
 30
0.0
 10
131.1255160513391
 20
90.77013584984044
 30
0.0
 10
131.1305998427639
 20
90.63592811036134
 30
0.0
 10
131.1370867827127
 20
90.50306684165219
 30
0.0
 10
131.1449749268864
 20
90.37157391903695
 30
0.0
 10
131.1543737316291
 20
90.24018623771583
 30
0.0
 10
131.1651198737792
 20
90.11144401828961
 30
0.0
 10
131.1771547663511
 20
89.98535504216937
 30
0.0
 10
131.1904611408767
 20
89.86194248023542
 30
0.0
 10
131.2053653002559
 20
89.73871926589882
 30
0.0
 10
131.2214644707489
 20
89.61933460488424
 30
0.0
 10
131.2386667990043
 20
89.50379297257944
 30
0.0
 10
131.256932083311
 20
89.3921449055726
 30
0.0
 10
131.2769306660184
 20
89.28082807902773
 30
0.0
 10
131.2978731569741
 20
89.17456988092061
 30
0.0
 10
131.3196127711725
 20
89.07334042031926
 30
0.0
 10
131.3419778365959
 20
88.97756931713383
 30
0.0
 10
131.3661315244981
 20
88.88267183458323
 30
0.0
 10
131.3907548891237
 20
88.79425240164707
 30
0.0
 10
131.4157317295853
 20
88.71189303182228
 30
0.0
 10
131.440820717739
 20
88.63596705043052
 30
0.0
 10
131.4679433003288
 20
88.56113657732413
 30
0.0
 10
131.496526971577
 20
88.48941909007074
 30
0.0
 10
131.5266550679057
 20
88.42057031287994
 30
0.0
 10
131.5588177572198
 20
88.35494644082059
 30
0.0
 10
131.5945996401247
 20
88.29111095283472
 30
0.0
 10
131.6349662752563
 20
88.22760545329821
 30
0.0
 10
131.6796849852035
 20
88.1648545095693
 30
0.0
 10
131.736879803839
 20
88.10851714179168
 30
0.0
 10
131.8090912589208
 20
88.07166173824883
 30
0.0
 10
131.8617343638513
 20
88.05846540327745
 30
0.0
 10
131.888445641374
 20
88.0543394500671
 30
0.0
 11
131.888445641374
 21
94.29933744846549
 31
0.0
 11
131.8099405167645
 21
94.27904927388752
 31
0.0
 11
131.7386531579838
 21
94.24140034935348
 31
0.0
 11
131.6817411922672
 21
94.18769873412143
 31
0.0
 11
131.6344391969699
 21
94.12407880139419
 31
0.0
 11
131.5951030012751
 21
94.0620904906455
 31
0.0
 11
131.5594212344669
 21
93.99843295421025
 31
0.0
 11
131.5271529758014
 21
93.93292682430901
 31
0.0
 11
131.4976985334521
 21
93.86596258170447
 31
0.0
 11
131.4683279504851
 21
93.7923779593988
 31
0.0
 11
131.4413056249176
 21
93.71794617342043
 31
0.0
 11
131.4160492046416
 21
93.64168826693662
 31
0.0
 11
131.3926798356226
 21
93.56481624526706
 31
0.0
 11
131.3664832271213
 21
93.47090983782431
 31
0.0
 11
131.342394670475
 21
93.37644486022472
 31
0.0
 11
131.3199007811086
 21
93.28027222372083
 31
0.0
 11
131.2991289506785
 21
93.18371136576663
 31
0.0
 11
131.2772432833029
 21
93.07278952837423
 31
0.0
 11
131.2572284720812
 21
92.96151519926384
 31
0.0
 11
131.2389353077878
 21
92.84984184352465
 31
0.0
 11
131.2222477924752
 21
92.73791682898922
 31
0.0
 11
131.20564676738
 21
92.61492131405544
 31
0.0
 11
131.1907292395853
 21
92.49171035171542
 31
0.0
 11
131.1774077509953
 21
92.36829597759363
 31
0.0
 11
131.1655985645513
 21
92.24472748517763
 31
0.0
 11
131.1546343440218
 21
92.11347022358255
 31
0.0
 11
131.1452281229032
 21
91.98209217285285
 31
0.0
 11
131.1373317889296
 21
91.85059661994522
 31
0.0
 11
131.1308996284768
 21
91.71902117682908
 31
0.0
 11
131.1257646971563
 21
91.58353286736085
 31
0.0
 11
131.1221157075875
 21
91.44799646155041
 31
0.0
 11
131.1199374175526
 21
91.31242528819864
 31
0.0
 11
131.1192147056182
 21
91.17683844926631
 31
0.0
 11
131.1199374175526
 21
91.04125161033396
 31
0.0
 11
131.1221157075875
 21
90.90568043698221
 31
0.0
 11
131.1257646971563
 21
90.77014403117168
 31
0.0
 11
131.1308996284768
 21
90.63465572170342
 31
0.0
 11
131.1373317889296
 21
90.50308027858729
 31
0.0
 11
131.1452281229031
 21
90.37158472567965
 31
0.0
 11
131.1546343440218
 21
90.24020667494992
 31
0.0
 11
131.1655985645513
 21
90.10894941335484
 31
0.0
 11
131.1774077509953
 21
89.98538092093887
 31
0.0
 11
131.1907292395853
 21
89.86196654681709
 31
0.0
 11
131.2056467673802
 21
89.73875558447707
 31
0.0
 11
131.2222477924752
 21
89.61576006954327
 31
0.0
 11
131.2389353077878
 21
89.50383505500782
 31
0.0
 11
131.2572284720812
 21
89.39216169926867
 31
0.0
 11
131.2772432833029
 21
89.28088737015826
 31
0.0
 11
131.2991289506785
 21
89.16996553276584
 31
0.0
 11
131.3199007811086
 21
89.07340467481168
 31
0.0
 11
131.3423946704749
 21
88.97723203830784
 31
0.0
 11
131.3664832271213
 21
88.88276706070827
 31
0.0
 11
131.3926798356226
 21
88.78886065326559
 31
0.0
 11
131.4160492046417
 21
88.71198863159596
 31
0.0
 11
131.4413056249176
 21
88.63573072511213
 31
0.0
 11
131.4683279504851
 21
88.56129893913374
 31
0.0
 11
131.4976985334522
 21
88.48771431682797
 31
0.0
 11
131.5271529758014
 21
88.42075007422348
 31
0.0
 11
131.5594212344669
 21
88.3552439443223
 31
0.0
 11
131.5951030012751
 21
88.29158640788703
 31
0.0
 11
131.6344391969699
 21
88.22959809713841
 31
0.0
 11
131.6817411922672
 21
88.16597816441108
 31
0.0
 11
131.7386531579838
 21
88.11227654917905
 31
0.0
 11
131.8099405167645
 21
88.07462762464501
 31
0.0
 11
131.888445641374
 21
88.0543394500671
 31
0.0
  0
SPLINE
  5
355
330
A
100
AcDbEntity
  8
AM_0
  6
Continuous
 62
     7
 60
     1
100
AcDbSpline
210
0.0
220
0.0
230
1.0
 70
  1064
 71
     3
 72
    71
 73
    67
 74
    65
 42
0.000000001
 43
0.0000000001
 44
0.000001
 12
0.9882796252068587
 22
-0.1526544542454986
 32
0.0
 13
-0.9882796252069161
 23
-0.152654454245125
 33
0.0
 40
0.0
 40
0.0
 40
0.0
 40
0.0
 40
0.0810841694231393
 40
0.1617027118367012
 40
0.2399513765583861
 40
0.3192292869813944
 40
0.3926451829342157
 40
0.4656210396339274
 40
0.5386436262871231
 40
0.6117994743766069
 40
0.6910290913529791
 40
0.7702143232885691
 40
0.8505458805494686
 40
0.9308916271573199
 40
1.028383581580466
 40
1.125871508787127
 40
1.22463970479372
 40
1.323409506234561
 40
1.436469860045119
 40
1.54952991582616
 40
1.662691683173988
 40
1.775853909774839
 40
1.8999647470389
 40
2.024075517336435
 40
2.148206816663935
 40
2.272338356276137
 40
2.404052798589559
 40
2.53576719019425
 40
2.667499663567532
 40
2.799232279778923
 40
2.93481790851973
 40
3.070403474848137
 40
3.205992196660459
 40
3.341581011671073
 40
3.477169826681644
 40
3.612758548494023
 40
3.748344114822461
 40
3.883929743563307
 40
4.015662359774672
 40
4.147394833147979
 40
4.279109224752684
 40
4.41082366706605
 40
4.534955206678294
 40
4.659086506005782
 40
4.783197276303321
 40
4.907308113567365
 40
5.020470340168246
 40
5.133632107516088
 40
5.246692163297114
 40
5.359752517107661
 40
5.458522318548457
 40
5.557290514555011
 40
5.654778441761672
 40
5.752270396184765
 40
5.83261614279267
 40
5.91294770005366
 40
5.992132931989211
 40
6.071362548965623
 40
6.144518397055055
 40
6.217540983708238
 40
6.290516840407912
 40
6.363932736360709
 40
6.443210646783684
 40
6.521459311505461
 40
6.602077853919036
 40
6.683162023342164
 40
6.683162023342164
 40
6.683162023342164
 40
6.683162023342164
 10
190.188445641374
 20
94.29933744846549
 30
0.0
 10
190.2151569188966
 20
94.29521149525506
 30
0.0
 10
190.2678000238267
 20
94.28201516028348
 30
0.0
 10
190.3400114789085
 20
94.24515975674088
 30
0.0
 10
190.3972062975438
 20
94.18882238896317
 30
0.0
 10
190.4419250074915
 20
94.12607144523457
 30
0.0
 10
190.482291642623
 20
94.06256594569786
 30
0.0
 10
190.5180735255282
 20
93.99873045771199
 30
0.0
 10
190.5502362148421
 20
93.93310658565253
 30
0.0
 10
190.5803643111708
 20
93.86425780846174
 30
0.0
 10
190.6089479824188
 20
93.79254032120833
 30
0.0
 10
190.6360705650085
 20
93.71770984810202
 30
0.0
 10
190.6611595531622
 20
93.64178386671042
 30
0.0
 10
190.6861363936233
 20
93.55942449688557
 30
0.0
 10
190.7107597582491
 20
93.47100506394951
 30
0.0
 10
190.7349134461507
 20
93.37610758139874
 30
0.0
 10
190.7572785115745
 20
93.28033647821333
 30
0.0
 10
190.7790181257729
 20
93.17910701761196
 30
0.0
 10
190.7999606167285
 20
93.07284881950478
 30
0.0
 10
190.8199591994359
 20
92.96153199295984
 30
0.0
 10
190.8382244837427
 20
92.84988392595307
 30
0.0
 10
190.8554268119978
 20
92.7343422936482
 30
0.0
 10
190.8715259824911
 20
92.61495763263372
 30
0.0
 10
190.8864301418701
 20
92.49173441829709
 30
0.0
 10
190.8997365163958
 20
92.36832185636314
 30
0.0
 10
190.9117714089678
 20
92.2422328802429
 30
0.0
 10
190.9225175511179
 20
92.11349066081664
 30
0.0
 10
190.931916355861
 20
91.98210297949554
 30
0.0
 10
190.9398045000349
 20
91.85061005688028
 30
0.0
 10
190.9462914399838
 20
91.71774878817121
 30
0.0
 10
190.9513752314089
 20
91.58354104869207
 30
0.0
 10
190.9550217215274
 20
91.44800076521542
 30
0.0
 10
190.9571974615924
 20
91.31242788633825
 30
0.0
 10
190.9579176349807
 20
91.17683844926629
 30
0.0
 10
190.9571974615923
 20
91.04124901219433
 30
0.0
 10
190.9550217215274
 20
90.90567613331719
 30
0.0
 10
190.9513752314087
 20
90.77013584984042
 30
0.0
 10
190.9462914399838
 20
90.6359281103613
 30
0.0
 10
190.9398045000349
 20
90.50306684165223
 30
0.0
 10
190.931916355861
 20
90.3715739190369
 30
0.0
 10
190.9225175511179
 20
90.24018623771587
 30
0.0
 10
190.9117714089678
 20
90.11144401828955
 30
0.0
 10
190.8997365163958
 20
89.98535504216938
 30
0.0
 10
190.8864301418702
 20
89.86194248023537
 30
0.0
 10
190.8715259824912
 20
89.73871926589879
 30
0.0
 10
190.8554268119977
 20
89.61933460488431
 30
0.0
 10
190.8382244837428
 20
89.50379297257939
 30
0.0
 10
190.8199591994358
 20
89.39214490557265
 30
0.0
 10
190.7999606167285
 20
89.28082807902768
 30
0.0
 10
190.7790181257727
 20
89.17456988092057
 30
0.0
 10
190.7572785115745
 20
89.07334042031919
 30
0.0
 10
190.734913446151
 20
88.97756931713377
 30
0.0
 10
190.710759758249
 20
88.88267183458308
 30
0.0
 10
190.6861363936233
 20
88.79425240164705
 30
0.0
 10
190.6611595531621
 20
88.71189303182211
 30
0.0
 10
190.6360705650083
 20
88.63596705043054
 30
0.0
 10
190.6089479824188
 20
88.56113657732414
 30
0.0
 10
190.5803643111709
 20
88.48941909007079
 30
0.0
 10
190.5502362148421
 20
88.42057031287998
 30
0.0
 10
190.5180735255282
 20
88.35494644082057
 30
0.0
 10
190.482291642623
 20
88.29111095283472
 30
0.0
 10
190.4419250074915
 20
88.22760545329812
 30
0.0
 10
190.397206297544
 20
88.1648545095693
 30
0.0
 10
190.3400114789084
 20
88.10851714179177
 30
0.0
 10
190.2678000238268
 20
88.07166173824903
 30
0.0
 10
190.2151569188966
 20
88.05846540327751
 30
0.0
 10
190.188445641374
 20
88.0543394500671
 30
0.0
 11
190.188445641374
 21
94.29933744846549
 31
0.0
 11
190.2669507659831
 21
94.27904927388743
 31
0.0
 11
190.3382381247636
 21
94.24140034935353
 31
0.0
 11
190.3951500904802
 21
94.1876987341215
 31
0.0
 11
190.4424520857778
 21
94.12407880139427
 31
0.0
 11
190.4817882814727
 21
94.06209049064555
 31
0.0
 11
190.517470048281
 21
93.99843295421026
 31
0.0
 11
190.5497383069465
 21
93.93292682430901
 31
0.0
 11
190.5791927492957
 21
93.86596258170442
 31
0.0
 11
190.6085633322626
 21
93.79237795939877
 31
0.0
 11
190.63558565783
 21
93.71794617342043
 31
0.0
 11
190.6608420781057
 21
93.64168826693669
 31
0.0
 11
190.6842114471245
 21
93.56481624526717
 31
0.0
 11
190.7104080556258
 21
93.47090983782441
 31
0.0
 11
190.7344966122719
 21
93.37644486022478
 31
0.0
 11
190.7569905016384
 21
93.28027222372091
 31
0.0
 11
190.7777623320685
 21
93.1837113657667
 31
0.0
 11
190.799647999444
 21
93.07278952837423
 31
0.0
 11
190.8196628106657
 21
92.96151519926381
 31
0.0
 11
190.8379559749591
 21
92.84984184352465
 31
0.0
 11
190.8546434902716
 21
92.73791682898922
 31
0.0
 11
190.8712445153668
 21
92.61492131405544
 31
0.0
 11
190.8861620431616
 21
92.49171035171542
 31
0.0
 11
190.8994835317517
 21
92.36829597759363
 31
0.0
 11
190.9112927181958
 21
92.24472748517769
 31
0.0
 11
190.9222569387253
 21
92.11347022358255
 31
0.0
 11
190.9316631598443
 21
91.98209217285285
 31
0.0
 11
190.9395594938181
 21
91.85059661994522
 31
0.0
 11
190.945991654271
 21
91.71902117682908
 31
0.0
 11
190.9511265855917
 21
91.58353286736085
 31
0.0
 11
190.9547755751605
 21
91.44799646155041
 31
0.0
 11
190.9569538651953
 21
91.31242528819866
 31
0.0
 11
190.9576765771296
 21
91.17683844926629
 31
0.0
 11
190.9569538651953
 21
91.04125161033394
 31
0.0
 11
190.9547755751605
 21
90.90568043698215
 31
0.0
 11
190.9511265855916
 21
90.77014403117168
 31
0.0
 11
190.945991654271
 21
90.63465572170342
 31
0.0
 11
190.939559493818
 21
90.50308027858729
 31
0.0
 11
190.9316631598443
 21
90.37158472567965
 31
0.0
 11
190.9222569387253
 21
90.24020667494992
 31
0.0
 11
190.9112927181958
 21
90.10894941335484
 31
0.0
 11
190.8994835317517
 21
89.98538092093886
 31
0.0
 11
190.8861620431617
 21
89.86196654681705
 31
0.0
 11
190.8712445153669
 21
89.73875558447705
 31
0.0
 11
190.8546434902716
 21
89.61576006954329
 31
0.0
 11
190.8379559749592
 21
89.50383505500782
 31
0.0
 11
190.8196628106657
 21
89.39216169926867
 31
0.0
 11
190.799647999444
 21
89.28088737015825
 31
0.0
 11
190.7777623320684
 21
89.16996553276581
 31
0.0
 11
190.7569905016384
 21
89.07340467481162
 31
0.0
 11
190.7344966122721
 21
88.97723203830777
 31
0.0
 11
190.7104080556258
 21
88.88276706070817
 31
0.0
 11
190.6842114471245
 21
88.78886065326547
 31
0.0
 11
190.6608420781057
 21
88.71198863159589
 31
0.0
 11
190.6355856578299
 21
88.6357307251121
 31
0.0
 11
190.6085633322626
 21
88.56129893913376
 31
0.0
 11
190.5791927492957
 21
88.48771431682806
 31
0.0
 11
190.5497383069465
 21
88.42075007422353
 31
0.0
 11
190.517470048281
 21
88.3552439443223
 31
0.0
 11
190.4817882814727
 21
88.29158640788703
 31
0.0
 11
190.4424520857778
 21
88.22959809713834
 31
0.0
 11
190.3951500904803
 21
88.16597816441108
 31
0.0
 11
190.3382381247636
 21
88.11227654917905
 31
0.0
 11
190.2669507659831
 21
88.0746276246451
 31
0.0
 11
190.188445641374
 21
88.0543394500671
 31
0.0
  0
SPLINE
  5
356
330
A
100
AcDbEntity
  8
AM_0
  6
Continuous
 62
     7
 60
     1
100
AcDbSpline
210
0.0
220
0.0
230
1.0
 70
  1064
 71
     3
 72
    71
 73
    67
 74
    65
 42
0.000000001
 43
0.0000000001
 44
0.000001
 12
-0.9370615868755022
 22
0.349164119580414
 32
0.0
 13
0.9370615868754528
 23
0.3491641195805467
 33
0.0
 40
0.0
 40
0.0
 40
0.0
 40
0.0
 40
0.064845068777362
 40
0.1291288786631682
 40
0.1941481332160922
 40
0.2603514002401992
 40
0.3252361764764538
 40
0.3896282400200174
 40
0.4541286571172139
 40
0.5187747086955374
 40
0.5961186064221672
 40
0.6734119151897473
 40
0.7521550076822719
 40
0.830913638439037
 40
0.9271752616748452
 40
1.023431115463122
 40
1.120449230892364
 40
1.217469176708843
 40
1.32962044365197
 40
1.441771303019183
 40
1.554031228336477
 40
1.666291456496424
 40
1.78994278186898
 40
1.913594017356626
 40
2.037234258500112
 40
2.160874618143623
 40
2.29242842838304
 40
2.423982217401723
 40
2.555550571107488
 40
2.687118989303259
 40
2.822686536674742
 40
2.958254053988249
 40
3.093820585045746
 40
3.229387157372867
 40
3.36495372970013
 40
3.500520260757698
 40
3.636087778071277
 40
3.771655325442833
 40
3.903223743638505
 40
4.034792097344254
 40
4.166345886362882
 40
4.297899696602208
 40
4.421540056245762
 40
4.545180297389304
 40
4.668831532877042
 40
4.792482858249679
 40
4.904743086409562
 40
5.017003011726879
 40
5.129153871094017
 40
5.241305138037096
 40
5.338325083853559
 40
5.435343199282794
 40
5.531599053071053
 40
5.62786067630686
 40
5.706619307063603
 40
5.785362399556096
 40
5.862655708323737
 40
5.939999606050312
 40
6.00464565762869
 40
6.069146074725905
 40
6.133538138269547
 40
6.198422914505802
 40
6.264626181529928
 40
6.329645436082802
 40
6.393929245968617
 40
6.458774314745972
 40
6.458774314745972
 40
6.458774314745972
 40
6.458774314745972
 10
176.188445641374
 20
88.0543394500671
 30
0.0
 10
176.1681910336908
 20
88.06188664051671
 30
0.0
 10
176.1291346133554
 20
88.08064103092524
 30
0.0
 10
176.0780398257587
 20
88.12200514568109
 30
0.0
 10
176.0434243035676
 20
88.17825638772626
 30
0.0
 10
176.019016332231
 20
88.23887245370235
 30
0.0
 10
175.9951311997893
 20
88.29950564734977
 30
0.0
 10
175.9729444619405
 20
88.3601795114407
 30
0.0
 10
175.9531208140303
 20
88.42158682496041
 30
0.0
 10
175.9339879989729
 20
88.48771178214004
 30
0.0
 10
175.915483750682
 20
88.55843415231538
 30
0.0
 10
175.8976488664592
 20
88.63416243900145
 30
0.0
 10
175.8813274680578
 20
88.71071175151334
 30
0.0
 10
175.8651086069324
 20
88.79373302498185
 30
0.0
 10
175.8490429689597
 20
88.88272325644997
 30
0.0
 10
175.8332672502182
 20
88.9779401180378
 30
0.0
 10
175.8187052303677
 20
89.07360535409694
 30
0.0
 10
175.8045511752101
 20
89.1746843863059
 30
0.0
 10
175.790920598174
 20
89.28092347281355
 30
0.0
 10
175.7779112826891
 20
89.39235619998676
 30
0.0
 10
175.7660599378344
 20
89.50395421153116
 30
0.0
 10
175.7548974731194
 20
89.61947484140742
 30
0.0
 10
175.7444381940558
 20
89.73887355018028
 30
0.0
 10
175.7347476711305
 20
89.86214239079258
 30
0.0
 10
175.7261013613807
 20
89.98548505726246
 30
0.0
 10
175.7182786844654
 20
90.11152191088518
 30
0.0
 10
175.7112928979837
 20
90.24024982833125
 30
0.0
 10
175.7051830226067
 20
90.3716677984452
 30
0.0
 10
175.7000587347842
 20
90.5031326839067
 30
0.0
 10
175.695844747205
 20
90.63596840994923
 30
0.0
 10
175.6925409623025
 20
90.77016339147938
 30
0.0
 10
175.6901706521666
 20
90.90571100278813
 30
0.0
 10
175.6887565590243
 20
91.04127161470719
 30
0.0
 10
175.6882885664513
 20
91.1768384492662
 30
0.0
 10
175.6887565590244
 20
91.31240528382523
 30
0.0
 10
175.6901706521666
 20
91.44796589574438
 30
0.0
 10
175.6925409623024
 20
91.58351350705318
 30
0.0
 10
175.6958447472052
 20
91.71770848858333
 30
0.0
 10
175.7000587347843
 20
91.85054421462586
 30
0.0
 10
175.7051830226068
 20
91.98200910008731
 30
0.0
 10
175.7112928979838
 20
92.11342707020117
 30
0.0
 10
175.7182786844654
 20
92.2421549876473
 30
0.0
 10
175.7261013613807
 20
92.36819184126991
 30
0.0
 10
175.7347476711304
 20
92.49153450773997
 30
0.0
 10
175.744438194056
 20
92.61480334835225
 30
0.0
 10
175.7548974731195
 20
92.73420205712517
 30
0.0
 10
175.7660599378349
 20
92.84972268700142
 30
0.0
 10
175.7779112826894
 20
92.96132069854579
 30
0.0
 10
175.7909205981747
 20
93.07275342571893
 30
0.0
 10
175.8045511752108
 20
93.17899251222652
 30
0.0
 10
175.8187052303682
 20
93.2800715444355
 30
0.0
 10
175.8332672502187
 20
93.3757367804946
 30
0.0
 10
175.8490429689599
 20
93.47095364208245
 30
0.0
 10
175.8651086069325
 20
93.55994387355062
 30
0.0
 10
175.8813274680578
 20
93.64296514701912
 30
0.0
 10
175.8976488664591
 20
93.71951445953104
 30
0.0
 10
175.915483750682
 20
93.79524274621706
 30
0.0
 10
175.9339879989729
 20
93.8659651163925
 30
0.0
 10
175.9531208140304
 20
93.93209007357203
 30
0.0
 10
175.9729444619403
 20
93.9934973870919
 30
0.0
 10
175.9951311997894
 20
94.0541712511828
 30
0.0
 10
176.0190163322309
 20
94.11480444483023
 30
0.0
 10
176.0434243035679
 20
94.17542051080628
 30
0.0
 10
176.0780398257586
 20
94.23167175285152
 30
0.0
 10
176.1291346133554
 20
94.27303586760734
 30
0.0
 10
176.1681910336908
 20
94.29179025801587
 30
0.0
 10
176.188445641374
 20
94.29933744846549
 30
0.0
 11
176.188445641374
 21
88.0543394500671
 31
0.0
 11
176.1302445399651
 21
88.08293181603916
 31
0.0
 11
176.0809861284835
 21
88.12423560149083
 31
0.0
 11
176.0453288931595
 21
88.1786051746141
 31
0.0
 11
176.018928955681
 21
88.23931684012732
 31
0.0
 11
175.9953221446054
 21
88.29975480476241
 31
0.0
 11
175.9733458121408
 21
88.36028062638563
 31
0.0
 11
175.9534511927834
 21
88.42163618693446
 31
0.0
 11
175.9354087543228
 21
88.48371339332869
 31
0.0
 11
175.9157883764246
 21
88.55852726605927
 31
0.0
 11
175.8980248660391
 21
88.63375166238038
 31
0.0
 11
175.8815498005897
 21
88.71075194426994
 31
0.0
 11
175.8663943367733
 21
88.78803862202326
 31
0.0
 11
175.8492714109386
 21
88.88276507457701
 31
0.0
 11
175.833516867701
 21
88.9777228503827
 31
0.0
 11
175.818897127684
 21
89.07363308634073
 31
0.0
 11
175.8054227868487
 21
89.16971277986348
 31
0.0
 11
175.7911326811205
 21
89.28094988492926
 31
0.0
 11
175.7781098660774
 21
89.39234205488432
 31
0.0
 11
175.7662371728775
 21
89.50397235511179
 31
0.0
 11
175.7554223196514
 21
89.61571040445377
 31
0.0
 11
175.7446224223889
 21
89.7388891567008
 31
0.0
 11
175.7349223285295
 21
89.86215930169548
 31
0.0
 11
175.7262667778354
 21
89.98549616969064
 31
0.0
 11
175.7185979868581
 21
90.1088984403867
 31
0.0
 11
175.7114637119357
 21
90.24025862539239
 31
0.0
 11
175.7053485055438
 21
90.37167017221261
 31
0.0
 11
175.7002185119035
 21
90.5031384411505
 31
0.0
 11
175.6960412669672
 21
90.63464049465029
 31
0.0
 11
175.6927030022812
 21
90.77016689805832
 31
0.0
 11
175.6903310135895
 21
90.90571362611193
 31
0.0
 11
175.6889152413119
 21
91.0412727274403
 31
0.0
 11
175.6884455639915
 21
91.17683844926615
 31
0.0
 11
175.6889152413119
 21
91.31240417109212
 31
0.0
 11
175.6903310135895
 21
91.44796327242056
 31
0.0
 11
175.6927030022812
 21
91.58351000047424
 31
0.0
 11
175.6960412669673
 21
91.71903640388235
 31
0.0
 11
175.7002185119036
 21
91.85053845738204
 31
0.0
 11
175.7053485055439
 21
91.98200672631992
 31
0.0
 11
175.7114637119358
 21
92.11341827314006
 31
0.0
 11
175.7185979868581
 21
92.24477845814568
 31
0.0
 11
175.7262667778354
 21
92.36818072884178
 31
0.0
 11
175.7349223285295
 21
92.491517596837
 31
0.0
 11
175.744622422389
 21
92.61478774183176
 31
0.0
 11
175.7554223196516
 21
92.73796649407886
 31
0.0
 11
175.7662371728779
 21
92.84970454342078
 31
0.0
 11
175.7781098660779
 21
92.96133484364824
 31
0.0
 11
175.7911326811211
 21
93.07272701360323
 31
0.0
 11
175.8054227868493
 21
93.18396411866894
 31
0.0
 11
175.8188971276845
 21
93.28004381219169
 31
0.0
 11
175.8335168677014
 21
93.37595404814974
 31
0.0
 11
175.8492714109388
 21
93.47091182395544
 31
0.0
 11
175.8663943367734
 21
93.56563827650921
 31
0.0
 11
175.8815498005897
 21
93.64292495426253
 31
0.0
 11
175.898024866039
 21
93.71992523615208
 31
0.0
 11
175.9157883764246
 21
93.79514963247322
 31
0.0
 11
175.9354087543228
 21
93.86996350520375
 31
0.0
 11
175.9534511927834
 21
93.93204071159805
 31
0.0
 11
175.9733458121407
 21
93.99339627214692
 31
0.0
 11
175.9953221446054
 21
94.05392209377019
 31
0.0
 11
176.018928955681
 21
94.11436005840528
 31
0.0
 11
176.0453288931596
 21
94.17507172391848
 31
0.0
 11
176.0809861284835
 21
94.22944129704175
 31
0.0
 11
176.1302445399651
 21
94.27074508249344
 31
0.0
 11
176.188445641374
 21
94.29933744846549
 31
0.0
  0
POINT
  5
360
330
A
100
AcDbEntity
  8
AM_5
  6
Continuous
 62
     7
 60
     1
100
AcDbPoint
 10
153.688446
 20
99.67683800000001
 30
0.0
  0
POINT
  5
361
330
A
100
AcDbEntity
  8
AM_5
  6
Continuous
 62
     7
 60
     1
100
AcDbPoint
 10
32.83508
 20
94.376838
 30
0.0
  0
POINT
  5
362
330
A
100
AcDbEntity
  8
AM_5
  6
Continuous
 62
     7
 60
     1
100
AcDbPoint
 10
273.415583
 20
99.67683800000001
 30
0.0
  0
POINT
  5
363
330
A
100
AcDbEntity
  8
AM_5
  6
Continuous
 62
     7
 60
     1
100
AcDbPoint
 10
210.188446
 20
97.926838
 30
0.0
  0
LINE
  5
39E
330
A
100
AcDbEntity
  8
AM_7
  6
CENTER
 62
     2
 60
     1
100
AcDbLine
 10
257.415583
 20
91.176838
 30
0.0
 11
29.524151
 21
91.176838
 31
0.0
  0
LINE
  5
39F
330
A
100
AcDbEntity
  8
AM_7
  6
CENTER
 62
     2
 60
     1
100
AcDbLine
 10
237.995572
 20
85.176838
 30
0.0
 11
330.69431
 21
85.176838
 31
0.0
  0
LINE
  5
3A4
330
A
100
AcDbEntity
  8
AM_8
  6
Continuous
 62
     3
 60
     1
100
AcDbLine
 10
143.888446
 20
82.17683800000001
 30
0.0
 11
144.888446
 21
82.676838
 31
0.0
  0
LINE
  5
3A5
330
A
100
AcDbEntity
  8
AM_8
  6
Continuous
 62
     3
 60
     1
100
AcDbLine
 10
153.688446
 20
82.676838
 30
0.0
 11
144.888446
 21
82.676838
 31
0.0
  0
LINE
  5
3A6
330
A
100
AcDbEntity
  8
AM_8
  6
Continuous
 62
     3
 60
     1
100
AcDbLine
 10
144.888446
 20
99.67683800000001
 30
0.0
 11
143.888446
 21
100.176838
 31
0.0
  0
LINE
  5
3A7
330
A
100
AcDbEntity
  8
AM_8
  6
Continuous
 62
     3
 60
     1
100
AcDbLine
 10
144.888446
 20
99.67683800000001
 30
0.0
 11
153.688446
 21
99.67683800000001
 31
0.0
  0
LINE
  5
3A8
330
A
100
AcDbEntity
  8
AM_8
  6
Continuous
 62
     3
 60
     1
100
AcDbLine
 10
144.888446
 20
100.176838
 30
0.0
 11
144.888446
 21
82.17683800000001
 31
0.0
  0
LINE
  5
3A9
330
A
100
AcDbEntity
  8
AM_8
  6
Continuous
 62
     3
 60
     1
100
AcDbLine
 10
153.188446
 20
100.176838
 30
0.0
 11
153.188446
 21
82.17683800000001
 31
0.0
  0
SPLINE
  5
3AA
330
A
100
AcDbEntity
  8
AM_8
  6
Continuous
 62
     3
 60
     1
100
AcDbSpline
210
0.0
220
0.0
230
1.0
 70
  1064
 71
     3
 72
    11
 73
     7
 74
     5
 42
0.000000001
 43
0.0000000001
 44
0.000001
 12
0.2301121135360131
 22
-0.9731641255225087
 32
0.0
 13
0.1222708080737239
 23
-0.9924967755579856
 33
0.0
 40
0.0
 40
0.0
 40
0.0
 40
0.0
 40
3.617196217964475
 40
7.234728743421074
 40
10.86890715518799
 40
14.5027477304846
 40
14.5027477304846
 40
14.5027477304846
 40
14.5027477304846
 10
67.5126740870905
 20
98.36716989093908
 30
0.0
 10
67.79012764268727
 20
97.1937946928395
 30
0.0
 10
68.31306806406094
 20
94.83923820562583
 30
0.0
 10
69.00170818509936
 20
91.28187359181035
 30
0.0
 10
69.59327026515627
 20
87.7014548428381
 30
0.0
 10
69.92246778892043
 20
85.30089091305475
 30
0.0
 10
70.07057199677129
 20
84.0986992284302
 30
0.0
 11
67.5126740870905
 21
98.36716989093908
 31
0.0
 11
68.29690693173145
 21
94.83600999047038
 31
0.0
 11
68.98438601446193
 21
91.284403111895
 31
0.0
 11
69.57684440788978
 21
87.69884274964454
 31
0.0
 11
70.07057199677129
 21
84.0986992284302
 31
0.0
  0
SPLINE
  5
3AB
330
A
100
AcDbEntity
  8
AM_8
  6
Continuous
 62
     3
 60
     1
100
AcDbSpline
210
0.0
220
0.0
230
1.0
 70
  1064
 71
     3
 72
    11
 73
     7
 74
     5
 42
0.000000001
 43
0.0000000001
 44
0.000001
 12
0.2301121135360131
 22
-0.9731641255225087
 32
0.0
 13
0.1222708080737239
 23
-0.9924967755579856
 33
0.0
 40
0.0
 40
0.0
 40
0.0
 40
0.0
 40
3.617196217964475
 40
7.234728743421072
 40
10.86890715518799
 40
14.5027477304846
 40
14.5027477304846
 40
14.5027477304846
 40
14.5027477304846
 10
69.8326259562577
 20
98.36716989093908
 30
0.0
 10
70.11007951185447
 20
97.1937946928395
 30
0.0
 10
70.63301993322816
 20
94.83923820562583
 30
0.0
 10
71.32166005426651
 20
91.28187359181035
 30
0.0
 10
71.91322213432354
 20
87.7014548428381
 30
0.0
 10
72.24241965808764
 20
85.30089091305475
 30
0.0
 10
72.39052386593851
 20
84.0986992284302
 30
0.0
 11
69.8326259562577
 21
98.36716989093908
 31
0.0
 11
70.61685880089865
 21
94.83600999047038
 31
0.0
 11
71.30433788362911
 21
91.284403111895
 31
0.0
 11
71.89679627705702
 21
87.69884274964454
 31
0.0
 11
72.39052386593851
 21
84.0986992284302
 31
0.0
  0
SPLINE
  5
3AC
330
A
100
AcDbEntity
  8
AM_8
  6
Continuous
 62
     3
 60
     1
100
AcDbSpline
210
0.0
220
0.0
230
1.0
 70
  1064
 71
     3
 72
    11
 73
     7
 74
     5
 42
0.000000001
 43
0.0000000001
 44
0.000001
 12
0.2301121135360198
 22
-0.9731641255225071
 32
0.0
 13
0.122270808073747
 23
-0.9924967755579828
 33
0.0
 40
0.0
 40
0.0
 40
0.0
 40
0.0
 40
3.617196217964498
 40
7.234728743421086
 40
10.86890715518801
 40
14.50274773048463
 40
14.50274773048463
 40
14.50274773048463
 40
14.50274773048463
 10
227.196863901326
 20
98.36716989093908
 30
0.0
 10
227.4743174569227
 20
97.1937946928395
 30
0.0
 10
227.9972578782965
 20
94.83923820562583
 30
0.0
 10
228.685897999335
 20
91.28187359181032
 30
0.0
 10
229.2774600793919
 20
87.70145484283808
 30
0.0
 10
229.6066576031561
 20
85.30089091305475
 30
0.0
 10
229.754761811007
 20
84.0986992284302
 30
0.0
 11
227.196863901326
 21
98.36716989093908
 31
0.0
 11
227.981096745967
 21
94.83600999047036
 31
0.0
 11
228.6685758286975
 21
91.284403111895
 31
0.0
 11
229.2610342221254
 21
87.69884274964454
 31
0.0
 11
229.754761811007
 21
84.0986992284302
 31
0.0
  0
SPLINE
  5
3AD
330
A
100
AcDbEntity
  8
AM_8
  6
Continuous
 62
     3
 60
     1
100
AcDbSpline
210
0.0
220
0.0
230
1.0
 70
  1064
 71
     3
 72
    11
 73
     7
 74
     5
 42
0.000000001
 43
0.0000000001
 44
0.000001
 12
0.2301121135360131
 22
-0.9731641255225087
 32
0.0
 13
0.122270808073747
 23
-0.9924967755579828
 33
0.0
 40
0.0
 40
0.0
 40
0.0
 40
0.0
 40
3.617196217964484
 40
7.234728743421086
 40
10.86890715518802
 40
14.50274773048463
 40
14.50274773048463
 40
14.50274773048463
 40
14.50274773048463
 10
224.876912032159
 20
98.36716989093908
 30
0.0
 10
225.1543655877558
 20
97.1937946928395
 30
0.0
 10
225.6773060091295
 20
94.83923820562585
 30
0.0
 10
226.3659461301678
 20
91.28187359181032
 30
0.0
 10
226.9575082102251
 20
87.70145484283812
 30
0.0
 10
227.2867057339891
 20
85.30089091305475
 30
0.0
 10
227.43480994184
 20
84.0986992284302
 30
0.0
 11
224.876912032159
 21
98.36716989093908
 31
0.0
 11
225.6611448768
 21
94.83600999047038
 31
0.0
 11
226.3486239595305
 21
91.284403111895
 31
0.0
 11
226.9410823529585
 21
87.69884274964454
 31
0.0
 11
227.43480994184
 21
84.0986992284302
 31
0.0
  0
CIRCLE
  5
4FF
330
A
100
AcDbEntity
  8
0
  6
Continuous
 62
   254
100
AcDbCircle
 10
-340.012685
 20
162.459555
 30
0.0
 40
3.983975
  0
CIRCLE
  5
500
330
A
100
AcDbEntity
  8
0
  6
Continuous
 62
   254
100
AcDbCircle
 10
-340.012685
 20
162.459555
 30
0.0
 40
1.5
  0
CIRCLE
  5
501
330
A
100
AcDbEntity
  8
0
  6
Continuous
 62
     7
100
AcDbCircle
 10
-340.012685
 20
162.459555
 30
0.0
 40
7.256624
  0
CIRCLE
  5
502
330
A
100
AcDbEntity
  8
0
  6
Continuous
 62
     7
100
AcDbCircle
 10
-340.012685
 20
162.459555
 30
0.0
 40
8.699999999999999
  0
DIMENSION
  5
505
330
A
100
AcDbEntity
  8
0
  6
Continuous
 62
     7
100
AcDbDimension
  2
*D12
 10
-260.566375
 20
230.302428
 30
0.0
 11
-189.066375
 21
230.302428
 31
0.0
 70
   160
  1
（<>）
 71
     5
 41
0.9
 42
84.19999999999999
  3
MX_DIMSTYLE_MODEL_SPACE
100
AcDbAlignedDimension
 13
-176.366375
 23
176.959555
 33
0.0
 14
-260.566375
 24
177.259558
 34
0.0
 50
180.0
100
AcDbRotatedDimension
1001
ACAD
1000
DSTYLE
1002
{
1070
     6
1000
SOLID
1070
     7
1000
SOLID
1070
    41
1040
3.0
1070
   173
1070
     1
1070
   271
1070
     0
1070
   284
1070
     8
1070
   340
1005
9D
1002
}
  0
POINT
  5
507
330
A
100
AcDbEntity
  8
0
  6
Continuous
 62
     7
100
AcDbPoint
 10
-271.566375
 20
162.459555
 30
0.0
 50
180.0
  0
POINT
  5
508
330
A
100
AcDbEntity
  8
0
  6
Continuous
 62
     7
100
AcDbPoint
 10
-271.566373
 20
167.459555
 30
0.0
 50
180.0
  0
INSERT
  5
509
330
A
100
AcDbEntity
  8
0
  6
ByBlock
100
AcDbBlockReference
  2
SG6コレット
 10
-273.566375
 20
162.459555
 30
0.0
 41
-1.0
  0
DIMENSION
  5
50C
330
A
100
AcDbEntity
  8
0
  6
Continuous
 62
     7
100
AcDbDimension
  2
*D13
 10
-201.0144333218523
 20
172.459555
 30
0.0
 11
-201.0144333218522
 21
140.234275
 31
0.0
 70
   160
  1
\U+2205<>{}{\H0.71x;\C3;\S 0^ -0.1;}
 71
     5
 41
0.9
 42
20.00000000000003
  3
MX_DIMSTYLE_MODEL_SPACE
100
AcDbAlignedDimension
 13
-222.566375
 23
152.4595549999999
 33
0.0
 14
-222.566375
 24
172.459555
 34
0.0
 50
90.0
100
AcDbRotatedDimension
1001
GENIUS_GENDTOL_13
1000
TolSmNrm
1000
h7
1000
{\H0.71x;$2\S$+$P^ $-$M;}
1040
20.0
1001
ACAD
1000
DSTYLE
1002
{
1070
   286
1070
     0
1070
   274
1070
     4
1070
    47
1040
0.0
1070
    41
1040
3.0
1070
    48
1040
0.1
1070
    75
1070
     1
1070
    76
1070
     1
1070
   173
1070
     1
1070
   271
1070
     0
1070
   272
1070
     3
1070
   284
1070
     8
1070
   340
1005
BD
1002
}
  0
LINE
  5
512
330
A
100
AcDbEntity
  8
0
  6
Continuous
 62
     7
100
AcDbLine
 10
-222.566375
 20
133.459555
 30
0.0
 11
-230.566375
 21
133.459555
 31
0.0
  0
LINE
  5
513
330
A
100
AcDbEntity
  8
0
  6
Continuous
 62
     7
100
AcDbLine
 10
-222.566375
 20
191.459555
 30
0.0
 11
-222.566375
 21
133.459555
 31
0.0
  0
LINE
  5
51B
330
A
100
AcDbEntity
  8
0
  6
AM_ISO09W050
 62
     7
100
AcDbLine
 10
-226.066375
 20
184.8625948304193
 30
0.0
 11
-226.066375
 21
176.8625948304193
 31
0.0
  0
LINE
  5
51D
330
A
100
AcDbEntity
  8
0
  6
AM_ISO09W050
 62
     7
100
AcDbLine
 10
-226.066375
 20
183.1125948304193
 30
0.0
 11
-222.566375
 21
183.1125948304193
 31
0.0
  0
LINE
  5
51E
330
A
100
AcDbEntity
  8
0
  6
AM_ISO09W050
 62
     7
100
AcDbLine
 10
-226.066375
 20
178.6125948304193
 30
0.0
 11
-222.566375
 21
178.6125948304193
 31
0.0
  0
LINE
  5
521
330
A
100
AcDbEntity
  8
0
  6
AM_ISO09W050
 62
     7
100
AcDbLine
 10
-230.566375
 20
184.8625948304193
 30
0.0
 11
-226.066375
 21
184.8625948304193
 31
0.0
  0
LINE
  5
522
330
A
100
AcDbEntity
  8
0
  6
AM_ISO09W050
 62
     7
100
AcDbLine
 10
-230.566375
 20
176.8625948304193
 30
0.0
 11
-226.066375
 21
176.8625948304193
 31
0.0
  0
LINE
  5
523
330
A
100
AcDbEntity
  8
0
  6
CENTER
 62
     7
100
AcDbLine
 10
-233.3995166602435
 20
180.8625948304193
 30
0.0
 11
-218.4695283459075
 21
180.8625948304193
 31
0.0
  0
CIRCLE
  5
526
330
A
100
AcDbEntity
  8
0
  6
Continuous
 62
     7
100
AcDbCircle
 10
-329.387685
 20
144.0565151695807
 30
0.0
 40
4.0
  0
CIRCLE
  5
527
330
A
100
AcDbEntity
  8
0
  6
Continuous
 62
     7
100
AcDbCircle
 10
-350.637685
 20
180.8625948304193
 30
0.0
 40
4.0
  0
CIRCLE
  5
528
330
A
100
AcDbEntity
  8
0
  6
Continuous
 62
     7
100
AcDbCircle
 10
-329.387685
 20
144.0565151695807
 30
0.0
 40
2.25
  0
CIRCLE
  5
529
330
A
100
AcDbEntity
  8
0
  6
Continuous
 62
     7
100
AcDbCircle
 10
-350.637685
 20
180.8625948304193
 30
0.0
 40
2.25
  0
CIRCLE
  5
52A
330
A
100
AcDbEntity
  8
0
  6
CENTER
 62
     7
100
AcDbCircle
 10
-340.012685
 20
162.459555
 30
0.0
 40
21.25
  0
ARC
  5
52B
330
A
100
AcDbEntity
  8
0
  6
Continuous
 62
     7
100
AcDbCircle
 10
-340.012685
 20
162.459555
 30
0.0
 40
29.0
100
AcDbArc
 50
54.11170244719408
 51
125.8882975528059
  0
ARC
  5
52C
330
A
100
AcDbEntity
  8
0
  6
Continuous
 62
     7
100
AcDbCircle
 10
-340.012685
 20
162.459555
 30
0.0
 40
29.0
100
AcDbArc
 50
234.1117024471941
 51
305.8882975528059
  0
DIMENSION
  5
52D
330
A
100
AcDbEntity
  8
0
  6
Continuous
 62
     7
100
AcDbDimension
  2
*D15
 10
-230.566375
 20
204.034444
 30
0.0
 11
-225.566375
 21
204.034444
 31
0.0
 70
   160
  1
<>
 71
     5
 41
0.9
 42
8.0
  3
MX_DIMSTYLE_MODEL_SPACE
100
AcDbAlignedDimension
 13
-222.566375
 23
191.459555
 33
0.0
 14
-230.566375
 24
191.459555
 34
0.0
 50
180.0
100
AcDbRotatedDimension
1001
ACAD
1000
DSTYLE
1002
{
1070
    41
1040
3.0
1070
   173
1070
     1
1070
   271
1070
     0
1070
   284
1070
     8
1070
   340
1005
D7
1002
}
  0
DIMENSION
  5
52E
330
A
100
AcDbEntity
  8
0
  6
Continuous
 62
     7
100
AcDbDimension
  2
*D19
 10
-258.566375
 20
204.034444
 30
0.0
 11
-245.6467095160192
 21
204.034444
 31
0.0
 70
   160
  1
<>
 71
     5
 41
0.9
 42
28.0
  3
MX_DIMSTYLE_MODEL_SPACE
100
AcDbAlignedDimension
 13
-230.566375
 23
191.459556
 33
0.0
 14
-258.566375
 24
178.459556
 34
0.0
 50
180.0
100
AcDbRotatedDimension
1001
ACAD
1000
DSTYLE
1002
{
1070
    41
1040
3.0
1070
    76
1070
     1
1070
   173
1070
     1
1070
   271
1070
     0
1070
   284
1070
     8
1070
   340
1005
F9
1002
}
  0
LINE
  5
52F
330
A
100
AcDbEntity
  8
0
  6
Continuous
 62
     7
100
AcDbLine
 10
-222.566375
 20
191.459555
 30
0.0
 11
-230.566375
 21
191.459555
 31
0.0
  0
LINE
  5
530
330
A
100
AcDbEntity
  8
0
  6
Continuous
 62
     7
100
AcDbLine
 10
-230.566375
 20
191.459555
 30
0.0
 11
-230.566375
 21
133.459555
 31
0.0
  0
LINE
  5
532
330
A
100
AcDbEntity
  8
1
  6
DASHED
 62
   254
100
AcDbLine
 10
-271.566375
 20
157.459555
 30
0.0
 11
-271.566375
 21
162.459555
 31
0.0
  0
LINE
  5
533
330
A
100
AcDbEntity
  8
1
  6
DASHED
 62
   254
100
AcDbLine
 10
-271.566375
 20
156.459555
 30
0.0
 11
-271.566375
 21
157.459555
 31
0.0
  0
LINE
  5
534
330
A
100
AcDbEntity
  8
1
  6
DASHED
 62
   254
100
AcDbLine
 10
-271.566375
 20
156.459555
 30
0.0
 11
-270.941375
 21
155.834555
 31
0.0
  0
LINE
  5
535
330
A
100
AcDbEntity
  8
1
  6
DASHED
 62
   110
100
AcDbLine
 10
-267.066375
 20
155.834555
 30
0.0
 11
-270.941375
 21
155.834555
 31
0.0
  0
LINE
  5
536
330
A
100
AcDbEntity
  8
1
  6
DASHED
 62
   254
100
AcDbLine
 10
-267.066375
 20
155.459555
 30
0.0
 11
-270.566375
 21
155.459555
 31
0.0
  0
LINE
  5
537
330
A
100
AcDbEntity
  8
1
  6
DASHED
 62
   254
100
AcDbLine
 10
-270.941375
 20
155.834555
 30
0.0
 11
-270.566375
 21
155.459555
 31
0.0
  0
LINE
  5
538
330
A
100
AcDbEntity
  8
1
  6
DASHED
 62
   254
100
AcDbLine
 10
-270.566375
 20
155.459555
 30
0.0
 11
-270.566375
 21
162.459555
 31
0.0
  0
LINE
  5
539
330
A
100
AcDbEntity
  8
1
  6
DASHED
 62
   110
100
AcDbLine
 10
-267.066375
 20
169.084555
 30
0.0
 11
-270.941375
 21
169.084555
 31
0.0
  0
LINE
  5
53A
330
A
100
AcDbEntity
  8
1
  6
DASHED
 62
   254
100
AcDbLine
 10
-267.066375
 20
169.459555
 30
0.0
 11
-270.566375
 21
169.459555
 31
0.0
  0
LINE
  5
53C
330
A
100
AcDbEntity
  8
1
  6
DASHED
 62
   254
100
AcDbLine
 10
-271.566375
 20
167.459555
 30
0.0
 11
-271.566375
 21
162.459555
 31
0.0
  0
LINE
  5
53D
330
A
100
AcDbEntity
  8
1
  6
Continuous
 62
     3
100
AcDbLine
 10
-264.566375
 20
169.084555
 30
0.0
 11
-267.066375
 21
169.084555
 31
0.0
  0
LINE
  5
53E
330
A
100
AcDbEntity
  8
1
  6
Continuous
 62
     3
100
AcDbLine
 10
-264.566375
 20
155.834555
 30
0.0
 11
-267.066375
 21
155.834555
 31
0.0
  0
LINE
  5
53F
330
A
100
AcDbEntity
  8
1
  6
Continuous
 62
     7
100
AcDbLine
 10
-264.566375
 20
169.459555
 30
0.0
 11
-264.566375
 21
166.065555
 31
0.0
  0
LINE
  5
540
330
A
100
AcDbEntity
  8
1
  6
Continuous
 62
     3
100
AcDbLine
 10
-264.566375
 20
169.084555
 30
0.0
 11
-263.916856
 21
169.459555
 31
0.0
  0
LINE
  5
541
330
A
100
AcDbEntity
  8
1
  6
Continuous
 62
     3
100
AcDbLine
 10
-264.566375
 20
155.834555
 30
0.0
 11
-263.916856
 21
155.459555
 31
0.0
  0
LINE
  5
542
330
A
100
AcDbEntity
  8
1
  6
DASHED
 62
   254
100
AcDbLine
 10
-271.566375
 20
168.459555
 30
0.0
 11
-270.941375
 21
169.084555
 31
0.0
  0
LINE
  5
543
330
A
100
AcDbEntity
  8
1
  6
DASHED
 62
   254
100
AcDbLine
 10
-271.566375
 20
168.459555
 30
0.0
 11
-271.566375
 21
167.459555
 31
0.0
  0
LINE
  5
544
330
A
100
AcDbEntity
  8
1
  6
Continuous
 62
     7
100
AcDbLine
 10
-263.916856
 20
169.459555
 30
0.0
 11
-267.066375
 21
169.459555
 31
0.0
  0
LINE
  5
545
330
A
100
AcDbEntity
  8
1
  6
DASHED
 62
   254
100
AcDbLine
 10
-270.941375
 20
169.084555
 30
0.0
 11
-270.566375
 21
169.459555
 31
0.0
  0
LINE
  5
546
330
A
100
AcDbEntity
  8
1
  6
Continuous
 62
     7
100
AcDbLine
 10
-263.916856
 20
155.459555
 30
0.0
 11
-267.066375
 21
155.459555
 31
0.0
  0
LINE
  5
547
330
A
100
AcDbEntity
  8
1
  6
Continuous
 62
     7
100
AcDbLine
 10
-260.566375
 20
169.459555
 30
0.0
 11
-263.916856
 21
169.459555
 31
0.0
  0
LINE
  5
548
330
A
100
AcDbEntity
  8
1
  6
Continuous
 62
     7
100
AcDbLine
 10
-260.566375
 20
155.459555
 30
0.0
 11
-263.916856
 21
155.459555
 31
0.0
  0
LINE
  5
549
330
A
100
AcDbEntity
  8
1
  6
Continuous
 62
     7
100
AcDbLine
 10
-261.566375
 20
166.065555
 30
0.0
 11
-265.566375
 21
166.065555
 31
0.0
  0
LINE
  5
54A
330
A
100
AcDbEntity
  8
1
  6
Continuous
 62
     7
100
AcDbLine
 10
-265.566375
 20
166.065555
 30
0.0
 11
-265.566375
 21
158.853555
 31
0.0
  0
LINE
  5
54B
330
A
100
AcDbEntity
  8
1
  6
Continuous
 62
     7
100
AcDbLine
 10
-265.566375
 20
158.853555
 30
0.0
 11
-261.566375
 21
158.853555
 31
0.0
  0
LINE
  5
54C
330
A
100
AcDbEntity
  8
1
  6
Continuous
 62
     7
100
AcDbLine
 10
-261.566375
 20
158.853555
 30
0.0
 11
-261.566375
 21
166.065555
 31
0.0
  0
LINE
  5
54D
330
A
100
AcDbEntity
  8
1
  6
Continuous
 62
     3
100
AcDbLine
 10
-265.566375
 20
166.065555
 30
0.0
 11
-261.566375
 21
158.853555
 31
0.0
  0
LINE
  5
54E
330
A
100
AcDbEntity
  8
1
  6
Continuous
 62
     3
100
AcDbLine
 10
-261.566375
 20
166.065555
 30
0.0
 11
-265.566375
 21
158.853555
 31
0.0
  0
LINE
  5
54F
330
A
100
AcDbEntity
  8
1
  6
DASHED
 62
   254
100
AcDbLine
 10
-270.566375
 20
169.459555
 30
0.0
 11
-270.566375
 21
162.459555
 31
0.0
  0
LINE
  5
550
330
A
100
AcDbEntity
  8
1
  6
Continuous
 62
     7
100
AcDbLine
 10
-264.566375
 20
158.853555
 30
0.0
 11
-264.566375
 21
155.459555
 31
0.0
  0
LINE
  5
551
330
A
100
AcDbEntity
  8
1
  6
Continuous
 62
     7
100
AcDbLine
 10
-258.666375
 20
145.459555
 30
0.0
 11
-260.366375
 21
145.459555
 31
0.0
  0
LINE
  5
552
330
A
100
AcDbEntity
  8
1
  6
Continuous
 62
     7
100
AcDbLine
 10
-260.366375
 20
179.459555
 30
0.0
 11
-258.666375
 21
179.459555
 31
0.0
  0
LINE
  5
553
330
A
100
AcDbEntity
  8
1
  6
Continuous
 62
     7
100
AcDbLine
 10
-258.666375
 20
177.459555
 30
0.0
 11
-258.666375
 21
147.459555
 31
0.0
  0
LINE
  5
554
330
A
100
AcDbEntity
  8
1
  6
Continuous
 62
     7
100
AcDbLine
 10
-260.366375
 20
179.459555
 30
0.0
 11
-260.566375
 21
179.259555
 31
0.0
  0
LINE
  5
555
330
A
100
AcDbEntity
  8
1
  6
Continuous
 62
     7
100
AcDbLine
 10
-260.566375
 20
145.659555
 30
0.0
 11
-260.366375
 21
145.459555
 31
0.0
  0
LINE
  5
556
330
A
100
AcDbEntity
  8
1
  6
Continuous
 62
     7
100
AcDbLine
 10
-260.566375
 20
147.659555
 30
0.0
 11
-260.566375
 21
177.259555
 31
0.0
  0
LINE
  5
558
330
A
100
AcDbEntity
  8
1
  6
Continuous
 62
     7
100
AcDbLine
 10
-230.566375
 20
145.459555
 30
0.0
 11
-258.566375
 21
145.459555
 31
0.0
  0
LINE
  5
55B
330
A
100
AcDbEntity
  8
1
  6
Continuous
 62
     7
100
AcDbLine
 10
-258.566375
 20
179.459555
 30
0.0
 11
-230.566375
 21
179.459555
 31
0.0
  0
LINE
  5
565
330
A
100
AcDbEntity
  8
1
  6
Continuous
 62
     7
100
AcDbLine
 10
-258.566375
 20
179.459555
 30
0.0
 11
-258.566375
 21
177.959555
 31
0.0
  0
LINE
  5
566
330
A
100
AcDbEntity
  8
1
  6
Continuous
 62
     7
100
AcDbLine
 10
-258.566375
 20
145.459555
 30
0.0
 11
-258.566375
 21
146.959555
 31
0.0
  0
LINE
  5
567
330
A
100
AcDbEntity
  8
1
  6
Continuous
 62
     7
100
AcDbLine
 10
-258.566375
 20
146.959555
 30
0.0
 11
-258.666375
 21
146.959555
 31
0.0
  0
LINE
  5
568
330
A
100
AcDbEntity
  8
1
  6
Continuous
 62
     7
100
AcDbLine
 10
-258.566375
 20
177.959555
 30
0.0
 11
-258.666375
 21
177.959555
 31
0.0
  0
LINE
  5
569
330
A
100
AcDbEntity
  8
1
  6
Continuous
 62
     7
100
AcDbLine
 10
-258.566375
 20
175.959555
 30
0.0
 11
-258.566375
 21
148.959555
 31
0.0
  0
LINE
  5
56A
330
A
100
AcDbEntity
  8
1
  6
CENTER
 62
     2
100
AcDbLine
 10
-152.8933052806769
 20
162.459555
 30
0.0
 11
-279.883929
 21
162.459555
 31
0.0
  0
LINE
  5
56B
330
A
100
AcDbEntity
  8
1
  6
Continuous
 62
     7
100
AcDbLine
 10
-323.012685
 20
185.9542352489414
 30
0.0
 11
-323.012685
 21
138.9648747510585
 31
0.0
  0
LINE
  5
56E
330
A
100
AcDbEntity
  8
1
  6
Continuous
 62
     7
100
AcDbLine
 10
-357.012685
 20
185.9542352489414
 30
0.0
 11
-357.0126850000001
 21
138.9648747510586
 31
0.0
  0
LINE
  5
56F
330
A
100
AcDbEntity
  8
1
  6
DASHED
 62
     3
100
AcDbLine
 10
-346.012415
 20
166.065555
 30
0.0
 11
-346.012415
 21
158.853555
 31
0.0
  0
LINE
  5
570
330
A
100
AcDbEntity
  8
1
  6
DASHED
 62
     3
100
AcDbLine
 10
-334.012954
 20
158.853555
 30
0.0
 11
-334.012954
 21
166.065555
 31
0.0
  0
CIRCLE
  5
571
330
A
100
AcDbEntity
  8
1
  6
DASHED
 62
   254
100
AcDbCircle
 10
-340.012685
 20
162.459555
 30
0.0
 40
7.0
  0
CIRCLE
  5
572
330
A
100
AcDbEntity
  8
1
  6
DASHED
 62
   110
100
AcDbCircle
 10
-340.012685
 20
162.459555
 30
0.0
 40
6.625
  0
DIMENSION
  5
573
330
A
100
AcDbEntity
  8
1
  6
Continuous
 62
     7
100
AcDbDimension
  2
*D16
 10
-241.4188701234264
 20
179.459555
 30
0.0
 11
-241.4188701234263
 21
132.6832883333334
 31
0.0
 70
   160
  1
\U+220534{\H0.5x;\S 0^ -0.05;}
 71
     5
 42
34.0
  3
MX_DIMSTYLE_MODEL_SPACE
100
AcDbAlignedDimension
 13
-258.566375
 23
145.459555
 33
0.0
 14
-258.566375
 24
179.459555
 34
0.0
 50
90.0
100
AcDbRotatedDimension
1001
ACAD
1000
DSTYLE
1002
{
1070
    41
1040
3.2
1070
    44
1040
0.7
1070
    75
1070
     1
1070
    76
1070
     1
1070
   173
1070
     1
1070
   271
1070
     3
1070
   340
1005
1BA
1002
}
1001
ACAD_DSTYLE_DIMINSPECT
1070
   396
1000
100%
1070
   395
1000

1070
   394
1070
    33
1070
   393
1070
     0
  0
DIMENSION
  5
574
330
A
100
AcDbEntity
  8
1
  6
Continuous
 62
     7
100
AcDbDimension
  2
*D17
 10
-357.012685
 20
215.066027
 30
0.0
 11
-338.611041
 21
215.066027
 31
0.0
 70
   160
  1
<>
 71
     5
 42
34.0
  3
MX_DIMSTYLE_MODEL_SPACE
100
AcDbAlignedDimension
 13
-323.012685
 23
185.9542352489414
 33
0.0
 14
-357.012685
 24
185.9542352489414
 34
0.0
 50
180.0
100
AcDbRotatedDimension
1001
ACAD_DSTYLE_DIMINSPECT
1070
   396
1000
100%
1070
   395
1000

1070
   394
1070
    33
1070
   393
1070
     0
1001
GENIUS_GENDTOL_13
1000
TolAcTol
1000

1000

1040
34.0
1001
ACAD
1000
DSTYLE
1002
{
1070
     3
1000

1070
    41
1040
3.2
1070
    42
1040
0.5
1070
    44
1040
0.7
1070
    48
1040
0.05
1070
    71
1070
     1
1070
   146
1040
0.5
1070
   173
1070
     1
1070
   271
1070
     3
1070
   272
1070
     2
1070
   284
1070
     8
1070
   340
1005
D7
1002
}
  0
DIMENSION
  5
576
330
A
100
AcDbEntity
  8
1
  6
Continuous
 62
     7
100
AcDbDimension
  2
*D18
 10
-176.366375
 20
194.217399
 30
0.0
 11
-150.266375
 21
194.217399
 31
0.0
 70
   160
  1
(15.5)
 71
     5
 42
15.50000000000003
  3
MX_DIMSTYLE_MODEL_SPACE
100
AcDbAlignedDimension
 13
-160.866375
 23
170.959555
 33
0.0
 14
-176.366375
 24
171.959555
 34
0.0
 50
180.0
100
AcDbRotatedDimension
1001
ACAD
1000
DSTYLE
1002
{
1070
    41
1040
3.2
1070
    42
1040
0.5
1070
    44
1040
0.7
1070
   173
1070
     1
1070
   271
1070
     3
1070
   340
1005
D7
1002
}
1001
ACAD_DSTYLE_DIMINSPECT
1070
   396
1000
100%
1070
   395
1000

1070
   394
1070
    33
1070
   393
1070
     0
  0
LINE
  5
578
330
A
100
AcDbEntity
  8
AM_0
  6
Continuous
 62
     7
100
AcDbLine
 10
-176.8663749999999
 20
172.459555
 30
0.0
 11
-176.866375
 21
152.4595549999999
 31
0.0
  0
LINE
  5
579
330
A
100
AcDbEntity
  8
AM_0
  6
Continuous
 62
     7
100
AcDbLine
 10
-155.621189
 20
153.759555
 30
0.0
 11
-176.366375
 21
153.759555
 31
0.0
  0
LINE
  5
57A
330
A
100
AcDbEntity
  8
AM_0
  6
Continuous
 62
     7
100
AcDbLine
 10
-155.621189
 20
161.159555
 30
0.0
 11
-176.366375
 21
161.159555
 31
0.0
  0
LINE
  5
57C
330
A
100
AcDbEntity
  8
AM_0
  6
Continuous
 62
     7
100
AcDbLine
 10
-157.889567
 20
163.959555
 30
0.0
 11
-160.866375
 21
163.959555
 31
0.0
  0
LINE
  5
57D
330
A
100
AcDbEntity
  8
AM_0
  6
Continuous
 62
     7
100
AcDbLine
 10
-157.672743
 20
169.959555
 30
0.0
 11
-160.866375
 21
169.959555
 31
0.0
  0
LINE
  5
57E
330
A
100
AcDbEntity
  8
AM_0
  6
Continuous
 62
     7
100
AcDbLine
 10
-161.866375
 20
161.959555
 30
0.0
 11
-161.866375
 21
171.959555
 31
0.0
  0
LINE
  5
57F
330
A
100
AcDbEntity
  8
AM_0
  6
Continuous
 62
     7
100
AcDbLine
 10
-160.866375
 20
161.959555
 30
0.0
 11
-160.866375
 21
171.959555
 31
0.0
  0
LINE
  5
580
330
A
100
AcDbEntity
  8
AM_0
  6
Continuous
 62
     7
100
AcDbLine
 10
-161.866375
 20
161.959555
 30
0.0
 11
-160.866375
 21
161.959555
 31
0.0
  0
LINE
  5
581
330
A
100
AcDbEntity
  8
AM_0
  6
Continuous
 62
     7
100
AcDbLine
 10
-161.866375
 20
171.959555
 30
0.0
 11
-160.866375
 21
171.959555
 31
0.0
  0
LINE
  5
598
330
A
100
AcDbEntity
  8
AM_0
  6
Continuous
 62
     7
100
AcDbLine
 10
-176.366375
 20
172.959555
 30
0.0
 11
-176.366375
 21
152.959555
 31
0.0
  0
LINE
  5
59A
330
A
100
AcDbEntity
  8
AM_0
  6
Continuous
 62
     7
100
AcDbLine
 10
-176.366375
 20
162.459555
 30
0.0
 11
-172.566375
 21
162.459555
 31
0.0
  0
LINE
  5
59B
330
A
100
AcDbEntity
  8
AM_0
  6
Continuous
 62
     7
100
AcDbLine
 10
-172.566375
 20
161.959555
 30
0.0
 11
-172.566375
 21
171.959555
 31
0.0
  0
LINE
  5
59C
330
A
100
AcDbEntity
  8
AM_0
  6
Continuous
 62
     7
100
AcDbLine
 10
-176.366375
 20
171.459555
 30
0.0
 11
-172.566375
 21
171.459555
 31
0.0
  0
LINE
  5
59D
330
A
100
AcDbEntity
  8
AM_0
  6
Continuous
 62
     7
100
AcDbLine
 10
-162.866375
 20
161.959555
 30
0.0
 11
-162.866375
 21
171.959555
 31
0.0
  0
LINE
  5
59E
330
A
100
AcDbEntity
  8
AM_0
  6
Continuous
 62
     7
100
AcDbLine
 10
-172.566375
 20
161.959555
 30
0.0
 11
-162.866375
 21
161.959555
 31
0.0
  0
LINE
  5
59F
330
A
100
AcDbEntity
  8
AM_0
  6
Continuous
 62
     7
100
AcDbLine
 10
-162.866375
 20
162.959555
 30
0.0
 11
-161.866375
 21
162.959555
 31
0.0
  0
LINE
  5
5A0
330
A
100
AcDbEntity
  8
AM_0
  6
Continuous
 62
     7
100
AcDbLine
 10
-172.566375
 20
171.959555
 30
0.0
 11
-162.866375
 21
171.959555
 31
0.0
  0
LINE
  5
5A1
330
A
100
AcDbEntity
  8
AM_0
  6
Continuous
 62
     7
100
AcDbLine
 10
-162.866375
 20
170.959555
 30
0.0
 11
-161.866375
 21
170.959555
 31
0.0
  0
LINE
  5
5A2
330
A
100
AcDbEntity
  8
AM_0
  6
Continuous
 62
     7
100
AcDbLine
 10
-176.866375
 20
152.459555
 30
0.0
 11
-176.366375
 21
152.959555
 31
0.0
  0
LINE
  5
5A3
330
A
100
AcDbEntity
  8
AM_0
  6
Continuous
 62
     7
100
AcDbLine
 10
-176.866375
 20
172.459555
 30
0.0
 11
-176.366375
 21
171.959555
 31
0.0
  0
LINE
  5
5A6
330
A
100
AcDbEntity
  8
AM_0
  6
Continuous
 62
     7
100
AcDbLine
 10
-176.866375
 20
152.459555
 30
0.0
 11
-222.566375
 21
152.4595549999999
 31
0.0
  0
LINE
  5
5A7
330
A
100
AcDbEntity
  8
AM_0
  6
Continuous
 62
     7
100
AcDbLine
 10
-176.866375
 20
172.459555
 30
0.0
 11
-222.566375
 21
172.459555
 31
0.0
  0
CIRCLE
  5
5B3
330
A
100
AcDbEntity
  8
AM_0
  6
Continuous
 62
     7
100
AcDbCircle
 10
-340.012685
 20
162.459555
 30
0.0
 40
14.5
  0
CIRCLE
  5
5B4
330
A
100
AcDbEntity
  8
AM_0
  6
Continuous
 62
     7
100
AcDbCircle
 10
-340.012685
 20
162.459555
 30
0.0
 40
17.0
  0
LINE
  5
5B5
330
A
100
AcDbEntity
  8
AM_7
  6
CENTER
 62
     2
100
AcDbLine
 10
-358.012685
 20
162.459555
 30
0.0
 11
-322.012685
 21
162.459555
 31
0.0
  0
LINE
  5
5B6
330
A
100
AcDbEntity
  8
AM_7
  6
CENTER
 62
     2
100
AcDbLine
 10
-340.012685
 20
131.263338
 30
0.0
 11
-340.012685
 21
194.399174
 31
0.0
  0
MTEXT
  5
829
330
A
100
AcDbEntity
  8
0
  6
Continuous
370
     0
100
AcDbMText
 10
-281.8413870456043
 20
106.2088524567516
 30
0.0
 40
5.0
 41
49.17079372934643
 71
     1
 72
     5
  1
DL3420
 73
     1
 44
1.0
1001
ACAD
1000
ACAD_MTEXT_COLUMN_INFO_BEGIN
1070
    75
1070
     2
1070
    79
1070
     0
1070
    76
1070
     1
1070
    78
1070
     0
1070
    48
1040
49.17079372934643
1070
    49
1040
16.0
1070
    50
1070
     1
1040
0.0
1000
ACAD_MTEXT_COLUMN_INFO_END
1000
MTEXTBEGIN
1070
    73
1070
     1
1070
    44
1040
1.0
1070
    74
1070
     0
1000
MTEXTEND
  0
LINE
  5
903
330
A
100
AcDbEntity
  8
AM_7
100
AcDbLine
 10
-352.512685
 20
184.1101900946109
 30
0.0
 11
-338.512685
 21
159.8614787886466
 31
0.0
1001
GENIUS_GENODEF_13
1002
{
1000
HIER
1070
     0
1002
}
1002
{
1000
MANEDIT
1070
     0
1002
}
1002
{
1000
NOSEL
1070
     0
1002
}
1002
{
1000
BEHIND
1070
     0
1002
}
1002
{
1000
OTHER
1070
     0
1002
}
1002
{
1000
REACTOR
1002
}
1001
GENIUS_GENOBJ-N-CEN_13
1002
{
1000
OWNER
1000
GEN
1002
}
1001
GENIUS_GENCEN_19
1002
{
1040
3.0
1002
}
  0
LINE
  5
907
330
A
100
AcDbEntity
  8
AM_7
100
AcDbLine
 10
-341.512685
 20
165.0576312113533
 30
0.0
 11
-327.512685
 21
140.808919905389
 31
0.0
1001
GENIUS_GENODEF_13
1002
{
1000
HIER
1070
     0
1002
}
1002
{
1000
MANEDIT
1070
     0
1002
}
1002
{
1000
NOSEL
1070
     0
1002
}
1002
{
1000
BEHIND
1070
     0
1002
}
1002
{
1000
OTHER
1070
     0
1002
}
1002
{
1000
REACTOR
1002
}
1001
GENIUS_GENOBJ-N-CEN_13
1002
{
1000
OWNER
1000
GEN
1002
}
1001
GENIUS_GENCEN_19
1002
{
1040
3.0
1002
}
  0
SPLINE
  5
AC5
330
A
100
AcDbEntity
  8
0
  6
Continuous
370
     0
100
AcDbSpline
210
0.0
220
0.0
230
1.0
 70
  1064
 71
     3
 72
    10
 73
     6
 74
     4
 42
0.000000001
 43
0.0000000001
 44
0.0000000001
 40
0.0
 40
0.0
 40
0.0
 40
0.0
 40
4.620606300725493
 40
6.772779849879252
 40
9.412159930813499
 40
9.412159930813499
 40
9.412159930813499
 40
9.412159930813499
 10
-230.566375
 20
170.985464876157
 30
0.0
 10
-229.4515346627182
 20
172.2881232891209
 30
0.0
 10
-227.8174269978887
 20
174.1975304267107
 30
0.0
 10
-224.390387978536
 20
173.318161983418
 30
0.0
 10
-223.2142429140648
 20
174.5881359845815
 30
0.0
 10
-222.566375
 20
175.2876886434367
 30
0.0
 11
-230.566375
 21
170.985464876157
 31
0.0
 11
-226.8346481287599
 21
173.710206541851
 31
0.0
 11
-224.6824745796061
 21
173.710206541851
 31
0.0
 11
-222.566375
 21
175.2876886434367
 31
0.0
  0
DIMENSION
  5
AC8
330
A
100
AcDbEntity
  8
AM_5
100
AcDbDimension
  2
*D22
 10
-273.566375
 20
255.2309883958915
 30
0.0
 11
-248.066375
 21
257.8309883958915
 31
0.0
 70
    32
  1
<>
 71
     5
 42
51.0
  3
MXDIMSTYLE$0
100
AcDbAlignedDimension
 13
-222.566375
 23
191.459555
 33
0.0
 14
-273.566375
 24
166.44353
 34
0.0
 50
0.0000000000000114
100
AcDbRotatedDimension
1001
ACAD_DSTYLE_DIMINSPECT
1070
   396
1000
100%
1070
   395
1000

1070
   394
1070
    33
1070
   393
1070
     0
1001
ACAD
1000
DSTYLE
1002
{
1070
     3
1000

1070
    90
1070
     1
1070
   278
1070
     0
1070
   345
1005
11
1070
   346
1005
11
1070
   347
1005
11
1070
   371
1070
     0
1070
   372
1070
     0
1002
}
  0
DIMENSION
  5
DE2
330
A
100
AcDbEntity
  8
AM_5
100
AcDbDimension
  2
*D23
 10
-338.512685
 20
159.8614787886466
 30
0.0
 11
-351.0514348296283
 21
203.6567302162154
 31
0.0
 70
    34
  1
<>
 71
     5
 42
0.523598775598297
  3
MXDIMSTYLE$2
100
AcDb2LineAngularDimension
 13
-340.012685
 23
131.263338
 33
0.0
 14
-340.012685
 24
194.399174
 34
0.0
 15
-352.512685
 25
184.1101900946109
 35
0.0
 16
-346.9673733868282
 26
201.9015528093254
 36
0.0
1001
ACAD_DSTYLE_DIMINSPECT
1070
   396
1000
100%
1070
   395
1000

1070
   394
1070
    33
1070
   393
1070
     0
1001
ACAD
1000
DSTYLE
1002
{
1070
     3
1000

1070
    90
1070
     1
1070
   278
1070
     0
1070
   345
1005
11
1070
   346
1005
11
1070
   347
1005
11
1070
   371
1070
     0
1070
   372
1070
     0
1002
}
  0
ENDSEC
  0
SECTION
  2
OBJECTS
  0
DICTIONARY
  5
19
330
0
100
AcDbDictionary
281
     1
  3
ACAD_2007HEADERVARS_RT
350
E64
  3
ACAD_CIP_PREVIOUS_PRODUCT_INFO
350
483
  3
ACAD_COLOR
350
464
  3
ACAD_DETAILVIEWSTYLE
350
47D
  3
ACAD_FIELDLIST
350
4EE
  3
ACAD_GROUP
350
1A
  3
ACAD_LAYOUT
350
1E
  3
ACAD_MATERIAL
350
432
  3
ACAD_MLEADERSTYLE
350
479
  3
ACAD_MLINESTYLE
350
1B
  3
ACAD_PLOTSETTINGS
350
22
  3
ACAD_PLOTSTYLENAME
350
1F
  3
ACAD_SCALELIST
350
467
  3
ACAD_SECTIONVIEWSTYLE
350
47B
  3
ACAD_TABLESTYLE
350
465
  3
ACAD_VISUALSTYLE
350
44B
  3
ACDB_RECOMPOSE_DATA
350
E62
  3
AcDbVariableDictionary
350
749
  3
AcDsDecomposeData
350
E6E
  3
AcmDictionary
350
4AF
  3
AMG
350
484
  3
AMGSNAPSETTINGS
350
4F8
  3
ASE_INDEX_DICTIONARY
350
733
  3
DWGPROPS
350
E63
  0
DICTIONARY
  5
743
330
2
100
AcDbDictionary
280
     1
281
     1
  3
ACAD_LAYERSTATES
360
744
  0
DICTIONARY
  5
724
330
14
100
AcDbDictionary
280
     1
281
     1
  3
ADSK_XREC_LAYER_RECONCILED
360
725
  0
DICTIONARY
  5
726
330
23
100
AcDbDictionary
280
     1
281
     1
  3
ADSK_XREC_LAYER_RECONCILED
360
727
  0
DICTIONARY
  5
728
330
24
100
AcDbDictionary
280
     1
281
     1
  3
ADSK_XREC_LAYER_RECONCILED
360
729
  0
DICTIONARY
  5
72A
330
25
100
AcDbDictionary
280
     1
281
     1
  3
ADSK_XREC_LAYER_RECONCILED
360
72B
  0
DICTIONARY
  5
72C
330
26
100
AcDbDictionary
280
     1
281
     1
  3
ADSK_XREC_LAYER_RECONCILED
360
72D
  0
DICTIONARY
  5
72E
330
27
100
AcDbDictionary
280
     1
281
     1
  3
ADSK_XREC_LAYER_RECONCILED
360
72F
  0
DICTIONARY
  5
730
330
28
100
AcDbDictionary
280
     1
281
     1
  3
ADSK_XREC_LAYER_RECONCILED
360
731
  0
DICTIONARY
  5
90B
330
A
100
AcDbDictionary
280
     1
281
     1
  3
ACAD_SORTENTS
360
90C
  0
DICTIONARY
  5
788
330
1E4
100
AcDbDictionary
280
     1
281
     1
  3
ACAD_MTEXT_RT
360
E75
  0
DICTIONARY
  5
78A
330
201
100
AcDbDictionary
280
     1
281
     1
  3
ACAD_MTEXT_RT
360
E76
  0
DICTIONARY
  5
EAE
330
CC7
100
AcDbDictionary
280
     1
281
     1
  3
ACAD_MTEXT_RT
360
EAF
  0
DICTIONARY
  5
EAC
330
AC0
100
AcDbDictionary
280
     1
281
     1
  3
ACAD_MTEXT_RT
360
EAD
  0
DICTIONARY
  5
E64
102
{ACAD_REACTORS
330
19
102
}
330
19
100
AcDbDictionary
281
     1
  3
DIMARCSYM
350
E65
  3
DIMLTEX1
350
E67
  3
DIMLTEX2
350
E68
  3
DIMLTYPE
350
E66
  0
XRECORD
  5
483
102
{ACAD_REACTORS
330
19
102
}
330
19
100
AcDbXrecord
280
     1
300
AMECH_PP
300
2020
300
AMECH_PP_F_S
  0
DICTIONARY
  5
464
102
{ACAD_REACTORS
330
19
102
}
330
19
100
AcDbDictionary
281
     1
  0
DICTIONARY
  5
47D
102
{ACAD_REACTORS
330
19
102
}
330
19
100
AcDbDictionary
281
     1
  3
Metric50
350
47E
  0
FIELDLIST
  5
4EE
102
{ACAD_REACTORS
330
19
102
}
330
19
100
AcDbIdSet
 90
        3
330
8BC
330
8BD
330
8BE
100
AcDbFieldList
  0
DICTIONARY
  5
1A
102
{ACAD_REACTORS
330
19
102
}
330
19
100
AcDbDictionary
281
     1
  0
DICTIONARY
  5
1E
102
{ACAD_REACTORS
330
19
102
}
330
19
100
AcDbDictionary
281
     1
  3
Layout1
350
21
  3
Model
350
20
  0
DICTIONARY
  5
432
102
{ACAD_REACTORS
330
19
102
}
330
19
100
AcDbDictionary
281
     1
  3
ByBlock
350
43B
  3
ByLayer
350
433
  3
Global
350
443
  0
DICTIONARY
  5
479
102
{ACAD_REACTORS
330
19
102
}
330
19
100
AcDbDictionary
281
     1
  3
Standard
350
47A
  0
DICTIONARY
  5
1B
102
{ACAD_REACTORS
330
19
102
}
330
19
100
AcDbDictionary
281
     1
  3
Standard
350
1C
  0
DICTIONARY
  5
22
102
{ACAD_REACTORS
330
19
102
}
330
19
100
AcDbDictionary
281
     1
  0
ACDBDICTIONARYWDFLT
  5
1F
102
{ACAD_REACTORS
330
19
102
}
330
19
100
AcDbDictionary
281
     1
  3
Normal
350
1D
100
AcDbDictionaryWithDefault
340
1D
  0
DICTIONARY
  5
467
102
{ACAD_REACTORS
330
19
102
}
330
19
100
AcDbDictionary
281
     1
  3
A0
350
468
  3
A1
350
469
  3
A2
350
46A
  3
A3
350
46B
  3
A4
350
46C
  3
A5
350
46D
  3
A6
350
46E
  3
A7
350
46F
  3
A8
350
470
  3
A9
350
471
  3
B0
350
472
  3
B1
350
473
  3
B2
350
474
  3
B3
350
475
  3
B4
350
476
  3
B5
350
477
  3
B6
350
478
  0
DICTIONARY
  5
47B
102
{ACAD_REACTORS
330
19
102
}
330
19
100
AcDbDictionary
281
     1
  3
Metric50
350
47C
  0
DICTIONARY
  5
465
102
{ACAD_REACTORS
330
19
102
}
330
19
100
AcDbDictionary
281
     1
  3
Standard
350
466
  0
DICTIONARY
  5
44B
102
{ACAD_REACTORS
330
19
102
}
330
19
100
AcDbDictionary
281
     1
  3
2dWireframe
350
451
  3
Basic
350
450
  3
Brighten
350
457
  3
ColorChange
350
45B
  3
Conceptual
350
454
  3
Dim
350
456
  3
EdgeColorOff
350
463
  3
Facepattern
350
45A
  3
Flat
350
44C
  3
FlatWithEdges
350
44D
  3
Gouraud
350
44E
  3
GouraudWithEdges
350
44F
  3
Hidden
350
453
  3
JitterOff
350
461
  3
Linepattern
350
459
  3
OverhangOff
350
462
  3
Realistic
350
455
  3
Shaded
350
460
  3
Shaded with edges
350
45F
  3
Shades of Gray
350
45C
  3
Sketchy
350
45D
  3
Thicken
350
458
  3
Wireframe
350
452
  3
X-Ray
350
45E
  0
XRECORD
  5
E62
102
{ACAD_REACTORS
330
19
102
}
330
19
100
AcDbXrecord
280
     1
 90
        1
330
466
330
829
  0
DICTIONARY
  5
749
102
{ACAD_REACTORS
330
19
102
}
330
19
100
AcDbDictionary
281
     1
  3
CANNOSCALE
350
74F
  3
CMLEADERSTYLE
350
74B
  3
CTABLESTYLE
350
74A
  3
CVIEWDETAILSTYLE
350
74C
  3
CVIEWSECTIONSTYLE
350
74D
  3
DIMASSOC
350
76A
  3
INDEXCTL
350
769
  3
LAYEREVAL
350
751
  3
LAYERNOTIFY
350
752
  3
LIGHTINGUNITS
350
750
  3
MSLTSCALE
350
74E
  3
SORTENTS
350
768
  3
XCLIPFRAME
350
E60
  0
DICTIONARY
  5
E6E
102
{ACAD_REACTORS
330
19
102
}
330
19
100
AcDbDictionary
281
     1
  3
AcDsRecords
350
E70
  3
AcDsSchemas
350
E6F
1001
ACAD
1070
     2
  0
DICTIONARY
  5
4AF
102
{ACAD_REACTORS
330
19
102
}
330
19
100
AcDbDictionary
281
     1
  3
AcmStdDictionary
350
4B6
  0
DICTIONARY
  5
484
102
{ACAD_REACTORS
330
19
102
}
330
19
100
AcDbDictionary
281
     1
  0
DICTIONARY
  5
4F8
102
{ACAD_REACTORS
330
19
102
}
330
19
100
AcDbDictionary
281
     1
  0
DICTIONARY
  5
733
102
{ACAD_REACTORS
330
19
102
}
330
19
100
AcDbDictionary
281
     1
  3
ASEBlockHierarchyIndexRecord
350
735
1001
DCO15
1040
2030264303.0
  0
XRECORD
  5
E63
102
{ACAD_REACTORS
330
19
102
}
330
19
100
AcDbXrecord
280
     1
  1
DWGPROPS COOKIE
  2

  3

  4

  6

  7

  8
yossy
  9

300
=
301
=
302
=
303
=
304
=
305
=
306
=
307
=
308
=
309
=
 40
0.1127314814814815
 41
2459301.623900463
 42
2459305.498807871
  1

 90
        0
  0
DICTIONARY
  5
744
102
{ACAD_REACTORS
330
743
102
}
330
743
100
AcDbDictionary
281
     1
  0
XRECORD
  5
725
102
{ACAD_REACTORS
330
724
102
}
330
724
100
AcDbXrecord
280
     1
290
     1
  0
XRECORD
  5
727
102
{ACAD_REACTORS
330
726
102
}
330
726
100
AcDbXrecord
280
     1
290
     1
  0
XRECORD
  5
729
102
{ACAD_REACTORS
330
728
102
}
330
728
100
AcDbXrecord
280
     1
290
     1
  0
XRECORD
  5
72B
102
{ACAD_REACTORS
330
72A
102
}
330
72A
100
AcDbXrecord
280
     1
290
     1
  0
XRECORD
  5
72D
102
{ACAD_REACTORS
330
72C
102
}
330
72C
100
AcDbXrecord
280
     1
290
     1
  0
XRECORD
  5
72F
102
{ACAD_REACTORS
330
72E
102
}
330
72E
100
AcDbXrecord
280
     1
290
     1
  0
XRECORD
  5
731
102
{ACAD_REACTORS
330
730
102
}
330
730
100
AcDbXrecord
280
     1
290
     1
  0
SORTENTSTABLE
  5
90C
102
{ACAD_REACTORS
330
90B
102
}
330
90B
100
AcDbSortentsTable
330
A
331
122
  5
1F7
331
129
  5
206
331
14D
  5
22D
331
14F
  5
23A
331
176
  5
28D
331
1B2
  5
28E
331
1B3
  5
28F
331
1E9
  5
290
331
1F7
  5
291
331
206
  5
292
331
22D
  5
293
331
23A
  5
294
331
28D
  5
295
331
28E
  5
296
331
28F
  5
297
331
290
  5
298
331
291
  5
299
331
292
  5
29A
331
293
  5
29B
331
294
  5
29C
331
295
  5
29D
331
296
  5
29E
331
297
  5
29F
331
298
  5
2A0
331
299
  5
2A1
331
29A
  5
2A2
331
29B
  5
2A3
331
29C
  5
2A4
331
29D
  5
2A5
331
29E
  5
2A6
331
29F
  5
2A7
331
2A0
  5
2A8
331
2A1
  5
2A9
331
2A2
  5
2AA
331
2A3
  5
2AB
331
2A4
  5
2AC
331
2A5
  5
2AD
331
2A6
  5
2AE
331
2A7
  5
2AF
331
2A8
  5
2B0
331
2A9
  5
2B1
331
2AA
  5
2B2
331
2AB
  5
2B3
331
2AC
  5
2B4
331
2AD
  5
2B5
331
2AE
  5
2B6
331
2AF
  5
2B7
331
2B0
  5
2B8
331
2B1
  5
2B9
331
2B2
  5
2BA
331
2B3
  5
2BB
331
2B4
  5
2BC
331
2B5
  5
2BD
331
2B6
  5
2BE
331
2B7
  5
2BF
331
2B8
  5
2C0
331
2B9
  5
2C1
331
2BA
  5
2C2
331
2BB
  5
2C3
331
2BC
  5
2C4
331
2BD
  5
2C5
331
2BE
  5
2C6
331
2BF
  5
2C7
331
2C0
  5
2C8
331
2C1
  5
2C9
331
2C2
  5
2CA
331
2C3
  5
2CB
331
2C4
  5
2CC
331
2C5
  5
2CD
331
2C6
  5
2CE
331
2C7
  5
2CF
331
2C8
  5
2D0
331
2C9
  5
2D1
331
2CA
  5
2D2
331
2CB
  5
2D3
331
2CC
  5
2D4
331
2CD
  5
2D5
331
2CE
  5
2D6
331
2CF
  5
2D7
331
2D0
  5
2D8
331
2D1
  5
2D9
331
2D2
  5
2DA
331
2D3
  5
2DB
331
2D4
  5
2DC
331
2D5
  5
2DD
331
2D6
  5
2DE
331
2D7
  5
2DF
331
2D8
  5
2E0
331
2D9
  5
2E1
331
2DA
  5
2E2
331
2DB
  5
2E3
331
2DC
  5
2E4
331
2DD
  5
2E5
331
2DE
  5
2E6
331
2DF
  5
2E7
331
2E0
  5
2E8
331
2E1
  5
2E9
331
2E2
  5
2EA
331
2E3
  5
324
331
2E4
  5
325
331
2E5
  5
326
331
2E6
  5
327
331
2E7
  5
328
331
2E8
  5
329
331
2E9
  5
32A
331
2EA
  5
32B
331
324
  5
32C
331
325
  5
32D
331
326
  5
32E
331
327
  5
32F
331
328
  5
330
331
329
  5
331
331
32A
  5
332
331
32B
  5
333
331
32C
  5
334
331
32D
  5
335
331
32E
  5
336
331
32F
  5
337
331
330
  5
338
331
331
  5
339
331
332
  5
33A
331
333
  5
33B
331
334
  5
33C
331
335
  5
33D
331
336
  5
33E
331
337
  5
33F
331
338
  5
340
331
339
  5
341
331
33A
  5
342
331
33B
  5
343
331
33C
  5
344
331
33D
  5
345
331
33E
  5
346
331
33F
  5
347
331
340
  5
348
331
341
  5
34B
331
342
  5
34C
331
343
  5
354
331
344
  5
355
331
345
  5
356
331
346
  5
360
331
347
  5
361
331
348
  5
362
331
34B
  5
363
331
34C
  5
39E
331
354
  5
39F
331
355
  5
3A4
331
356
  5
3A5
331
360
  5
3A6
331
361
  5
3A7
331
362
  5
3A8
331
363
  5
3A9
331
39E
  5
3AA
331
39F
  5
3AB
331
3A4
  5
3AC
331
3A5
  5
3AD
331
3A6
  5
4FF
331
3A7
  5
500
331
3A8
  5
501
331
3A9
  5
502
331
3AA
  5
505
331
3AB
  5
506
331
3AC
  5
507
331
3AD
  5
508
331
4FF
  5
509
331
500
  5
50A
331
501
  5
50C
331
502
  5
50E
331
505
  5
50F
331
507
  5
511
331
508
  5
512
331
509
  5
513
331
50C
  5
51A
331
512
  5
51F
331
513
  5
520
331
51B
  5
527
331
51D
  5
528
331
51E
  5
52B
331
521
  5
52C
331
522
  5
52D
331
523
  5
52E
331
526
  5
52F
331
527
  5
530
331
528
  5
531
331
529
  5
532
331
52A
  5
533
331
52B
  5
534
331
52C
  5
535
331
52D
  5
536
331
52E
  5
537
331
52F
  5
538
331
530
  5
539
331
532
  5
53B
331
533
  5
53C
331
534
  5
53D
331
535
  5
53E
331
536
  5
53F
331
537
  5
540
331
538
  5
541
331
539
  5
542
331
53A
  5
543
331
53C
  5
545
331
53D
  5
546
331
53E
  5
547
331
53F
  5
548
331
540
  5
549
331
541
  5
54A
331
542
  5
54B
331
543
  5
54C
331
544
  5
54D
331
545
  5
54E
331
546
  5
54F
331
547
  5
550
331
548
  5
551
331
549
  5
552
331
54A
  5
553
331
54B
  5
554
331
54C
  5
555
331
54D
  5
556
331
54E
  5
557
331
54F
  5
558
331
550
  5
559
331
551
  5
55A
331
552
  5
55B
331
553
  5
55C
331
554
  5
55D
331
555
  5
55E
331
556
  5
560
331
558
  5
561
331
55B
  5
564
331
565
  5
570
331
566
  5
571
331
567
  5
572
331
568
  5
573
331
569
  5
574
331
56A
  5
575
331
56B
  5
576
331
56E
  5
578
331
56F
  5
579
331
570
  5
57A
331
571
  5
57B
331
572
  5
57C
331
573
  5
57D
331
574
  5
57E
331
576
  5
580
331
578
  5
581
331
579
  5
582
331
57A
  5
583
331
57C
  5
585
331
57D
  5
586
331
57E
  5
587
331
57F
  5
588
331
580
  5
589
331
581
  5
58A
331
598
  5
5A1
331
59A
  5
5A3
331
59B
  5
5A4
331
59C
  5
5A5
331
59D
  5
5A6
331
59E
  5
5A7
331
59F
  5
5A8
331
5A0
  5
5A9
331
5A1
  5
5AA
331
5A2
  5
5AB
331
5A3
  5
5AC
331
5A6
  5
5AF
331
5A7
  5
90A
331
5B3
  5
9D8
331
5B4
  5
9D9
331
5B5
  5
9DB
331
5B6
  5
9DC
331
829
  5
AC5
331
903
  5
AC8
331
907
  5
B0B
331
AC5
  5
B0C
331
AC8
  5
B0D
  0
XRECORD
  5
E75
102
{ACAD_REACTORS
330
788
102
}
330
788
100
AcDbXrecord
280
     1
 40
50339.0
  1
\A1;\U+220530{\A1;\H0.50x;\S 0^ -0.005;}
  0
XRECORD
  5
E76
102
{ACAD_REACTORS
330
78A
102
}
330
78A
100
AcDbXrecord
280
     1
 40
5025.0
  1
\A1;\U+220530
  0
XRECORD
  5
EAF
102
{ACAD_REACTORS
330
EAE
102
}
330
EAE
100
AcDbXrecord
280
     1
 40
53334.0
  1
\A1;\U+220520{}{\H0.71x;\C3;\S 0^ -0.1;}
  0
XRECORD
  5
EAD
102
{ACAD_REACTORS
330
EAC
102
}
330
EAC
100
AcDbXrecord
280
     1
 40
36955.0
  1
\A1;\U+220534{\H0.5x;\S 0^ -0.05;}
  0
XRECORD
  5
E65
102
{ACAD_REACTORS
330
E64
102
}
330
E64
100
AcDbXrecord
280
     1
 70
     1
  0
XRECORD
  5
E67
102
{ACAD_REACTORS
330
E64
102
}
330
E64
100
AcDbXrecord
280
     1
340
11
  0
XRECORD
  5
E68
102
{ACAD_REACTORS
330
E64
102
}
330
E64
100
AcDbXrecord
280
     1
340
11
  0
XRECORD
  5
E66
102
{ACAD_REACTORS
330
E64
102
}
330
E64
100
AcDbXrecord
280
     1
340
11
  0
ACDBDETAILVIEWSTYLE
  5
47E
102
{ACAD_XDICTIONARY
360
EAA
102
}
102
{ACAD_REACTORS
330
47D
330
8B7
102
}
330
47D
100
AcDbModelDocViewStyle
 70
     0
  3
Metric50
290
     0
100
AcDbDetailViewStyle
 70
     0
 71
     0
 90
        3
 71
     1
340
431
 40
5.0
340
0
 40
5.0
300

 40
0.0
280
     1
 71
     2
340
13
 90
       25
 71
     3
340
431
 40
5.0
 90
        0
 40
15.0
 90
        1
300
%<\AcVar ViewDetailId>% (%<\AcVar ViewScale \f "%sn">%)
 71
     4
340
13
 90
       25
340
13
 90
       25
280
     0
  0
LAYOUT
  5
21
102
{ACAD_XDICTIONARY
360
E73
102
}
102
{ACAD_REACTORS
330
1E
102
}
330
1E
100
AcDbPlotSettings
  1

  2

  4

  6

 40
0.0
 41
0.0
 42
0.0
 43
0.0
 44
0.0
 45
0.0
 46
0.0
 47
0.0
 48
0.0
 49
0.0
140
0.0
141
0.0
142
1.0
143
1.0
 70
     0
 72
     0
 73
     0
 74
     0
  7

 75
     0
147
1.0
148
0.0
149
0.0
100
AcDbLayout
  1
Layout1
 70
     0
 71
     1
 10
0.0
 20
0.0
 11
12.0
 21
9.0
 12
0.0
 22
0.0
 32
0.0
 14
1.000000000000000E+20
 24
1.000000000000000E+20
 34
1.000000000000000E+20
 15
-1.000000000000000E+20
 25
-1.000000000000000E+20
 35
-1.000000000000000E+20
146
0.0
 13
0.0
 23
0.0
 33
0.0
 16
1.0
 26
0.0
 36
0.0
 17
0.0
 27
1.0
 37
0.0
 76
     0
330
B
  0
LAYOUT
  5
20
102
{ACAD_XDICTIONARY
360
E71
102
}
102
{ACAD_REACTORS
330
1E
102
}
330
1E
100
AcDbPlotSettings
  1

  2

  4

  6

 40
0.0
 41
0.0
 42
0.0
 43
0.0
 44
0.0
 45
0.0
 46
0.0
 47
0.0
 48
0.0
 49
0.0
140
0.0
141
0.0
142
1.0
143
1.0
 70
  1024
 72
     0
 73
     0
 74
     0
  7

 75
     0
147
1.0
148
0.0
149
0.0
100
AcDbLayout
  1
Model
 70
     0
 71
     0
 10
0.0
 20
0.0
 11
0.0
 21
0.0
 12
0.0
 22
0.0
 32
0.0
 14
0.0
 24
0.0
 34
0.0
 15
0.0
 25
0.0
 35
0.0
146
0.0
 13
0.0
 23
0.0
 33
0.0
 16
0.0
 26
0.0
 36
0.0
 17
0.0
 27
0.0
 37
0.0
 76
     0
330
A
331
15
  0
MATERIAL
  5
43B
102
{ACAD_XDICTIONARY
360
43C
102
}
102
{ACAD_REACTORS
330
432
102
}
330
432
100
AcDbMaterial
  1
ByBlock
 72
     0
 43
0.0208333333333333
 43
0.0
 43
0.0
 43
0.0
 43
0.0
 43
0.0208333333333333
 43
0.0
 43
0.0
 43
0.0
 43
0.0
 43
1.0
 43
0.0
 43
0.0
 43
0.0
 43
0.0
 43
1.0
 77
     0
 47
0.0208333333333333
 47
0.0
 47
0.0
 47
0.0
 47
0.0
 47
0.0208333333333333
 47
0.0
 47
0.0
 47
0.0
 47
0.0
 47
1.0
 47
0.0
 47
0.0
 47
0.0
 47
0.0
 47
1.0
171
     0
 49
0.0208333333333333
 49
0.0
 49
0.0
 49
0.0
 49
0.0
 49
0.0208333333333333
 49
0.0
 49
0.0
 49
0.0
 49
0.0
 49
1.0
 49
0.0
 49
0.0
 49
0.0
 49
0.0
 49
1.0
175
     0
142
0.0208333333333333
142
0.0
142
0.0
142
0.0
142
0.0
142
0.0208333333333333
142
0.0
142
0.0
142
0.0
142
0.0
142
1.0
142
0.0
142
0.0
142
0.0
142
0.0
142
1.0
179
     0
144
0.0208333333333333
144
0.0
144
0.0
144
0.0
144
0.0
144
0.0208333333333333
144
0.0
144
0.0
144
0.0
144
0.0
144
1.0
144
0.0
144
0.0
144
0.0
144
0.0
144
1.0
147
0.0208333333333333
147
0.0
147
0.0
147
0.0
147
0.0
147
0.0208333333333333
147
0.0
147
0.0
147
0.0
147
0.0
147
1.0
147
0.0
147
0.0
147
0.0
147
0.0
147
1.0
  0
MATERIAL
  5
433
102
{ACAD_XDICTIONARY
360
434
102
}
102
{ACAD_REACTORS
330
432
102
}
330
432
100
AcDbMaterial
  1
ByLayer
 72
     0
 43
0.0208333333333333
 43
0.0
 43
0.0
 43
0.0
 43
0.0
 43
0.0208333333333333
 43
0.0
 43
0.0
 43
0.0
 43
0.0
 43
1.0
 43
0.0
 43
0.0
 43
0.0
 43
0.0
 43
1.0
 77
     0
 47
0.0208333333333333
 47
0.0
 47
0.0
 47
0.0
 47
0.0
 47
0.0208333333333333
 47
0.0
 47
0.0
 47
0.0
 47
0.0
 47
1.0
 47
0.0
 47
0.0
 47
0.0
 47
0.0
 47
1.0
171
     0
 49
0.0208333333333333
 49
0.0
 49
0.0
 49
0.0
 49
0.0
 49
0.0208333333333333
 49
0.0
 49
0.0
 49
0.0
 49
0.0
 49
1.0
 49
0.0
 49
0.0
 49
0.0
 49
0.0
 49
1.0
175
     0
142
0.0208333333333333
142
0.0
142
0.0
142
0.0
142
0.0
142
0.0208333333333333
142
0.0
142
0.0
142
0.0
142
0.0
142
1.0
142
0.0
142
0.0
142
0.0
142
0.0
142
1.0
179
     0
144
0.0208333333333333
144
0.0
144
0.0
144
0.0
144
0.0
144
0.0208333333333333
144
0.0
144
0.0
144
0.0
144
0.0
144
1.0
144
0.0
144
0.0
144
0.0
144
0.0
144
1.0
147
0.0208333333333333
147
0.0
147
0.0
147
0.0
147
0.0
147
0.0208333333333333
147
0.0
147
0.0
147
0.0
147
0.0
147
1.0
147
0.0
147
0.0
147
0.0
147
0.0
147
1.0
  0
MATERIAL
  5
443
102
{ACAD_XDICTIONARY
360
444
102
}
102
{ACAD_REACTORS
330
432
102
}
330
432
100
AcDbMaterial
  1
Global
 72
     0
 43
0.0208333333333333
 43
0.0
 43
0.0
 43
0.0
 43
0.0
 43
0.0208333333333333
 43
0.0
 43
0.0
 43
0.0
 43
0.0
 43
1.0
 43
0.0
 43
0.0
 43
0.0
 43
0.0
 43
1.0
 77
     0
 47
0.0208333333333333
 47
0.0
 47
0.0
 47
0.0
 47
0.0
 47
0.0208333333333333
 47
0.0
 47
0.0
 47
0.0
 47
0.0
 47
1.0
 47
0.0
 47
0.0
 47
0.0
 47
0.0
 47
1.0
171
     0
 49
0.0208333333333333
 49
0.0
 49
0.0
 49
0.0
 49
0.0
 49
0.0208333333333333
 49
0.0
 49
0.0
 49
0.0
 49
0.0
 49
1.0
 49
0.0
 49
0.0
 49
0.0
 49
0.0
 49
1.0
175
     0
142
0.0208333333333333
142
0.0
142
0.0
142
0.0
142
0.0
142
0.0208333333333333
142
0.0
142
0.0
142
0.0
142
0.0
142
1.0
142
0.0
142
0.0
142
0.0
142
0.0
142
1.0
179
     0
144
0.0208333333333333
144
0.0
144
0.0
144
0.0
144
0.0
144
0.0208333333333333
144
0.0
144
0.0
144
0.0
144
0.0
144
1.0
144
0.0
144
0.0
144
0.0
144
0.0
144
1.0
147
0.0208333333333333
147
0.0
147
0.0
147
0.0
147
0.0
147
0.0208333333333333
147
0.0
147
0.0
147
0.0
147
0.0
147
1.0
147
0.0
147
0.0
147
0.0
147
0.0
147
1.0
  0
MLEADERSTYLE
  5
47A
102
{ACAD_REACTORS
330
479
102
}
330
479
100
AcDbMLeaderStyle
170
     2
171
     1
172
     0
 90
        2
 40
0.0
 41
0.0
173
     1
 91
-1056964608
340
11
 92
       -2
290
     1
 42
2.0
291
     1
 43
0.36
  3
Standard
 44
4.0
300

342
17
174
     1
178
     6
175
     1
176
     0
 93
-1056964608
 45
4.0
292
     0
297
     0
 46
4.0
 94
-1056964608
 47
1.0
 49
1.0
140
1.0
293
     1
141
0.0
294
     1
177
     0
142
1.0
295
     0
296
     0
143
0.125
1001
ACAD_MLEADERVER
1070
     2
  0
MLINESTYLE
  5
1C
102
{ACAD_REACTORS
330
1B
102
}
330
1B
100
AcDbMlineStyle
  2
STANDARD
 70
     0
  3

 62
     0
 51
90.0
 52
90.0
 71
     2
 49
0.5
 62
   256
  6
BYLAYER
 49
-0.5
 62
   256
  6
BYLAYER
  0
ACDBPLACEHOLDER
  5
1D
102
{ACAD_REACTORS
330
1F
102
}
330
1F
  0
SCALE
  5
468
102
{ACAD_REACTORS
330
467
102
}
330
467
100
AcDbScale
 70
     0
300
1:1
140
1.0
141
1.0
290
     1
  0
SCALE
  5
469
102
{ACAD_REACTORS
330
467
102
}
330
467
100
AcDbScale
 70
     0
300
1:2
140
1.0
141
2.0
290
     0
  0
SCALE
  5
46A
102
{ACAD_REACTORS
330
467
102
}
330
467
100
AcDbScale
 70
     0
300
1:4
140
1.0
141
4.0
290
     0
  0
SCALE
  5
46B
102
{ACAD_REACTORS
330
467
102
}
330
467
100
AcDbScale
 70
     0
300
1:5
140
1.0
141
5.0
290
     0
  0
SCALE
  5
46C
102
{ACAD_REACTORS
330
467
102
}
330
467
100
AcDbScale
 70
     0
300
1:8
140
1.0
141
8.0
290
     0
  0
SCALE
  5
46D
102
{ACAD_REACTORS
330
467
102
}
330
467
100
AcDbScale
 70
     0
300
1:10
140
1.0
141
10.0
290
     0
  0
SCALE
  5
46E
102
{ACAD_REACTORS
330
467
102
}
330
467
100
AcDbScale
 70
     0
300
1:16
140
1.0
141
16.0
290
     0
  0
SCALE
  5
46F
102
{ACAD_REACTORS
330
467
102
}
330
467
100
AcDbScale
 70
     0
300
1:20
140
1.0
141
20.0
290
     0
  0
SCALE
  5
470
102
{ACAD_REACTORS
330
467
102
}
330
467
100
AcDbScale
 70
     0
300
1:30
140
1.0
141
30.0
290
     0
  0
SCALE
  5
471
102
{ACAD_REACTORS
330
467
102
}
330
467
100
AcDbScale
 70
     0
300
1:40
140
1.0
141
40.0
290
     0
  0
SCALE
  5
472
102
{ACAD_REACTORS
330
467
102
}
330
467
100
AcDbScale
 70
     0
300
1:50
140
1.0
141
50.0
290
     0
  0
SCALE
  5
473
102
{ACAD_REACTORS
330
467
102
}
330
467
100
AcDbScale
 70
     0
300
1:100
140
1.0
141
100.0
290
     0
  0
SCALE
  5
474
102
{ACAD_REACTORS
330
467
102
}
330
467
100
AcDbScale
 70
     0
300
2:1
140
2.0
141
1.0
290
     0
  0
SCALE
  5
475
102
{ACAD_REACTORS
330
467
102
}
330
467
100
AcDbScale
 70
     0
300
4:1
140
4.0
141
1.0
290
     0
  0
SCALE
  5
476
102
{ACAD_REACTORS
330
467
102
}
330
467
100
AcDbScale
 70
     0
300
8:1
140
8.0
141
1.0
290
     0
  0
SCALE
  5
477
102
{ACAD_REACTORS
330
467
102
}
330
467
100
AcDbScale
 70
     0
300
10:1
140
10.0
141
1.0
290
     0
  0
SCALE
  5
478
102
{ACAD_REACTORS
330
467
102
}
330
467
100
AcDbScale
 70
     0
300
100:1
140
100.0
141
1.0
290
     0
  0
ACDBSECTIONVIEWSTYLE
  5
47C
102
{ACAD_XDICTIONARY
360
EA8
102
}
102
{ACAD_REACTORS
330
47B
330
8B6
102
}
330
47B
100
AcDbModelDocViewStyle
 70
     0
  3
Metric50
290
     0
100
AcDbSectionViewStyle
 70
     0
 71
     0
 90
      102
 71
     1
340
431
 40
5.0
340
0
340
0
 40
5.0
300
I, O, Q, S, X, Z
 40
10.0
 90
        0
 40
2.5
 90
        0
 71
     2
340
13
 90
       25
340
13
 90
       50
 40
5.0
 40
2.5
 40
5.0
 71
     3
340
431
 40
5.0
 90
        0
 40
15.0
 90
        1
300
%<\AcVar ViewSectionStartId>%-%<\AcVar ViewSectionEndId>% (%<\AcVar ViewScale \f "%sn">%)
 71
     4
300
ANSI31
 40
1.0
 90
        0
290
     0
290
     0
 90
        6
 40
0.0
 40
1.570796326794896
 40
0.2617993877991494
 40
1.308996938995747
 40
-0.2617993877991494
 40
1.832595714594044
  0
TABLESTYLE
  5
466
102
{ACAD_XDICTIONARY
360
76C
102
}
102
{ACAD_REACTORS
330
465
102
}
330
465
100
AcDbTableStyle
  3
Standard
 70
     0
 71
     0
 40
1.5
 41
1.5
280
     0
281
     0
  7
MX_NOTE_STANDARD
140
4.5
170
     2
 62
     0
 63
     7
283
     0
274
    -2
284
     1
 64
     0
275
    -2
285
     1
 65
     0
276
    -2
286
     1
 66
     0
277
    -2
287
     1
 67
     0
278
    -2
288
     1
 68
     0
279
    -2
289
     1
 69
     0
  7
MX_NOTE_STANDARD
140
6.0
170
     5
 62
     0
 63
     7
283
     0
274
    -2
284
     1
 64
     0
275
    -2
285
     1
 65
     0
276
    -2
286
     1
 66
     0
277
    -2
287
     1
 67
     0
278
    -2
288
     1
 68
     0
279
    -2
289
     1
 69
     0
  7
MX_NOTE_STANDARD
140
4.5
170
     5
 62
     0
 63
     7
283
     0
274
    -2
284
     1
 64
     0
275
    -2
285
     1
 65
     0
276
    -2
286
     1
 66
     0
277
    -2
287
     1
 67
     0
278
    -2
288
     1
 68
     0
279
    -2
289
     1
 69
     0
  0
VISUALSTYLE
  5
451
102
{ACAD_XDICTIONARY
360
E81
102
}
102
{ACAD_REACTORS
330
44B
102
}
330
44B
100
AcDbVisualStyle
  2

 70
     4
 71
     0
 72
     2
 73
     0
 90
        0
 40
-0.6
 41
-30.0
 62
     5
 63
     7
 74
     1
 91
        4
 64
     7
 65
   257
 75
     1
175
     1
 42
1.0
 92
        0
 66
   257
 43
1.0
 76
     1
 77
     6
 78
     2
 67
     7
 79
     5
170
     0
171
     0
290
     0
174
     0
 93
        1
 44
0.0
173
     0
291
     0
 45
0.0
1001
ACAD
1000
AcDbSavedByObjectVersion
1070
     0
  0
VISUALSTYLE
  5
450
102
{ACAD_XDICTIONARY
360
E7F
102
}
102
{ACAD_REACTORS
330
44B
102
}
330
44B
100
AcDbVisualStyle
  2

 70
     7
 71
     1
 72
     0
 73
     1
 90
        0
 40
-0.6
 41
-30.0
 62
     5
 63
     7
 74
     0
 91
        4
 64
     7
 65
   257
 75
     1
175
     1
 42
1.0
 92
        8
 66
     7
 43
1.0
 76
     1
 77
     6
 78
     2
 67
     7
 79
     5
170
     0
171
     0
290
     0
174
     0
 93
        1
 44
0.0
173
     0
291
     1
 45
0.0
1001
ACAD
1000
AcDbSavedByObjectVersion
1070
     0
  0
VISUALSTYLE
  5
457
102
{ACAD_XDICTIONARY
360
E8D
102
}
102
{ACAD_REACTORS
330
44B
102
}
330
44B
100
AcDbVisualStyle
  2

 70
    12
 71
     2
 72
     2
 73
     0
 90
        0
 40
-0.6
 41
-30.0
 62
     5
 63
     7
 74
     1
 91
        4
 64
     7
 65
   257
 75
     1
175
     1
 42
1.0
 92
        8
 66
     7
 43
1.0
 76
     1
 77
     6
 78
     2
 67
     7
 79
     5
170
     0
171
     0
290
     0
174
     0
 93
        1
 44
50.0
173
     0
291
     1
 45
0.0
1001
ACAD
1000
AcDbSavedByObjectVersion
1070
     0
  0
VISUALSTYLE
  5
45B
102
{ACAD_XDICTIONARY
360
E95
102
}
102
{ACAD_REACTORS
330
44B
102
}
330
44B
100
AcDbVisualStyle
  2

 70
    16
 71
     2
 72
     2
 73
     3
 90
        0
 40
-0.6
 41
-30.0
 62
     5
 63
     8
 74
     1
 91
        4
 64
     7
 65
   257
 75
     1
175
     1
 42
1.0
 92
        8
 66
     8
 43
1.0
 76
     1
 77
     6
 78
     2
 67
     7
 79
     5
170
     0
171
     0
290
     0
174
     0
 93
        1
 44
0.0
173
     0
291
     1
 45
0.0
1001
ACAD
1000
AcDbSavedByObjectVersion
1070
     0
  0
VISUALSTYLE
  5
454
102
{ACAD_XDICTIONARY
360
E87
102
}
102
{ACAD_REACTORS
330
44B
102
}
330
44B
100
AcDbVisualStyle
  2

 70
     9
 71
     3
 72
     2
 73
     0
 90
        0
 40
-0.6
 41
-30.0
 62
     5
 63
     7
 74
     2
 91
        2
 64
     7
 65
   257
 75
     1
175
     1
 42
179.0
 92
        8
 66
     7
 43
1.0
 76
     1
 77
     6
 78
     2
 67
     7
 79
     3
170
     0
171
     0
290
     0
174
     0
 93
        1
 44
0.0
173
     0
291
     0
 45
0.0
1001
ACAD
1000
AcDbSavedByObjectVersion
1070
     0
  0
VISUALSTYLE
  5
456
102
{ACAD_XDICTIONARY
360
E8B
102
}
102
{ACAD_REACTORS
330
44B
102
}
330
44B
100
AcDbVisualStyle
  2

 70
    11
 71
     2
 72
     2
 73
     0
 90
        0
 40
-0.6
 41
-30.0
 62
     5
 63
     7
 74
     1
 91
        4
 64
     7
 65
   257
 75
     1
175
     1
 42
1.0
 92
        8
 66
     7
 43
1.0
 76
     1
 77
     6
 78
     2
 67
     7
 79
     5
170
     0
171
     0
290
     0
174
     0
 93
        1
 44
-50.0
173
     0
291
     1
 45
0.0
1001
ACAD
1000
AcDbSavedByObjectVersion
1070
     0
  0
VISUALSTYLE
  5
463
102
{ACAD_XDICTIONARY
360
EA5
102
}
102
{ACAD_REACTORS
330
44B
102
}
330
44B
100
AcDbVisualStyle
  2

 70
    22
 71
     2
 72
     2
 73
     0
 90
        0
 40
-0.6
 41
-30.0
 62
     5
 63
     7
 74
     1
 91
        4
 64
     7
 65
   257
 75
     1
175
     1
 42
1.0
 92
        8
 66
     7
 43
1.0
 76
     1
 77
     6
 78
     2
 67
     7
 79
     5
170
     0
171
     0
290
     0
174
     0
 93
        1
 44
0.0
173
     0
291
     1
 45
0.0
1001
ACAD
1000
AcDbSavedByObjectVersion
1070
     0
  0
VISUALSTYLE
  5
45A
102
{ACAD_XDICTIONARY
360
E93
102
}
102
{ACAD_REACTORS
330
44B
102
}
330
44B
100
AcDbVisualStyle
  2

 70
    15
 71
     2
 72
     2
 73
     0
 90
        0
 40
-0.6
 41
-30.0
 62
     5
 63
     7
 74
     1
 91
        4
 64
     7
 65
   257
 75
     1
175
     1
 42
1.0
 92
        8
 66
     7
 43
1.0
 76
     1
 77
     6
 78
     2
 67
     7
 79
     5
170
     0
171
     0
290
     0
174
     0
 93
        1
 44
0.0
173
     0
291
     1
 45
0.0
1001
ACAD
1000
AcDbSavedByObjectVersion
1070
     0
  0
VISUALSTYLE
  5
44C
102
{ACAD_XDICTIONARY
360
E77
102
}
102
{ACAD_REACTORS
330
44B
102
}
330
44B
100
AcDbVisualStyle
  2

 70
     0
 71
     2
 72
     1
 73
     1
 90
        2
 40
-0.6
 41
30.0
 62
     5
 63
     7
 74
     0
 91
        0
 64
     7
 65
   257
 75
     1
175
     1
 42
1.0
 92
        8
 66
     7
 43
1.0
 76
     1
 77
     6
 78
     2
 67
     7
 79
     5
170
     0
171
     0
290
     0
174
     0
 93
       13
 44
0.0
173
     0
291
     1
 45
0.0
1001
ACAD
1000
AcDbSavedByObjectVersion
1070
     0
  0
VISUALSTYLE
  5
44D
102
{ACAD_XDICTIONARY
360
E79
102
}
102
{ACAD_REACTORS
330
44B
102
}
330
44B
100
AcDbVisualStyle
  2

 70
     1
 71
     2
 72
     1
 73
     1
 90
        2
 40
-0.6
 41
30.0
 62
     5
 63
     7
 74
     1
 91
        0
 64
     7
 65
   257
 75
     1
175
     1
 42
1.0
 92
        0
 66
   257
 43
1.0
 76
     1
 77
     6
 78
     2
 67
     7
 79
     5
170
     0
171
     0
290
     0
174
     0
 93
       13
 44
0.0
173
     0
291
     1
 45
0.0
1001
ACAD
1000
AcDbSavedByObjectVersion
1070
     0
  0
VISUALSTYLE
  5
44E
102
{ACAD_XDICTIONARY
360
E7B
102
}
102
{ACAD_REACTORS
330
44B
102
}
330
44B
100
AcDbVisualStyle
  2

 70
     2
 71
     2
 72
     2
 73
     1
 90
        2
 40
-0.6
 41
30.0
 62
     5
 63
     7
 74
     0
 91
        0
 64
     7
 65
   257
 75
     1
175
     1
 42
1.0
 92
        0
 66
     7
 43
1.0
 76
     1
 77
     6
 78
     2
 67
     7
 79
     5
170
     0
171
     0
290
     0
174
     0
 93
       13
 44
0.0
173
     0
291
     1
 45
0.0
1001
ACAD
1000
AcDbSavedByObjectVersion
1070
     0
  0
VISUALSTYLE
  5
44F
102
{ACAD_XDICTIONARY
360
E7D
102
}
102
{ACAD_REACTORS
330
44B
102
}
330
44B
100
AcDbVisualStyle
  2

 70
     3
 71
     2
 72
     2
 73
     1
 90
        2
 40
-0.6
 41
30.0
 62
     5
 63
     7
 74
     1
 91
        0
 64
     7
 65
   257
 75
     1
175
     1
 42
1.0
 92
        0
 66
   257
 43
1.0
 76
     1
 77
     6
 78
     2
 67
     7
 79
     5
170
     0
171
     0
290
     0
174
     0
 93
       13
 44
0.0
173
     0
291
     1
 45
0.0
1001
ACAD
1000
AcDbSavedByObjectVersion
1070
     0
  0
VISUALSTYLE
  5
453
102
{ACAD_XDICTIONARY
360
E85
102
}
102
{ACAD_REACTORS
330
44B
102
}
330
44B
100
AcDbVisualStyle
  2

 70
     6
 71
     1
 72
     2
 73
     2
 90
        0
 40
-0.6
 41
-30.0
 62
     5
 63
     7
 74
     2
 91
        2
 64
     7
 65
   257
 75
     2
175
     1
 42
40.0
 92
        0
 66
   257
 43
1.0
 76
     1
 77
     6
 78
     2
 67
     7
 79
     3
170
     0
171
     0
290
     0
174
     0
 93
        1
 44
0.0
173
     0
291
     0
 45
0.0
1001
ACAD
1000
AcDbSavedByObjectVersion
1070
     0
  0
VISUALSTYLE
  5
461
102
{ACAD_XDICTIONARY
360
EA1
102
}
102
{ACAD_REACTORS
330
44B
102
}
330
44B
100
AcDbVisualStyle
  2

 70
    20
 71
     2
 72
     2
 73
     0
 90
        0
 40
-0.6
 41
-30.0
 62
     5
 63
     7
 74
     1
 91
        4
 64
     7
 65
   257
 75
     1
175
     1
 42
1.0
 92
       10
 66
     7
 43
1.0
 76
     1
 77
     6
 78
     2
 67
     7
 79
     5
170
     0
171
     0
290
     0
174
     0
 93
        1
 44
0.0
173
     0
291
     1
 45
0.0
1001
ACAD
1000
AcDbSavedByObjectVersion
1070
     0
  0
VISUALSTYLE
  5
459
102
{ACAD_XDICTIONARY
360
E91
102
}
102
{ACAD_REACTORS
330
44B
102
}
330
44B
100
AcDbVisualStyle
  2

 70
    14
 71
     2
 72
     2
 73
     0
 90
        0
 40
-0.6
 41
-30.0
 62
     5
 63
     7
 74
     1
 91
        4
 64
     7
 65
   257
 75
     7
175
     7
 42
1.0
 92
        8
 66
     7
 43
1.0
 76
     1
 77
     6
 78
     2
 67
     7
 79
     5
170
     0
171
     0
290
     0
174
     0
 93
        1
 44
0.0
173
     0
291
     1
 45
0.0
1001
ACAD
1000
AcDbSavedByObjectVersion
1070
     0
  0
VISUALSTYLE
  5
462
102
{ACAD_XDICTIONARY
360
EA3
102
}
102
{ACAD_REACTORS
330
44B
102
}
330
44B
100
AcDbVisualStyle
  2

 70
    21
 71
     2
 72
     2
 73
     0
 90
        0
 40
-0.6
 41
-30.0
 62
     5
 63
     7
 74
     1
 91
        4
 64
     7
 65
   257
 75
     1
175
     1
 42
1.0
 92
        9
 66
     7
 43
1.0
 76
     1
 77
     6
 78
     2
 67
     7
 79
     5
170
     0
171
     0
290
     0
174
     0
 93
        1
 44
0.0
173
     0
291
     1
 45
0.0
1001
ACAD
1000
AcDbSavedByObjectVersion
1070
     0
  0
VISUALSTYLE
  5
455
102
{ACAD_XDICTIONARY
360
E89
102
}
102
{ACAD_REACTORS
330
44B
102
}
330
44B
100
AcDbVisualStyle
  2

 70
     8
 71
     2
 72
     3
 73
     0
 90
        2
 40
-0.6
 41
30.0
 62
     5
 63
     7
 74
     0
 91
        0
 64
     7
 65
   257
 75
     1
175
     1
 42
1.0
 92
        8
 66
   257
 43
1.0
 76
     1
 77
     6
 78
     2
 67
     7
 79
     3
170
     0
171
     0
290
     0
174
     0
 93
       13
 44
0.0
173
     0
291
     0
 45
0.0
1001
ACAD
1000
AcDbSavedByObjectVersion
1070
     0
  0
VISUALSTYLE
  5
460
102
{ACAD_XDICTIONARY
360
E9F
102
}
102
{ACAD_REACTORS
330
44B
102
}
330
44B
100
AcDbVisualStyle
  2

 70
    27
 71
     2
 72
     2
 73
     1
 90
        2
 40
-0.6
 41
30.0
 62
     5
 63
     7
 74
     0
 91
        4
 64
     7
 65
   257
 75
     1
175
     1
 42
1.0
 92
        8
 66
   257
 43
1.0
 76
     1
 77
     6
 78
     2
 67
     8
 79
     3
170
     0
171
     0
290
     0
174
     0
 93
        5
 44
0.0
173
     0
291
     0
 45
0.0
1001
ACAD
1000
AcDbSavedByObjectVersion
1070
     0
  0
VISUALSTYLE
  5
45F
102
{ACAD_XDICTIONARY
360
E9D
102
}
102
{ACAD_REACTORS
330
44B
102
}
330
44B
100
AcDbVisualStyle
  2

 70
    26
 71
     2
 72
     2
 73
     1
 90
        2
 40
-0.6
 41
30.0
 62
     5
 63
     7
 74
     1
 91
        2
 64
     7
 65
   257
 75
     2
175
     1
 42
1.0
 92
        8
 66
   257
 43
1.0
 76
     1
 77
     6
 78
     2
 67
     7
 79
     3
170
     0
171
     0
290
     0
174
     0
 93
        5
 44
0.0
173
     0
291
     0
 45
0.0
1001
ACAD
1000
AcDbSavedByObjectVersion
1070
     0
  0
VISUALSTYLE
  5
45C
102
{ACAD_XDICTIONARY
360
E97
102
}
102
{ACAD_REACTORS
330
44B
102
}
330
44B
100
AcDbVisualStyle
  2

 70
    23
 71
     2
 72
     2
 73
     3
 90
        0
 40
-0.6
 41
-30.0
 62
     5
 63
     7
 74
     2
 91
        2
 64
     7
 65
     7
 75
     1
175
     1
 42
40.0
 92
        8
 66
     7
 43
1.0
 76
     1
 77
     6
 78
     2
 67
     7
 79
     3
170
     0
171
     0
290
     0
174
     0
 93
        1
 44
0.0
173
     0
291
     0
 45
0.0
1001
ACAD
1000
AcDbSavedByObjectVersion
1070
     0
  0
VISUALSTYLE
  5
45D
102
{ACAD_XDICTIONARY
360
E99
102
}
102
{ACAD_REACTORS
330
44B
102
}
330
44B
100
AcDbVisualStyle
  2

 70
    24
 71
     1
 72
     2
 73
     2
 90
        0
 40
-0.6
 41
-30.0
 62
     5
 63
     7
 74
     2
 91
        2
 64
     7
 65
     7
 75
     1
175
     1
 42
40.0
 92
       11
 66
     7
 43
1.0
 76
     1
 77
     6
 78
     2
 67
     7
 79
     6
170
     0
171
     0
290
     0
174
     0
 93
        1
 44
0.0
173
     0
291
     0
 45
0.0
1001
ACAD
1000
AcDbSavedByObjectVersion
1070
     0
  0
VISUALSTYLE
  5
458
102
{ACAD_XDICTIONARY
360
E8F
102
}
102
{ACAD_REACTORS
330
44B
102
}
330
44B
100
AcDbVisualStyle
  2

 70
    13
 71
     2
 72
     2
 73
     0
 90
        0
 40
-0.6
 41
-30.0
 62
     5
 63
     7
 74
     1
 91
        4
 64
     7
 65
   257
 75
     1
175
     1
 42
1.0
 92
       12
 66
     7
 43
1.0
 76
     1
 77
     6
 78
     2
 67
     7
 79
     5
170
     0
171
     0
290
     0
174
     0
 93
        1
 44
0.0
173
     0
291
     1
 45
0.0
1001
ACAD
1000
AcDbSavedByObjectVersion
1070
     0
  0
VISUALSTYLE
  5
452
102
{ACAD_XDICTIONARY
360
E83
102
}
102
{ACAD_REACTORS
330
44B
102
}
330
44B
100
AcDbVisualStyle
  2

 70
     5
 71
     0
 72
     2
 73
     0
 90
        0
 40
-0.6
 41
-30.0
 62
     5
 63
     7
 74
     1
 91
        4
 64
     7
 65
   257
 75
     1
175
     1
 42
1.0
 92
        0
 66
   257
 43
1.0
 76
     1
 77
     6
 78
     2
 67
     7
 79
     3
170
     0
171
     0
290
     0
174
     0
 93
        1
 44
0.0
173
     0
291
     0
 45
0.0
1001
ACAD
1000
AcDbSavedByObjectVersion
1070
     0
  0
VISUALSTYLE
  5
45E
102
{ACAD_XDICTIONARY
360
E9B
102
}
102
{ACAD_REACTORS
330
44B
102
}
330
44B
100
AcDbVisualStyle
  2

 70
    25
 71
     2
 72
     2
 73
     1
 90
        1
 40
0.5
 41
-30.0
 62
     5
 63
     7
 74
     1
 91
        0
 64
     7
 65
   257
 75
     1
175
     1
 42
1.0
 92
        8
 66
     7
 43
1.0
 76
     1
 77
     6
 78
     2
 67
     7
 79
     3
170
     0
171
     0
290
     0
174
     0
 93
       13
 44
0.0
173
     0
291
     0
 45
0.0
1001
ACAD
1000
AcDbSavedByObjectVersion
1070
     0
  0
DICTIONARYVAR
  5
74F
102
{ACAD_REACTORS
330
749
102
}
330
749
100
DictionaryVariables
280
     0
  1
1:1
  0
DICTIONARYVAR
  5
74B
102
{ACAD_REACTORS
330
749
102
}
330
749
100
DictionaryVariables
280
     0
  1
STANDARD
  0
DICTIONARYVAR
  5
74A
102
{ACAD_REACTORS
330
749
102
}
330
749
100
DictionaryVariables
280
     0
  1
STANDARD
  0
DICTIONARYVAR
  5
74C
102
{ACAD_REACTORS
330
749
102
}
330
749
100
DictionaryVariables
280
     0
  1
Metric50
  0
DICTIONARYVAR
  5
74D
102
{ACAD_REACTORS
330
749
102
}
330
749
100
DictionaryVariables
280
     0
  1
Metric50
  0
DICTIONARYVAR
  5
76A
102
{ACAD_REACTORS
330
749
102
}
330
749
100
DictionaryVariables
280
     0
  1
1
  0
DICTIONARYVAR
  5
769
102
{ACAD_REACTORS
330
749
102
}
330
749
100
DictionaryVariables
280
     0
  1
0
  0
DICTIONARYVAR
  5
751
102
{ACAD_REACTORS
330
749
102
}
330
749
100
DictionaryVariables
280
     0
  1
1
  0
DICTIONARYVAR
  5
752
102
{ACAD_REACTORS
330
749
102
}
330
749
100
DictionaryVariables
280
     0
  1
15
  0
DICTIONARYVAR
  5
750
102
{ACAD_REACTORS
330
749
102
}
330
749
100
DictionaryVariables
280
     0
  1
0
  0
DICTIONARYVAR
  5
74E
102
{ACAD_REACTORS
330
749
102
}
330
749
100
DictionaryVariables
280
     0
  1
0
  0
DICTIONARYVAR
  5
768
102
{ACAD_REACTORS
330
749
102
}
330
749
100
DictionaryVariables
280
     0
  1
127
  0
DICTIONARYVAR
  5
E60
102
{ACAD_REACTORS
330
749
102
}
330
749
100
DictionaryVariables
280
     0
  1
2
  0
DICTIONARY
  5
E70
102
{ACAD_REACTORS
330
E6E
102
}
330
E6E
100
AcDbDictionary
281
     1
  0
DICTIONARY
  5
E6F
102
{ACAD_REACTORS
330
E6E
102
}
330
E6E
100
AcDbDictionary
281
     1
  3
2762352694672
350
E69
  3
2762352694688
350
E6A
  3
2762352694704
350
E6B
  3
2762352694720
350
E6C
  3
2762352694736
350
E6D
  0
DICTIONARY
  5
4B6
102
{ACAD_REACTORS
330
4AF
102
}
330
4AF
100
AcDbDictionary
281
     1
  0
XRECORD
  5
735
102
{ACAD_REACTORS
330
733
102
}
330
733
100
AcDbXrecord
280
     1
330
509
330
0
  0
DICTIONARY
  5
EAA
330
47E
100
AcDbDictionary
280
     1
281
     1
  3
ACAD_XREC_ROUNDTRIP
360
EAB
  0
DICTIONARY
  5
E73
330
21
100
AcDbDictionary
280
     1
281
     1
  3
ACAD_XREC_ROUNDTRIP
360
E74
  0
DICTIONARY
  5
E71
330
20
100
AcDbDictionary
280
     1
281
     1
  3
ACAD_XREC_ROUNDTRIP
360
E72
  0
DICTIONARY
  5
43C
330
43B
100
AcDbDictionary
280
     1
281
     1
  3
ACAD_XREC_ROUNDTRIP
360
78D
  3
BUMPTILE
360
43E
  3
DIFFUSETILE
360
43D
  3
OPACITYTILE
360
441
  3
REFLECTIONTILE
360
440
  3
REFRACTIONTILE
360
442
  3
SPECULARTILE
360
43F
  0
DICTIONARY
  5
434
330
433
100
AcDbDictionary
280
     1
281
     1
  3
ACAD_XREC_ROUNDTRIP
360
78C
  3
BUMPTILE
360
436
  3
DIFFUSETILE
360
435
  3
OPACITYTILE
360
439
  3
REFLECTIONTILE
360
438
  3
REFRACTIONTILE
360
43A
  3
SPECULARTILE
360
437
  0
DICTIONARY
  5
444
330
443
100
AcDbDictionary
280
     1
281
     1
  3
ACAD_XREC_ROUNDTRIP
360
78E
  3
BUMPTILE
360
446
  3
DIFFUSETILE
360
445
  3
OPACITYTILE
360
449
  3
REFLECTIONTILE
360
448
  3
REFRACTIONTILE
360
44A
  3
SPECULARTILE
360
447
  0
DICTIONARY
  5
EA8
330
47C
100
AcDbDictionary
280
     1
281
     1
  3
ACAD_XREC_ROUNDTRIP
360
EA9
  0
DICTIONARY
  5
76C
330
466
100
AcDbDictionary
280
     1
281
     1
  3
ACAD_ROUNDTRIP_2008_TABLESTYLE_CELLSTYLEMAP
360
E61
  3
ACAD_XREC_ROUNDTRIP
360
EA7
  0
DICTIONARY
  5
E81
330
451
100
AcDbDictionary
280
     1
281
     1
  3
ACAD_XREC_ROUNDTRIP
360
E82
  0
DICTIONARY
  5
E7F
330
450
100
AcDbDictionary
280
     1
281
     1
  3
ACAD_XREC_ROUNDTRIP
360
E80
  0
DICTIONARY
  5
E8D
330
457
100
AcDbDictionary
280
     1
281
     1
  3
ACAD_XREC_ROUNDTRIP
360
E8E
  0
DICTIONARY
  5
E95
330
45B
100
AcDbDictionary
280
     1
281
     1
  3
ACAD_XREC_ROUNDTRIP
360
E96
  0
DICTIONARY
  5
E87
330
454
100
AcDbDictionary
280
     1
281
     1
  3
ACAD_XREC_ROUNDTRIP
360
E88
  0
DICTIONARY
  5
E8B
330
456
100
AcDbDictionary
280
     1
281
     1
  3
ACAD_XREC_ROUNDTRIP
360
E8C
  0
DICTIONARY
  5
EA5
330
463
100
AcDbDictionary
280
     1
281
     1
  3
ACAD_XREC_ROUNDTRIP
360
EA6
  0
DICTIONARY
  5
E93
330
45A
100
AcDbDictionary
280
     1
281
     1
  3
ACAD_XREC_ROUNDTRIP
360
E94
  0
DICTIONARY
  5
E77
330
44C
100
AcDbDictionary
280
     1
281
     1
  3
ACAD_XREC_ROUNDTRIP
360
E78
  0
DICTIONARY
  5
E79
330
44D
100
AcDbDictionary
280
     1
281
     1
  3
ACAD_XREC_ROUNDTRIP
360
E7A
  0
DICTIONARY
  5
E7B
330
44E
100
AcDbDictionary
280
     1
281
     1
  3
ACAD_XREC_ROUNDTRIP
360
E7C
  0
DICTIONARY
  5
E7D
330
44F
100
AcDbDictionary
280
     1
281
     1
  3
ACAD_XREC_ROUNDTRIP
360
E7E
  0
DICTIONARY
  5
E85
330
453
100
AcDbDictionary
280
     1
281
     1
  3
ACAD_XREC_ROUNDTRIP
360
E86
  0
DICTIONARY
  5
EA1
330
461
100
AcDbDictionary
280
     1
281
     1
  3
ACAD_XREC_ROUNDTRIP
360
EA2
  0
DICTIONARY
  5
E91
330
459
100
AcDbDictionary
280
     1
281
     1
  3
ACAD_XREC_ROUNDTRIP
360
E92
  0
DICTIONARY
  5
EA3
330
462
100
AcDbDictionary
280
     1
281
     1
  3
ACAD_XREC_ROUNDTRIP
360
EA4
  0
DICTIONARY
  5
E89
330
455
100
AcDbDictionary
280
     1
281
     1
  3
ACAD_XREC_ROUNDTRIP
360
E8A
  0
DICTIONARY
  5
E9F
330
460
100
AcDbDictionary
280
     1
281
     1
  3
ACAD_XREC_ROUNDTRIP
360
EA0
  0
DICTIONARY
  5
E9D
330
45F
100
AcDbDictionary
280
     1
281
     1
  3
ACAD_XREC_ROUNDTRIP
360
E9E
  0
DICTIONARY
  5
E97
330
45C
100
AcDbDictionary
280
     1
281
     1
  3
ACAD_XREC_ROUNDTRIP
360
E98
  0
DICTIONARY
  5
E99
330
45D
100
AcDbDictionary
280
     1
281
     1
  3
ACAD_XREC_ROUNDTRIP
360
E9A
  0
DICTIONARY
  5
E8F
330
458
100
AcDbDictionary
280
     1
281
     1
  3
ACAD_XREC_ROUNDTRIP
360
E90
  0
DICTIONARY
  5
E83
330
452
100
AcDbDictionary
280
     1
281
     1
  3
ACAD_XREC_ROUNDTRIP
360
E84
  0
DICTIONARY
  5
E9B
330
45E
100
AcDbDictionary
280
     1
281
     1
  3
ACAD_XREC_ROUNDTRIP
360
E9C
  0
XRECORD
  5
E69
102
{ACAD_REACTORS
330
E6F
102
}
330
E6F
100
AcDbXrecord
280
     1
  1
AcDb_Thumbnail_Schema
102
{ATTRRECORD
341
E6A
  2
AcDbDs::TreatedAsObjectData
280
     1
291
     1
102
ATTRRECORD}
102
{ATTRRECORD
341
E6B
  2
AcDbDs::Legacy
280
     1
291
     1
102
ATTRRECORD}
  2
AcDbDs::ID
280
    10
 91
        8
102
{ATTRRECORD
341
E6C
  2
AcDs:Indexable
280
     1
291
     1
102
ATTRRECORD}
102
{ATTRRECORD
341
E6D
  2
AcDbDs::HandleAttribute
280
     7
282
     1
102
ATTRRECORD}
  2
Thumbnail_Data
280
    15
 91
        0
  0
XRECORD
  5
E6A
102
{ACAD_REACTORS
330
E6F
102
}
330
E6F
100
AcDbXrecord
280
     1
  1
AcDbDs::TreatedAsObjectDataSchema
  2
AcDbDs::TreatedAsObjectData
280
     1
 91
        0
  0
XRECORD
  5
E6B
102
{ACAD_REACTORS
330
E6F
102
}
330
E6F
100
AcDbXrecord
280
     1
  1
AcDbDs::LegacySchema
  2
AcDbDs::Legacy
280
     1
 91
        0
  0
XRECORD
  5
E6C
102
{ACAD_REACTORS
330
E6F
102
}
330
E6F
100
AcDbXrecord
280
     1
  1
AcDbDs::IndexedPropertySchema
  2
AcDs:Indexable
280
     1
 91
        0
  0
XRECORD
  5
E6D
102
{ACAD_REACTORS
330
E6F
102
}
330
E6F
100
AcDbXrecord
280
     1
  1
AcDbDs::HandleAttributeSchema
  2
AcDbDs::HandleAttribute
280
     7
 91
        1
284
     1
  0
XRECORD
  5
EAB
102
{ACAD_REACTORS
330
EAA
102
}
330
EAA
100
AcDbXrecord
280
     1
102
DISPLAYNAME
  1
Metric50
102
FLAGS
 90
        0
  0
XRECORD
  5
E74
102
{ACAD_REACTORS
330
E73
102
}
330
E73
100
AcDbXrecord
280
     1
102
SHADEPLOT
 70
     0
102
SHADEPLOTRESLEVEL
 70
     2
102
SHADEPLOTCUSTOMDPI
 70
   300
  0
XRECORD
  5
E72
102
{ACAD_REACTORS
330
E71
102
}
330
E71
100
AcDbXrecord
280
     1
102
SHADEPLOT
 70
     0
102
SHADEPLOTRESLEVEL
 70
     2
102
SHADEPLOTCUSTOMDPI
 70
   300
  0
XRECORD
  5
78D
102
{ACAD_REACTORS
330
43C
102
}
330
43C
100
AcDbXrecord
280
     1
102
MATERIAL
148
0.0
149
0.0
149
0.0
 93
        0
 94
      127
282
     0
 72
     0
 77
     0
171
     0
175
     0
179
     0
273
     0
  0
XRECORD
  5
43E
102
{ACAD_REACTORS
330
43C
102
}
330
43C
100
AcDbXrecord
280
     1
270
     1
271
     1
  0
XRECORD
  5
43D
102
{ACAD_REACTORS
330
43C
102
}
330
43C
100
AcDbXrecord
280
     1
270
     1
271
     1
  0
XRECORD
  5
441
102
{ACAD_REACTORS
330
43C
102
}
330
43C
100
AcDbXrecord
280
     1
270
     1
271
     1
  0
XRECORD
  5
440
102
{ACAD_REACTORS
330
43C
102
}
330
43C
100
AcDbXrecord
280
     1
270
     1
271
     1
  0
XRECORD
  5
442
102
{ACAD_REACTORS
330
43C
102
}
330
43C
100
AcDbXrecord
280
     1
270
     1
271
     1
  0
XRECORD
  5
43F
102
{ACAD_REACTORS
330
43C
102
}
330
43C
100
AcDbXrecord
280
     1
270
     1
271
     1
  0
XRECORD
  5
78C
102
{ACAD_REACTORS
330
434
102
}
330
434
100
AcDbXrecord
280
     1
102
MATERIAL
148
0.0
149
0.0
149
0.0
 93
        0
 94
      127
282
     0
 72
     0
 77
     0
171
     0
175
     0
179
     0
273
     0
  0
XRECORD
  5
436
102
{ACAD_REACTORS
330
434
102
}
330
434
100
AcDbXrecord
280
     1
270
     1
271
     1
  0
XRECORD
  5
435
102
{ACAD_REACTORS
330
434
102
}
330
434
100
AcDbXrecord
280
     1
270
     1
271
     1
  0
XRECORD
  5
439
102
{ACAD_REACTORS
330
434
102
}
330
434
100
AcDbXrecord
280
     1
270
     1
271
     1
  0
XRECORD
  5
438
102
{ACAD_REACTORS
330
434
102
}
330
434
100
AcDbXrecord
280
     1
270
     1
271
     1
  0
XRECORD
  5
43A
102
{ACAD_REACTORS
330
434
102
}
330
434
100
AcDbXrecord
280
     1
270
     1
271
     1
  0
XRECORD
  5
437
102
{ACAD_REACTORS
330
434
102
}
330
434
100
AcDbXrecord
280
     1
270
     1
271
     1
  0
XRECORD
  5
78E
102
{ACAD_REACTORS
330
444
102
}
330
444
100
AcDbXrecord
280
     1
102
MATERIAL
148
0.0
149
0.0
149
0.0
 93
        0
 94
      127
282
     0
 72
     0
 77
     0
171
     0
175
     0
179
     0
273
     0
  0
XRECORD
  5
446
102
{ACAD_REACTORS
330
444
102
}
330
444
100
AcDbXrecord
280
     1
270
     1
271
     1
  0
XRECORD
  5
445
102
{ACAD_REACTORS
330
444
102
}
330
444
100
AcDbXrecord
280
     1
270
     1
271
     1
  0
XRECORD
  5
449
102
{ACAD_REACTORS
330
444
102
}
330
444
100
AcDbXrecord
280
     1
270
     1
271
     1
  0
XRECORD
  5
448
102
{ACAD_REACTORS
330
444
102
}
330
444
100
AcDbXrecord
280
     1
270
     1
271
     1
  0
XRECORD
  5
44A
102
{ACAD_REACTORS
330
444
102
}
330
444
100
AcDbXrecord
280
     1
270
     1
271
     1
  0
XRECORD
  5
447
102
{ACAD_REACTORS
330
444
102
}
330
444
100
AcDbXrecord
280
     1
270
     1
271
     1
  0
XRECORD
  5
EA9
102
{ACAD_REACTORS
330
EA8
102
}
330
EA8
100
AcDbXrecord
280
     1
102
DISPLAYNAME
  1
Metric50
102
FLAGS
 90
        0
  0
CELLSTYLEMAP
  5
E61
102
{ACAD_REACTORS
330
76C
102
}
330
76C
100
AcDbCellStyleMap
 90
        3
300
CELLSTYLE
  1
TABLEFORMAT_BEGIN
 90
        5
170
     1
 91
        0
 92
    32768
 62
   257
 93
        1
300
CONTENTFORMAT
  1
CONTENTFORMAT_BEGIN
 90
        0
 91
        0
 92
      512
 93
        0
300

 40
0.0
140
1.0
 94
        5
 62
     0
340
17
144
6.0
309
CONTENTFORMAT_END
171
     1
301
MARGIN
  1
CELLMARGIN_BEGIN
 40
1.5
 40
1.5
 40
1.5
 40
1.5
 40
0.18
 40
0.18
309
CELLMARGIN_END
 94
        6
 95
        1
302
GRIDFORMAT
  1
GRIDFORMAT_BEGIN
 90
        0
 91
        1
 62
     0
 92
       -2
340
0
 93
        0
 40
1.125
309
GRIDFORMAT_END
 95
        2
302
GRIDFORMAT
  1
GRIDFORMAT_BEGIN
 90
        0
 91
        1
 62
     0
 92
       -2
340
0
 93
        0
 40
1.125
309
GRIDFORMAT_END
 95
        4
302
GRIDFORMAT
  1
GRIDFORMAT_BEGIN
 90
        0
 91
        1
 62
     0
 92
       -2
340
0
 93
        0
 40
1.125
309
GRIDFORMAT_END
 95
        8
302
GRIDFORMAT
  1
GRIDFORMAT_BEGIN
 90
        0
 91
        1
 62
     0
 92
       -2
340
0
 93
        0
 40
1.125
309
GRIDFORMAT_END
 95
       16
302
GRIDFORMAT
  1
GRIDFORMAT_BEGIN
 90
        0
 91
        1
 62
     0
 92
       -2
340
0
 93
        0
 40
1.125
309
GRIDFORMAT_END
 95
       32
302
GRIDFORMAT
  1
GRIDFORMAT_BEGIN
 90
        0
 91
        1
 62
     0
 92
       -2
340
0
 93
        0
 40
1.125
309
GRIDFORMAT_END
309
TABLEFORMAT_END
  1
CELLSTYLE_BEGIN
 90
        1
 91
        1
300
_TITLE
309
CELLSTYLE_END
300
CELLSTYLE
  1
TABLEFORMAT_BEGIN
 90
        5
170
     1
 91
        0
 92
        0
 62
   257
 93
        1
300
CONTENTFORMAT
  1
CONTENTFORMAT_BEGIN
 90
        0
 91
        0
 92
      512
 93
        0
300

 40
0.0
140
1.0
 94
        5
 62
     0
340
17
144
4.5
309
CONTENTFORMAT_END
171
     1
301
MARGIN
  1
CELLMARGIN_BEGIN
 40
1.5
 40
1.5
 40
1.5
 40
1.5
 40
0.18
 40
0.18
309
CELLMARGIN_END
 94
        6
 95
        1
302
GRIDFORMAT
  1
GRIDFORMAT_BEGIN
 90
        0
 91
        1
 62
     0
 92
       -2
340
0
 93
        0
 40
1.125
309
GRIDFORMAT_END
 95
        2
302
GRIDFORMAT
  1
GRIDFORMAT_BEGIN
 90
        0
 91
        1
 62
     0
 92
       -2
340
0
 93
        0
 40
1.125
309
GRIDFORMAT_END
 95
        4
302
GRIDFORMAT
  1
GRIDFORMAT_BEGIN
 90
        0
 91
        1
 62
     0
 92
       -2
340
0
 93
        0
 40
1.125
309
GRIDFORMAT_END
 95
        8
302
GRIDFORMAT
  1
GRIDFORMAT_BEGIN
 90
        0
 91
        1
 62
     0
 92
       -2
340
0
 93
        0
 40
1.125
309
GRIDFORMAT_END
 95
       16
302
GRIDFORMAT
  1
GRIDFORMAT_BEGIN
 90
        0
 91
        1
 62
     0
 92
       -2
340
0
 93
        0
 40
1.125
309
GRIDFORMAT_END
 95
       32
302
GRIDFORMAT
  1
GRIDFORMAT_BEGIN
 90
        0
 91
        1
 62
     0
 92
       -2
340
0
 93
        0
 40
1.125
309
GRIDFORMAT_END
309
TABLEFORMAT_END
  1
CELLSTYLE_BEGIN
 90
        2
 91
        1
300
_HEADER
309
CELLSTYLE_END
300
CELLSTYLE
  1
TABLEFORMAT_BEGIN
 90
        5
170
     1
 91
        0
 92
        0
 62
   257
 93
        1
300
CONTENTFORMAT
  1
CONTENTFORMAT_BEGIN
 90
        0
 91
        0
 92
      512
 93
        0
300

 40
0.0
140
1.0
 94
        2
 62
     0
340
17
144
4.5
309
CONTENTFORMAT_END
171
     1
301
MARGIN
  1
CELLMARGIN_BEGIN
 40
1.5
 40
1.5
 40
1.5
 40
1.5
 40
0.18
 40
0.18
309
CELLMARGIN_END
 94
        6
 95
        1
302
GRIDFORMAT
  1
GRIDFORMAT_BEGIN
 90
        0
 91
        1
 62
     0
 92
       -2
340
0
 93
        0
 40
1.125
309
GRIDFORMAT_END
 95
        2
302
GRIDFORMAT
  1
GRIDFORMAT_BEGIN
 90
        0
 91
        1
 62
     0
 92
       -2
340
0
 93
        0
 40
1.125
309
GRIDFORMAT_END
 95
        4
302
GRIDFORMAT
  1
GRIDFORMAT_BEGIN
 90
        0
 91
        1
 62
     0
 92
       -2
340
0
 93
        0
 40
1.125
309
GRIDFORMAT_END
 95
        8
302
GRIDFORMAT
  1
GRIDFORMAT_BEGIN
 90
        0
 91
        1
 62
     0
 92
       -2
340
0
 93
        0
 40
1.125
309
GRIDFORMAT_END
 95
       16
302
GRIDFORMAT
  1
GRIDFORMAT_BEGIN
 90
        0
 91
        1
 62
     0
 92
       -2
340
0
 93
        0
 40
1.125
309
GRIDFORMAT_END
 95
       32
302
GRIDFORMAT
  1
GRIDFORMAT_BEGIN
 90
        0
 91
        1
 62
     0
 92
       -2
340
0
 93
        0
 40
1.125
309
GRIDFORMAT_END
309
TABLEFORMAT_END
  1
CELLSTYLE_BEGIN
 90
        3
 91
        2
300
_DATA
309
CELLSTYLE_END
  0
XRECORD
  5
EA7
102
{ACAD_REACTORS
330
76C
102
}
330
76C
100
AcDbXrecord
280
     1
102
ACAD_ROUNDTRIP_PRE2007_TABLESTYLE
 90
      512
 91
        0
  1

 92
      512
 93
        0
  2

 94
      512
 95
        0
  3

  0
XRECORD
  5
E82
102
{ACAD_REACTORS
330
E81
102
}
330
E81
100
AcDbXrecord
280
     1
102
RTVSPost2010Prop28
280
     1
102
RTVSPost2010PropOp28
 70
     1
102
RTVSPost2010Prop29
280
     1
102
RTVSPost2010PropOp29
 70
     1
102
RTVSPost2010Prop30
280
     0
102
RTVSPost2010PropOp30
 70
     1
102
RTVSPost2010Prop31
280
     0
102
RTVSPost2010PropOp31
 70
     1
102
RTVSPost2010Prop32
280
     0
102
RTVSPost2010PropOp32
 70
     1
102
RTVSPost2010Prop33
280
     0
102
RTVSPost2010PropOp33
 70
     1
102
RTVSPost2010Prop34
280
     0
102
RTVSPost2010PropOp34
 70
     1
102
RTVSPost2010Prop35
280
     0
102
RTVSPost2010PropOp35
 70
     1
102
RTVSPost2010Prop36
280
     0
102
RTVSPost2010PropOp36
 70
     1
102
RTVSPost2010Prop37
 90
       50
102
RTVSPost2010PropOp37
 70
     1
102
RTVSPost2010Prop38
140
0.0
102
RTVSPost2010PropOp38
 70
     1
102
RTVSPost2010Prop39
140
1.0
102
RTVSPost2010PropOp39
 70
     1
102
RTVSPost2010Prop40
 90
        0
102
RTVSPost2010PropOp40
 70
     1
102
RTVSPost2010Prop41ColorIndex
 90
       18
102
RTVSPost2010Prop41ColorRGB
 90
        0
102
RTVSPost2010PropOp41
 70
     1
102
RTVSPost2010Prop42
 90
       50
102
RTVSPost2010PropOp42
 70
     1
102
RTVSPost2010Prop43
 90
        3
102
RTVSPost2010PropOp43
 70
     1
102
RTVSPost2010Prop44ColorIndex
 90
        5
102
RTVSPost2010Prop44ColorRGB
 90
      255
102
RTVSPost2010PropOp44
 70
     1
102
RTVSPost2010Prop45
280
     0
102
RTVSPost2010PropOp45
 70
     1
102
RTVSPost2010Prop46
 90
       50
102
RTVSPost2010PropOp46
 70
     1
102
RTVSPost2010Prop47
 90
       50
102
RTVSPost2010PropOp47
 70
     1
102
RTVSPost2010Prop48
 90
       50
102
RTVSPost2010PropOp48
 70
     1
102
RTVSPost2010Prop49
280
     0
102
RTVSPost2010PropOp49
 70
     1
102
RTVSPost2010Prop50
 90
       50
102
RTVSPost2010PropOp50
 70
     1
102
RTVSPost2010Prop51ColorIndex
 90
      256
102
RTVSPost2010Prop51ColorRGB
 90
-16777216
102
RTVSPost2010PropOp51
 70
     0
102
RTVSPost2010Prop52
140
1.0
102
RTVSPost2010PropOp52
 70
     0
102
RTVSPost2010Prop53
 90
        2
102
RTVSPost2010PropOp53
 70
     1
102
RTVSPost2010Prop54
  1
strokes_ogs.tif
102
RTVSPost2010PropOp54
 70
     1
102
RTVSPost2010Prop55
280
     0
102
RTVSPost2010PropOp55
 70
     1
102
RTVSPost2010Prop56
140
1.0
102
RTVSPost2010PropOp56
 70
     1
102
RTVSPost2010Prop57
140
1.0
102
RTVSPost2010PropOp57
 70
     1
102
RTVSPropertyOp0
 70
     1
102
RTVSPropertyOp1
 70
     1
102
RTVSPropertyOp2
 70
     1
102
RTVSPropertyOp3
 70
     1
102
RTVSPropertyOp4
 70
     1
102
RTVSPropertyOp5
 70
     1
102
RTVSPropertyOp6
 70
     1
102
RTVSPropertyOp7
 70
     1
102
RTVSPropertyOp8
 70
     1
102
RTVSPropertyOp9
 70
     1
102
RTVSPropertyOp10
 70
     1
102
RTVSPropertyOp11
 70
     1
102
RTVSPropertyOp12
 70
     1
102
RTVSPropertyOp13
 70
     1
102
RTVSPropertyOp14
 70
     1
102
RTVSPropertyOp15
 70
     1
102
RTVSPropertyOp16
 70
     1
102
RTVSPropertyOp17
 70
     1
102
RTVSPropertyOp18
 70
     1
102
RTVSPropertyOp19
 70
     1
102
RTVSPropertyOp20
 70
     1
102
RTVSPropertyOp21
 70
     1
102
RTVSPropertyOp22
 70
     1
102
RTVSPropertyOp23
 70
     1
102
RTVSPropertyOp24
 70
     1
102
RTVSPropertyOp25
 70
     1
102
RTVSPropertyOp26
 70
     1
102
RTVSPropertyOp27
 70
     1
102
RTVSPropertyOp28
 70
     1
102
RTVSPropertyOp29
 70
     1
102
RTVSPropertyOp30
 70
     1
102
RTVSPropertyOp31
 70
     1
102
RTVSPropertyOp32
 70
     1
102
RTVSPropertyOp33
 70
     1
102
RTVSPropertyOp34
 70
     1
102
RTVSPropertyOp35
 70
     1
102
RTVSPropertyOp36
 70
     1
102
RTVSPropertyOp37
 70
     1
102
RTVSPropertyOp38
 70
     1
102
RTVSPropertyOp39
 70
     1
102
RTVSPropertyOp40
 70
     1
102
RTVSPropertyOp41
 70
     1
102
RTVSPropertyOp42
 70
     1
102
RTVSPropertyOp43
 70
     1
102
RTVSPropertyOp44
 70
     1
102
RTVSPropertyOp45
 70
     1
102
RTVSPropertyOp46
 70
     1
102
RTVSPropertyOp47
 70
     1
102
RTVSPropertyOp48
 70
     1
102
RTVSPropertyOp49
 70
     1
102
RTVSPropertyOp50
 70
     1
102
RTVSPropertyOp51
 70
     0
102
RTVSPropertyOp52
 70
     0
102
RTVSPropertyOp53
 70
     1
102
RTVSPropertyOp54
 70
     1
102
RTVSPropertyOp55
 70
     1
102
RTVSPropertyOp56
 70
     1
102
RTVSPropertyOp57
 70
     1
102
RTVSPropertyOp58
 70
     1
102
RTVSPropertyOp59
 70
     1
102
RTVSPropertyOp60
 70
     1
102
RTVSPropertyOp61
 70
     1
102
RTVSPropertyOp62
 70
     1
  0
XRECORD
  5
E80
102
{ACAD_REACTORS
330
E7F
102
}
330
E7F
100
AcDbXrecord
280
     1
102
RTVSPost2010Prop28
280
     0
102
RTVSPost2010PropOp28
 70
     1
102
RTVSPost2010Prop29
280
     1
102
RTVSPost2010PropOp29
 70
     1
102
RTVSPost2010Prop30
280
     1
102
RTVSPost2010PropOp30
 70
     1
102
RTVSPost2010Prop31
280
     0
102
RTVSPost2010PropOp31
 70
     1
102
RTVSPost2010Prop32
280
     0
102
RTVSPost2010PropOp32
 70
     1
102
RTVSPost2010Prop33
280
     0
102
RTVSPost2010PropOp33
 70
     1
102
RTVSPost2010Prop34
280
     0
102
RTVSPost2010PropOp34
 70
     1
102
RTVSPost2010Prop35
280
     0
102
RTVSPost2010PropOp35
 70
     1
102
RTVSPost2010Prop36
280
     0
102
RTVSPost2010PropOp36
 70
     1
102
RTVSPost2010Prop37
 90
       50
102
RTVSPost2010PropOp37
 70
     1
102
RTVSPost2010Prop38
140
0.0
102
RTVSPost2010PropOp38
 70
     1
102
RTVSPost2010Prop39
140
1.0
102
RTVSPost2010PropOp39
 70
     1
102
RTVSPost2010Prop40
 90
        0
102
RTVSPost2010PropOp40
 70
     1
102
RTVSPost2010Prop41ColorIndex
 90
       18
102
RTVSPost2010Prop41ColorRGB
 90
        0
102
RTVSPost2010PropOp41
 70
     1
102
RTVSPost2010Prop42
 90
       50
102
RTVSPost2010PropOp42
 70
     1
102
RTVSPost2010Prop43
 90
        3
102
RTVSPost2010PropOp43
 70
     1
102
RTVSPost2010Prop44ColorIndex
 90
        5
102
RTVSPost2010Prop44ColorRGB
 90
      255
102
RTVSPost2010PropOp44
 70
     1
102
RTVSPost2010Prop45
280
     0
102
RTVSPost2010PropOp45
 70
     1
102
RTVSPost2010Prop46
 90
       50
102
RTVSPost2010PropOp46
 70
     1
102
RTVSPost2010Prop47
 90
       50
102
RTVSPost2010PropOp47
 70
     1
102
RTVSPost2010Prop48
 90
       50
102
RTVSPost2010PropOp48
 70
     1
102
RTVSPost2010Prop49
280
     0
102
RTVSPost2010PropOp49
 70
     1
102
RTVSPost2010Prop50
 90
       50
102
RTVSPost2010PropOp50
 70
     1
102
RTVSPost2010Prop51ColorIndex
 90
      256
102
RTVSPost2010Prop51ColorRGB
 90
-16777216
102
RTVSPost2010PropOp51
 70
     0
102
RTVSPost2010Prop52
140
1.0
102
RTVSPost2010PropOp52
 70
     0
102
RTVSPost2010Prop53
 90
        2
102
RTVSPost2010PropOp53
 70
     1
102
RTVSPost2010Prop54
  1
strokes_ogs.tif
102
RTVSPost2010PropOp54
 70
     1
102
RTVSPost2010Prop55
280
     0
102
RTVSPost2010PropOp55
 70
     1
102
RTVSPost2010Prop56
140
1.0
102
RTVSPost2010PropOp56
 70
     1
102
RTVSPost2010Prop57
140
1.0
102
RTVSPost2010PropOp57
 70
     1
102
RTVSPropertyOp0
 70
     1
102
RTVSPropertyOp1
 70
     1
102
RTVSPropertyOp2
 70
     1
102
RTVSPropertyOp3
 70
     1
102
RTVSPropertyOp4
 70
     1
102
RTVSPropertyOp5
 70
     1
102
RTVSPropertyOp6
 70
     1
102
RTVSPropertyOp7
 70
     1
102
RTVSPropertyOp8
 70
     1
102
RTVSPropertyOp9
 70
     1
102
RTVSPropertyOp10
 70
     1
102
RTVSPropertyOp11
 70
     1
102
RTVSPropertyOp12
 70
     1
102
RTVSPropertyOp13
 70
     1
102
RTVSPropertyOp14
 70
     1
102
RTVSPropertyOp15
 70
     1
102
RTVSPropertyOp16
 70
     1
102
RTVSPropertyOp17
 70
     1
102
RTVSPropertyOp18
 70
     1
102
RTVSPropertyOp19
 70
     1
102
RTVSPropertyOp20
 70
     1
102
RTVSPropertyOp21
 70
     1
102
RTVSPropertyOp22
 70
     1
102
RTVSPropertyOp23
 70
     1
102
RTVSPropertyOp24
 70
     1
102
RTVSPropertyOp25
 70
     1
102
RTVSPropertyOp26
 70
     1
102
RTVSPropertyOp27
 70
     1
102
RTVSPropertyOp28
 70
     1
102
RTVSPropertyOp29
 70
     1
102
RTVSPropertyOp30
 70
     1
102
RTVSPropertyOp31
 70
     1
102
RTVSPropertyOp32
 70
     1
102
RTVSPropertyOp33
 70
     1
102
RTVSPropertyOp34
 70
     1
102
RTVSPropertyOp35
 70
     1
102
RTVSPropertyOp36
 70
     1
102
RTVSPropertyOp37
 70
     1
102
RTVSPropertyOp38
 70
     1
102
RTVSPropertyOp39
 70
     1
102
RTVSPropertyOp40
 70
     1
102
RTVSPropertyOp41
 70
     1
102
RTVSPropertyOp42
 70
     1
102
RTVSPropertyOp43
 70
     1
102
RTVSPropertyOp44
 70
     1
102
RTVSPropertyOp45
 70
     1
102
RTVSPropertyOp46
 70
     1
102
RTVSPropertyOp47
 70
     1
102
RTVSPropertyOp48
 70
     1
102
RTVSPropertyOp49
 70
     1
102
RTVSPropertyOp50
 70
     1
102
RTVSPropertyOp51
 70
     0
102
RTVSPropertyOp52
 70
     0
102
RTVSPropertyOp53
 70
     1
102
RTVSPropertyOp54
 70
     1
102
RTVSPropertyOp55
 70
     1
102
RTVSPropertyOp56
 70
     1
102
RTVSPropertyOp57
 70
     1
102
RTVSPropertyOp58
 70
     1
102
RTVSPropertyOp59
 70
     1
102
RTVSPropertyOp60
 70
     1
102
RTVSPropertyOp61
 70
     1
102
RTVSPropertyOp62
 70
     1
  0
XRECORD
  5
E8E
102
{ACAD_REACTORS
330
E8D
102
}
330
E8D
100
AcDbXrecord
280
     1
102
RTVSPost2010Prop28
280
     0
102
RTVSPost2010PropOp28
 70
     1
102
RTVSPost2010Prop29
280
     1
102
RTVSPost2010PropOp29
 70
     1
102
RTVSPost2010Prop30
280
     1
102
RTVSPost2010PropOp30
 70
     1
102
RTVSPost2010Prop31
280
     0
102
RTVSPost2010PropOp31
 70
     1
102
RTVSPost2010Prop32
280
     0
102
RTVSPost2010PropOp32
 70
     1
102
RTVSPost2010Prop33
280
     0
102
RTVSPost2010PropOp33
 70
     1
102
RTVSPost2010Prop34
280
     0
102
RTVSPost2010PropOp34
 70
     1
102
RTVSPost2010Prop35
280
     0
102
RTVSPost2010PropOp35
 70
     1
102
RTVSPost2010Prop36
280
     0
102
RTVSPost2010PropOp36
 70
     1
102
RTVSPost2010Prop37
 90
       50
102
RTVSPost2010PropOp37
 70
     1
102
RTVSPost2010Prop38
140
0.0
102
RTVSPost2010PropOp38
 70
     1
102
RTVSPost2010Prop39
140
1.0
102
RTVSPost2010PropOp39
 70
     1
102
RTVSPost2010Prop40
 90
        0
102
RTVSPost2010PropOp40
 70
     1
102
RTVSPost2010Prop41ColorIndex
 90
       18
102
RTVSPost2010Prop41ColorRGB
 90
        0
102
RTVSPost2010PropOp41
 70
     1
102
RTVSPost2010Prop42
 90
       50
102
RTVSPost2010PropOp42
 70
     1
102
RTVSPost2010Prop43
 90
        3
102
RTVSPost2010PropOp43
 70
     1
102
RTVSPost2010Prop44ColorIndex
 90
        5
102
RTVSPost2010Prop44ColorRGB
 90
      255
102
RTVSPost2010PropOp44
 70
     1
102
RTVSPost2010Prop45
280
     0
102
RTVSPost2010PropOp45
 70
     1
102
RTVSPost2010Prop46
 90
       50
102
RTVSPost2010PropOp46
 70
     1
102
RTVSPost2010Prop47
 90
       50
102
RTVSPost2010PropOp47
 70
     1
102
RTVSPost2010Prop48
 90
       50
102
RTVSPost2010PropOp48
 70
     1
102
RTVSPost2010Prop49
280
     0
102
RTVSPost2010PropOp49
 70
     1
102
RTVSPost2010Prop50
 90
       50
102
RTVSPost2010PropOp50
 70
     1
102
RTVSPost2010Prop51ColorIndex
 90
      256
102
RTVSPost2010Prop51ColorRGB
 90
-16777216
102
RTVSPost2010PropOp51
 70
     0
102
RTVSPost2010Prop52
140
1.0
102
RTVSPost2010PropOp52
 70
     0
102
RTVSPost2010Prop53
 90
        2
102
RTVSPost2010PropOp53
 70
     1
102
RTVSPost2010Prop54
  1
strokes_ogs.tif
102
RTVSPost2010PropOp54
 70
     1
102
RTVSPost2010Prop55
280
     0
102
RTVSPost2010PropOp55
 70
     1
102
RTVSPost2010Prop56
140
1.0
102
RTVSPost2010PropOp56
 70
     1
102
RTVSPost2010Prop57
140
1.0
102
RTVSPost2010PropOp57
 70
     1
102
RTVSPropertyOp0
 70
     1
102
RTVSPropertyOp1
 70
     1
102
RTVSPropertyOp2
 70
     1
102
RTVSPropertyOp3
 70
     1
102
RTVSPropertyOp4
 70
     1
102
RTVSPropertyOp5
 70
     1
102
RTVSPropertyOp6
 70
     1
102
RTVSPropertyOp7
 70
     1
102
RTVSPropertyOp8
 70
     1
102
RTVSPropertyOp9
 70
     1
102
RTVSPropertyOp10
 70
     1
102
RTVSPropertyOp11
 70
     1
102
RTVSPropertyOp12
 70
     1
102
RTVSPropertyOp13
 70
     1
102
RTVSPropertyOp14
 70
     1
102
RTVSPropertyOp15
 70
     1
102
RTVSPropertyOp16
 70
     1
102
RTVSPropertyOp17
 70
     1
102
RTVSPropertyOp18
 70
     1
102
RTVSPropertyOp19
 70
     1
102
RTVSPropertyOp20
 70
     1
102
RTVSPropertyOp21
 70
     1
102
RTVSPropertyOp22
 70
     1
102
RTVSPropertyOp23
 70
     1
102
RTVSPropertyOp24
 70
     1
102
RTVSPropertyOp25
 70
     1
102
RTVSPropertyOp26
 70
     1
102
RTVSPropertyOp27
 70
     1
102
RTVSPropertyOp28
 70
     1
102
RTVSPropertyOp29
 70
     1
102
RTVSPropertyOp30
 70
     1
102
RTVSPropertyOp31
 70
     1
102
RTVSPropertyOp32
 70
     1
102
RTVSPropertyOp33
 70
     1
102
RTVSPropertyOp34
 70
     1
102
RTVSPropertyOp35
 70
     1
102
RTVSPropertyOp36
 70
     1
102
RTVSPropertyOp37
 70
     1
102
RTVSPropertyOp38
 70
     1
102
RTVSPropertyOp39
 70
     1
102
RTVSPropertyOp40
 70
     1
102
RTVSPropertyOp41
 70
     1
102
RTVSPropertyOp42
 70
     1
102
RTVSPropertyOp43
 70
     1
102
RTVSPropertyOp44
 70
     1
102
RTVSPropertyOp45
 70
     1
102
RTVSPropertyOp46
 70
     1
102
RTVSPropertyOp47
 70
     1
102
RTVSPropertyOp48
 70
     1
102
RTVSPropertyOp49
 70
     1
102
RTVSPropertyOp50
 70
     1
102
RTVSPropertyOp51
 70
     0
102
RTVSPropertyOp52
 70
     0
102
RTVSPropertyOp53
 70
     1
102
RTVSPropertyOp54
 70
     1
102
RTVSPropertyOp55
 70
     1
102
RTVSPropertyOp56
 70
     1
102
RTVSPropertyOp57
 70
     1
102
RTVSPropertyOp58
 70
     1
102
RTVSPropertyOp59
 70
     1
102
RTVSPropertyOp60
 70
     1
102
RTVSPropertyOp61
 70
     1
102
RTVSPropertyOp62
 70
     1
  0
XRECORD
  5
E96
102
{ACAD_REACTORS
330
E95
102
}
330
E95
100
AcDbXrecord
280
     1
102
RTVSPost2010Prop28
280
     0
102
RTVSPost2010PropOp28
 70
     1
102
RTVSPost2010Prop29
280
     1
102
RTVSPost2010PropOp29
 70
     1
102
RTVSPost2010Prop30
280
     1
102
RTVSPost2010PropOp30
 70
     1
102
RTVSPost2010Prop31
280
     0
102
RTVSPost2010PropOp31
 70
     1
102
RTVSPost2010Prop32
280
     0
102
RTVSPost2010PropOp32
 70
     1
102
RTVSPost2010Prop33
280
     0
102
RTVSPost2010PropOp33
 70
     1
102
RTVSPost2010Prop34
280
     0
102
RTVSPost2010PropOp34
 70
     1
102
RTVSPost2010Prop35
280
     0
102
RTVSPost2010PropOp35
 70
     1
102
RTVSPost2010Prop36
280
     0
102
RTVSPost2010PropOp36
 70
     1
102
RTVSPost2010Prop37
 90
       50
102
RTVSPost2010PropOp37
 70
     1
102
RTVSPost2010Prop38
140
0.0
102
RTVSPost2010PropOp38
 70
     1
102
RTVSPost2010Prop39
140
1.0
102
RTVSPost2010PropOp39
 70
     1
102
RTVSPost2010Prop40
 90
        0
102
RTVSPost2010PropOp40
 70
     1
102
RTVSPost2010Prop41ColorIndex
 90
       18
102
RTVSPost2010Prop41ColorRGB
 90
        0
102
RTVSPost2010PropOp41
 70
     1
102
RTVSPost2010Prop42
 90
       50
102
RTVSPost2010PropOp42
 70
     1
102
RTVSPost2010Prop43
 90
        3
102
RTVSPost2010PropOp43
 70
     1
102
RTVSPost2010Prop44ColorIndex
 90
        5
102
RTVSPost2010Prop44ColorRGB
 90
      255
102
RTVSPost2010PropOp44
 70
     1
102
RTVSPost2010Prop45
280
     0
102
RTVSPost2010PropOp45
 70
     1
102
RTVSPost2010Prop46
 90
       50
102
RTVSPost2010PropOp46
 70
     1
102
RTVSPost2010Prop47
 90
       50
102
RTVSPost2010PropOp47
 70
     1
102
RTVSPost2010Prop48
 90
       50
102
RTVSPost2010PropOp48
 70
     1
102
RTVSPost2010Prop49
280
     0
102
RTVSPost2010PropOp49
 70
     1
102
RTVSPost2010Prop50
 90
       50
102
RTVSPost2010PropOp50
 70
     1
102
RTVSPost2010Prop51ColorIndex
 90
      256
102
RTVSPost2010Prop51ColorRGB
 90
-16777216
102
RTVSPost2010PropOp51
 70
     0
102
RTVSPost2010Prop52
140
1.0
102
RTVSPost2010PropOp52
 70
     0
102
RTVSPost2010Prop53
 90
        2
102
RTVSPost2010PropOp53
 70
     1
102
RTVSPost2010Prop54
  1
strokes_ogs.tif
102
RTVSPost2010PropOp54
 70
     1
102
RTVSPost2010Prop55
280
     0
102
RTVSPost2010PropOp55
 70
     1
102
RTVSPost2010Prop56
140
1.0
102
RTVSPost2010PropOp56
 70
     1
102
RTVSPost2010Prop57
140
1.0
102
RTVSPost2010PropOp57
 70
     1
102
RTVSPropertyOp0
 70
     1
102
RTVSPropertyOp1
 70
     1
102
RTVSPropertyOp2
 70
     1
102
RTVSPropertyOp3
 70
     1
102
RTVSPropertyOp4
 70
     1
102
RTVSPropertyOp5
 70
     1
102
RTVSPropertyOp6
 70
     1
102
RTVSPropertyOp7
 70
     1
102
RTVSPropertyOp8
 70
     1
102
RTVSPropertyOp9
 70
     1
102
RTVSPropertyOp10
 70
     1
102
RTVSPropertyOp11
 70
     1
102
RTVSPropertyOp12
 70
     1
102
RTVSPropertyOp13
 70
     1
102
RTVSPropertyOp14
 70
     1
102
RTVSPropertyOp15
 70
     1
102
RTVSPropertyOp16
 70
     1
102
RTVSPropertyOp17
 70
     1
102
RTVSPropertyOp18
 70
     1
102
RTVSPropertyOp19
 70
     1
102
RTVSPropertyOp20
 70
     1
102
RTVSPropertyOp21
 70
     1
102
RTVSPropertyOp22
 70
     1
102
RTVSPropertyOp23
 70
     1
102
RTVSPropertyOp24
 70
     1
102
RTVSPropertyOp25
 70
     1
102
RTVSPropertyOp26
 70
     1
102
RTVSPropertyOp27
 70
     1
102
RTVSPropertyOp28
 70
     1
102
RTVSPropertyOp29
 70
     1
102
RTVSPropertyOp30
 70
     1
102
RTVSPropertyOp31
 70
     1
102
RTVSPropertyOp32
 70
     1
102
RTVSPropertyOp33
 70
     1
102
RTVSPropertyOp34
 70
     1
102
RTVSPropertyOp35
 70
     1
102
RTVSPropertyOp36
 70
     1
102
RTVSPropertyOp37
 70
     1
102
RTVSPropertyOp38
 70
     1
102
RTVSPropertyOp39
 70
     1
102
RTVSPropertyOp40
 70
     1
102
RTVSPropertyOp41
 70
     1
102
RTVSPropertyOp42
 70
     1
102
RTVSPropertyOp43
 70
     1
102
RTVSPropertyOp44
 70
     1
102
RTVSPropertyOp45
 70
     1
102
RTVSPropertyOp46
 70
     1
102
RTVSPropertyOp47
 70
     1
102
RTVSPropertyOp48
 70
     1
102
RTVSPropertyOp49
 70
     1
102
RTVSPropertyOp50
 70
     1
102
RTVSPropertyOp51
 70
     0
102
RTVSPropertyOp52
 70
     0
102
RTVSPropertyOp53
 70
     1
102
RTVSPropertyOp54
 70
     1
102
RTVSPropertyOp55
 70
     1
102
RTVSPropertyOp56
 70
     1
102
RTVSPropertyOp57
 70
     1
102
RTVSPropertyOp58
 70
     1
102
RTVSPropertyOp59
 70
     1
102
RTVSPropertyOp60
 70
     1
102
RTVSPropertyOp61
 70
     1
102
RTVSPropertyOp62
 70
     1
  0
XRECORD
  5
E88
102
{ACAD_REACTORS
330
E87
102
}
330
E87
100
AcDbXrecord
280
     1
102
RTVSPost2010Prop28
280
     0
102
RTVSPost2010PropOp28
 70
     1
102
RTVSPost2010Prop29
280
     1
102
RTVSPost2010PropOp29
 70
     1
102
RTVSPost2010Prop30
280
     1
102
RTVSPost2010PropOp30
 70
     1
102
RTVSPost2010Prop31
280
     0
102
RTVSPost2010PropOp31
 70
     1
102
RTVSPost2010Prop32
280
     0
102
RTVSPost2010PropOp32
 70
     1
102
RTVSPost2010Prop33
280
     0
102
RTVSPost2010PropOp33
 70
     1
102
RTVSPost2010Prop34
280
     0
102
RTVSPost2010PropOp34
 70
     1
102
RTVSPost2010Prop35
280
     0
102
RTVSPost2010PropOp35
 70
     1
102
RTVSPost2010Prop36
280
     0
102
RTVSPost2010PropOp36
 70
     1
102
RTVSPost2010Prop37
 90
       50
102
RTVSPost2010PropOp37
 70
     1
102
RTVSPost2010Prop38
140
0.0
102
RTVSPost2010PropOp38
 70
     1
102
RTVSPost2010Prop39
140
1.0
102
RTVSPost2010PropOp39
 70
     1
102
RTVSPost2010Prop40
 90
        0
102
RTVSPost2010PropOp40
 70
     1
102
RTVSPost2010Prop41ColorIndex
 90
       18
102
RTVSPost2010Prop41ColorRGB
 90
        0
102
RTVSPost2010PropOp41
 70
     1
102
RTVSPost2010Prop42
 90
       50
102
RTVSPost2010PropOp42
 70
     1
102
RTVSPost2010Prop43
 90
        3
102
RTVSPost2010PropOp43
 70
     1
102
RTVSPost2010Prop44ColorIndex
 90
        5
102
RTVSPost2010Prop44ColorRGB
 90
      255
102
RTVSPost2010PropOp44
 70
     1
102
RTVSPost2010Prop45
280
     0
102
RTVSPost2010PropOp45
 70
     1
102
RTVSPost2010Prop46
 90
       50
102
RTVSPost2010PropOp46
 70
     1
102
RTVSPost2010Prop47
 90
       50
102
RTVSPost2010PropOp47
 70
     1
102
RTVSPost2010Prop48
 90
       50
102
RTVSPost2010PropOp48
 70
     1
102
RTVSPost2010Prop49
280
     0
102
RTVSPost2010PropOp49
 70
     1
102
RTVSPost2010Prop50
 90
       50
102
RTVSPost2010PropOp50
 70
     1
102
RTVSPost2010Prop51ColorIndex
 90
      256
102
RTVSPost2010Prop51ColorRGB
 90
-16777216
102
RTVSPost2010PropOp51
 70
     0
102
RTVSPost2010Prop52
140
1.0
102
RTVSPost2010PropOp52
 70
     0
102
RTVSPost2010Prop53
 90
        2
102
RTVSPost2010PropOp53
 70
     1
102
RTVSPost2010Prop54
  1
strokes_ogs.tif
102
RTVSPost2010PropOp54
 70
     1
102
RTVSPost2010Prop55
280
     0
102
RTVSPost2010PropOp55
 70
     1
102
RTVSPost2010Prop56
140
1.0
102
RTVSPost2010PropOp56
 70
     1
102
RTVSPost2010Prop57
140
1.0
102
RTVSPost2010PropOp57
 70
     1
102
RTVSPropertyOp0
 70
     1
102
RTVSPropertyOp1
 70
     1
102
RTVSPropertyOp2
 70
     1
102
RTVSPropertyOp3
 70
     1
102
RTVSPropertyOp4
 70
     1
102
RTVSPropertyOp5
 70
     1
102
RTVSPropertyOp6
 70
     1
102
RTVSPropertyOp7
 70
     1
102
RTVSPropertyOp8
 70
     1
102
RTVSPropertyOp9
 70
     1
102
RTVSPropertyOp10
 70
     1
102
RTVSPropertyOp11
 70
     1
102
RTVSPropertyOp12
 70
     1
102
RTVSPropertyOp13
 70
     1
102
RTVSPropertyOp14
 70
     1
102
RTVSPropertyOp15
 70
     1
102
RTVSPropertyOp16
 70
     1
102
RTVSPropertyOp17
 70
     1
102
RTVSPropertyOp18
 70
     1
102
RTVSPropertyOp19
 70
     1
102
RTVSPropertyOp20
 70
     1
102
RTVSPropertyOp21
 70
     1
102
RTVSPropertyOp22
 70
     1
102
RTVSPropertyOp23
 70
     1
102
RTVSPropertyOp24
 70
     1
102
RTVSPropertyOp25
 70
     1
102
RTVSPropertyOp26
 70
     1
102
RTVSPropertyOp27
 70
     1
102
RTVSPropertyOp28
 70
     1
102
RTVSPropertyOp29
 70
     1
102
RTVSPropertyOp30
 70
     1
102
RTVSPropertyOp31
 70
     1
102
RTVSPropertyOp32
 70
     1
102
RTVSPropertyOp33
 70
     1
102
RTVSPropertyOp34
 70
     1
102
RTVSPropertyOp35
 70
     1
102
RTVSPropertyOp36
 70
     1
102
RTVSPropertyOp37
 70
     1
102
RTVSPropertyOp38
 70
     1
102
RTVSPropertyOp39
 70
     1
102
RTVSPropertyOp40
 70
     1
102
RTVSPropertyOp41
 70
     1
102
RTVSPropertyOp42
 70
     1
102
RTVSPropertyOp43
 70
     1
102
RTVSPropertyOp44
 70
     1
102
RTVSPropertyOp45
 70
     1
102
RTVSPropertyOp46
 70
     1
102
RTVSPropertyOp47
 70
     1
102
RTVSPropertyOp48
 70
     1
102
RTVSPropertyOp49
 70
     1
102
RTVSPropertyOp50
 70
     1
102
RTVSPropertyOp51
 70
     0
102
RTVSPropertyOp52
 70
     0
102
RTVSPropertyOp53
 70
     1
102
RTVSPropertyOp54
 70
     1
102
RTVSPropertyOp55
 70
     1
102
RTVSPropertyOp56
 70
     1
102
RTVSPropertyOp57
 70
     1
102
RTVSPropertyOp58
 70
     1
102
RTVSPropertyOp59
 70
     1
102
RTVSPropertyOp60
 70
     1
102
RTVSPropertyOp61
 70
     1
102
RTVSPropertyOp62
 70
     1
  0
XRECORD
  5
E8C
102
{ACAD_REACTORS
330
E8B
102
}
330
E8B
100
AcDbXrecord
280
     1
102
RTVSPost2010Prop28
280
     0
102
RTVSPost2010PropOp28
 70
     1
102
RTVSPost2010Prop29
280
     1
102
RTVSPost2010PropOp29
 70
     1
102
RTVSPost2010Prop30
280
     1
102
RTVSPost2010PropOp30
 70
     1
102
RTVSPost2010Prop31
280
     0
102
RTVSPost2010PropOp31
 70
     1
102
RTVSPost2010Prop32
280
     0
102
RTVSPost2010PropOp32
 70
     1
102
RTVSPost2010Prop33
280
     0
102
RTVSPost2010PropOp33
 70
     1
102
RTVSPost2010Prop34
280
     0
102
RTVSPost2010PropOp34
 70
     1
102
RTVSPost2010Prop35
280
     0
102
RTVSPost2010PropOp35
 70
     1
102
RTVSPost2010Prop36
280
     0
102
RTVSPost2010PropOp36
 70
     1
102
RTVSPost2010Prop37
 90
       50
102
RTVSPost2010PropOp37
 70
     1
102
RTVSPost2010Prop38
140
0.0
102
RTVSPost2010PropOp38
 70
     1
102
RTVSPost2010Prop39
140
1.0
102
RTVSPost2010PropOp39
 70
     1
102
RTVSPost2010Prop40
 90
        0
102
RTVSPost2010PropOp40
 70
     1
102
RTVSPost2010Prop41ColorIndex
 90
       18
102
RTVSPost2010Prop41ColorRGB
 90
        0
102
RTVSPost2010PropOp41
 70
     1
102
RTVSPost2010Prop42
 90
       50
102
RTVSPost2010PropOp42
 70
     1
102
RTVSPost2010Prop43
 90
        3
102
RTVSPost2010PropOp43
 70
     1
102
RTVSPost2010Prop44ColorIndex
 90
        5
102
RTVSPost2010Prop44ColorRGB
 90
      255
102
RTVSPost2010PropOp44
 70
     1
102
RTVSPost2010Prop45
280
     0
102
RTVSPost2010PropOp45
 70
     1
102
RTVSPost2010Prop46
 90
       50
102
RTVSPost2010PropOp46
 70
     1
102
RTVSPost2010Prop47
 90
       50
102
RTVSPost2010PropOp47
 70
     1
102
RTVSPost2010Prop48
 90
       50
102
RTVSPost2010PropOp48
 70
     1
102
RTVSPost2010Prop49
280
     0
102
RTVSPost2010PropOp49
 70
     1
102
RTVSPost2010Prop50
 90
       50
102
RTVSPost2010PropOp50
 70
     1
102
RTVSPost2010Prop51ColorIndex
 90
      256
102
RTVSPost2010Prop51ColorRGB
 90
-16777216
102
RTVSPost2010PropOp51
 70
     0
102
RTVSPost2010Prop52
140
1.0
102
RTVSPost2010PropOp52
 70
     0
102
RTVSPost2010Prop53
 90
        2
102
RTVSPost2010PropOp53
 70
     1
102
RTVSPost2010Prop54
  1
strokes_ogs.tif
102
RTVSPost2010PropOp54
 70
     1
102
RTVSPost2010Prop55
280
     0
102
RTVSPost2010PropOp55
 70
     1
102
RTVSPost2010Prop56
140
1.0
102
RTVSPost2010PropOp56
 70
     1
102
RTVSPost2010Prop57
140
1.0
102
RTVSPost2010PropOp57
 70
     1
102
RTVSPropertyOp0
 70
     1
102
RTVSPropertyOp1
 70
     1
102
RTVSPropertyOp2
 70
     1
102
RTVSPropertyOp3
 70
     1
102
RTVSPropertyOp4
 70
     1
102
RTVSPropertyOp5
 70
     1
102
RTVSPropertyOp6
 70
     1
102
RTVSPropertyOp7
 70
     1
102
RTVSPropertyOp8
 70
     1
102
RTVSPropertyOp9
 70
     1
102
RTVSPropertyOp10
 70
     1
102
RTVSPropertyOp11
 70
     1
102
RTVSPropertyOp12
 70
     1
102
RTVSPropertyOp13
 70
     1
102
RTVSPropertyOp14
 70
     1
102
RTVSPropertyOp15
 70
     1
102
RTVSPropertyOp16
 70
     1
102
RTVSPropertyOp17
 70
     1
102
RTVSPropertyOp18
 70
     1
102
RTVSPropertyOp19
 70
     1
102
RTVSPropertyOp20
 70
     1
102
RTVSPropertyOp21
 70
     1
102
RTVSPropertyOp22
 70
     1
102
RTVSPropertyOp23
 70
     1
102
RTVSPropertyOp24
 70
     1
102
RTVSPropertyOp25
 70
     1
102
RTVSPropertyOp26
 70
     1
102
RTVSPropertyOp27
 70
     1
102
RTVSPropertyOp28
 70
     1
102
RTVSPropertyOp29
 70
     1
102
RTVSPropertyOp30
 70
     1
102
RTVSPropertyOp31
 70
     1
102
RTVSPropertyOp32
 70
     1
102
RTVSPropertyOp33
 70
     1
102
RTVSPropertyOp34
 70
     1
102
RTVSPropertyOp35
 70
     1
102
RTVSPropertyOp36
 70
     1
102
RTVSPropertyOp37
 70
     1
102
RTVSPropertyOp38
 70
     1
102
RTVSPropertyOp39
 70
     1
102
RTVSPropertyOp40
 70
     1
102
RTVSPropertyOp41
 70
     1
102
RTVSPropertyOp42
 70
     1
102
RTVSPropertyOp43
 70
     1
102
RTVSPropertyOp44
 70
     1
102
RTVSPropertyOp45
 70
     1
102
RTVSPropertyOp46
 70
     1
102
RTVSPropertyOp47
 70
     1
102
RTVSPropertyOp48
 70
     1
102
RTVSPropertyOp49
 70
     1
102
RTVSPropertyOp50
 70
     1
102
RTVSPropertyOp51
 70
     0
102
RTVSPropertyOp52
 70
     0
102
RTVSPropertyOp53
 70
     1
102
RTVSPropertyOp54
 70
     1
102
RTVSPropertyOp55
 70
     1
102
RTVSPropertyOp56
 70
     1
102
RTVSPropertyOp57
 70
     1
102
RTVSPropertyOp58
 70
     1
102
RTVSPropertyOp59
 70
     1
102
RTVSPropertyOp60
 70
     1
102
RTVSPropertyOp61
 70
     1
102
RTVSPropertyOp62
 70
     1
  0
XRECORD
  5
EA6
102
{ACAD_REACTORS
330
EA5
102
}
330
EA5
100
AcDbXrecord
280
     1
102
RTVSPost2010Prop28
280
     0
102
RTVSPost2010PropOp28
 70
     1
102
RTVSPost2010Prop29
280
     1
102
RTVSPost2010PropOp29
 70
     1
102
RTVSPost2010Prop30
280
     1
102
RTVSPost2010PropOp30
 70
     1
102
RTVSPost2010Prop31
280
     0
102
RTVSPost2010PropOp31
 70
     1
102
RTVSPost2010Prop32
280
     0
102
RTVSPost2010PropOp32
 70
     1
102
RTVSPost2010Prop33
280
     0
102
RTVSPost2010PropOp33
 70
     1
102
RTVSPost2010Prop34
280
     0
102
RTVSPost2010PropOp34
 70
     1
102
RTVSPost2010Prop35
280
     0
102
RTVSPost2010PropOp35
 70
     1
102
RTVSPost2010Prop36
280
     0
102
RTVSPost2010PropOp36
 70
     1
102
RTVSPost2010Prop37
 90
       50
102
RTVSPost2010PropOp37
 70
     0
102
RTVSPost2010Prop38
140
0.0
102
RTVSPost2010PropOp38
 70
     0
102
RTVSPost2010Prop39
140
1.0
102
RTVSPost2010PropOp39
 70
     0
102
RTVSPost2010Prop40
 90
        0
102
RTVSPost2010PropOp40
 70
     0
102
RTVSPost2010Prop41ColorIndex
 90
       18
102
RTVSPost2010Prop41ColorRGB
 90
        0
102
RTVSPost2010PropOp41
 70
     0
102
RTVSPost2010Prop42
 90
       50
102
RTVSPost2010PropOp42
 70
     0
102
RTVSPost2010Prop43
 90
        3
102
RTVSPost2010PropOp43
 70
     0
102
RTVSPost2010Prop44ColorIndex
 90
        5
102
RTVSPost2010Prop44ColorRGB
 90
      255
102
RTVSPost2010PropOp44
 70
     0
102
RTVSPost2010Prop45
280
     0
102
RTVSPost2010PropOp45
 70
     1
102
RTVSPost2010Prop46
 90
       50
102
RTVSPost2010PropOp46
 70
     0
102
RTVSPost2010Prop47
 90
       50
102
RTVSPost2010PropOp47
 70
     0
102
RTVSPost2010Prop48
 90
       50
102
RTVSPost2010PropOp48
 70
     0
102
RTVSPost2010Prop49
280
     0
102
RTVSPost2010PropOp49
 70
     1
102
RTVSPost2010Prop50
 90
       50
102
RTVSPost2010PropOp50
 70
     0
102
RTVSPost2010Prop51ColorIndex
 90
      256
102
RTVSPost2010Prop51ColorRGB
 90
-16777216
102
RTVSPost2010PropOp51
 70
     0
102
RTVSPost2010Prop52
140
1.0
102
RTVSPost2010PropOp52
 70
     0
102
RTVSPost2010Prop53
 90
        2
102
RTVSPost2010PropOp53
 70
     0
102
RTVSPost2010Prop54
  1
strokes_ogs.tif
102
RTVSPost2010PropOp54
 70
     0
102
RTVSPost2010Prop55
280
     0
102
RTVSPost2010PropOp55
 70
     1
102
RTVSPost2010Prop56
140
1.0
102
RTVSPost2010PropOp56
 70
     0
102
RTVSPost2010Prop57
140
1.0
102
RTVSPost2010PropOp57
 70
     0
102
RTVSPropertyOp0
 70
     0
102
RTVSPropertyOp1
 70
     0
102
RTVSPropertyOp2
 70
     0
102
RTVSPropertyOp3
 70
     0
102
RTVSPropertyOp4
 70
     0
102
RTVSPropertyOp5
 70
     0
102
RTVSPropertyOp6
 70
     0
102
RTVSPropertyOp7
 70
     0
102
RTVSPropertyOp8
 70
     0
102
RTVSPropertyOp9
 70
     0
102
RTVSPropertyOp10
 70
     0
102
RTVSPropertyOp11
 70
     0
102
RTVSPropertyOp12
 70
     0
102
RTVSPropertyOp13
 70
     0
102
RTVSPropertyOp14
 70
     2
102
RTVSPropertyOp15
 70
     0
102
RTVSPropertyOp16
 70
     0
102
RTVSPropertyOp17
 70
     0
102
RTVSPropertyOp18
 70
     0
102
RTVSPropertyOp19
 70
     0
102
RTVSPropertyOp20
 70
     0
102
RTVSPropertyOp21
 70
     0
102
RTVSPropertyOp22
 70
     0
102
RTVSPropertyOp23
 70
     0
102
RTVSPropertyOp24
 70
     0
102
RTVSPropertyOp25
 70
     0
102
RTVSPropertyOp26
 70
     0
102
RTVSPropertyOp27
 70
     0
102
RTVSPropertyOp28
 70
     1
102
RTVSPropertyOp29
 70
     1
102
RTVSPropertyOp30
 70
     1
102
RTVSPropertyOp31
 70
     1
102
RTVSPropertyOp32
 70
     1
102
RTVSPropertyOp33
 70
     1
102
RTVSPropertyOp34
 70
     1
102
RTVSPropertyOp35
 70
     1
102
RTVSPropertyOp36
 70
     1
102
RTVSPropertyOp37
 70
     0
102
RTVSPropertyOp38
 70
     0
102
RTVSPropertyOp39
 70
     0
102
RTVSPropertyOp40
 70
     0
102
RTVSPropertyOp41
 70
     0
102
RTVSPropertyOp42
 70
     0
102
RTVSPropertyOp43
 70
     0
102
RTVSPropertyOp44
 70
     0
102
RTVSPropertyOp45
 70
     1
102
RTVSPropertyOp46
 70
     0
102
RTVSPropertyOp47
 70
     0
102
RTVSPropertyOp48
 70
     0
102
RTVSPropertyOp49
 70
     1
102
RTVSPropertyOp50
 70
     0
102
RTVSPropertyOp51
 70
     0
102
RTVSPropertyOp52
 70
     0
102
RTVSPropertyOp53
 70
     0
102
RTVSPropertyOp54
 70
     0
102
RTVSPropertyOp55
 70
     1
102
RTVSPropertyOp56
 70
     0
102
RTVSPropertyOp57
 70
     0
102
RTVSPropertyOp58
 70
     1
102
RTVSPropertyOp59
 70
     1
102
RTVSPropertyOp60
 70
     1
102
RTVSPropertyOp61
 70
     1
102
RTVSPropertyOp62
 70
     1
  0
XRECORD
  5
E94
102
{ACAD_REACTORS
330
E93
102
}
330
E93
100
AcDbXrecord
280
     1
102
RTVSPost2010Prop28
280
     0
102
RTVSPost2010PropOp28
 70
     1
102
RTVSPost2010Prop29
280
     1
102
RTVSPost2010PropOp29
 70
     1
102
RTVSPost2010Prop30
280
     1
102
RTVSPost2010PropOp30
 70
     1
102
RTVSPost2010Prop31
280
     0
102
RTVSPost2010PropOp31
 70
     1
102
RTVSPost2010Prop32
280
     0
102
RTVSPost2010PropOp32
 70
     1
102
RTVSPost2010Prop33
280
     0
102
RTVSPost2010PropOp33
 70
     1
102
RTVSPost2010Prop34
280
     0
102
RTVSPost2010PropOp34
 70
     1
102
RTVSPost2010Prop35
280
     0
102
RTVSPost2010PropOp35
 70
     1
102
RTVSPost2010Prop36
280
     0
102
RTVSPost2010PropOp36
 70
     1
102
RTVSPost2010Prop37
 90
       50
102
RTVSPost2010PropOp37
 70
     1
102
RTVSPost2010Prop38
140
0.0
102
RTVSPost2010PropOp38
 70
     1
102
RTVSPost2010Prop39
140
1.0
102
RTVSPost2010PropOp39
 70
     1
102
RTVSPost2010Prop40
 90
        0
102
RTVSPost2010PropOp40
 70
     1
102
RTVSPost2010Prop41ColorIndex
 90
       18
102
RTVSPost2010Prop41ColorRGB
 90
        0
102
RTVSPost2010PropOp41
 70
     1
102
RTVSPost2010Prop42
 90
       50
102
RTVSPost2010PropOp42
 70
     1
102
RTVSPost2010Prop43
 90
        3
102
RTVSPost2010PropOp43
 70
     1
102
RTVSPost2010Prop44ColorIndex
 90
        5
102
RTVSPost2010Prop44ColorRGB
 90
      255
102
RTVSPost2010PropOp44
 70
     1
102
RTVSPost2010Prop45
280
     0
102
RTVSPost2010PropOp45
 70
     1
102
RTVSPost2010Prop46
 90
       50
102
RTVSPost2010PropOp46
 70
     1
102
RTVSPost2010Prop47
 90
       50
102
RTVSPost2010PropOp47
 70
     1
102
RTVSPost2010Prop48
 90
       50
102
RTVSPost2010PropOp48
 70
     1
102
RTVSPost2010Prop49
280
     0
102
RTVSPost2010PropOp49
 70
     1
102
RTVSPost2010Prop50
 90
       50
102
RTVSPost2010PropOp50
 70
     1
102
RTVSPost2010Prop51ColorIndex
 90
      256
102
RTVSPost2010Prop51ColorRGB
 90
-16777216
102
RTVSPost2010PropOp51
 70
     0
102
RTVSPost2010Prop52
140
1.0
102
RTVSPost2010PropOp52
 70
     0
102
RTVSPost2010Prop53
 90
        2
102
RTVSPost2010PropOp53
 70
     1
102
RTVSPost2010Prop54
  1
strokes_ogs.tif
102
RTVSPost2010PropOp54
 70
     1
102
RTVSPost2010Prop55
280
     0
102
RTVSPost2010PropOp55
 70
     1
102
RTVSPost2010Prop56
140
1.0
102
RTVSPost2010PropOp56
 70
     1
102
RTVSPost2010Prop57
140
1.0
102
RTVSPost2010PropOp57
 70
     1
102
RTVSPropertyOp0
 70
     1
102
RTVSPropertyOp1
 70
     1
102
RTVSPropertyOp2
 70
     1
102
RTVSPropertyOp3
 70
     1
102
RTVSPropertyOp4
 70
     1
102
RTVSPropertyOp5
 70
     1
102
RTVSPropertyOp6
 70
     1
102
RTVSPropertyOp7
 70
     1
102
RTVSPropertyOp8
 70
     1
102
RTVSPropertyOp9
 70
     1
102
RTVSPropertyOp10
 70
     1
102
RTVSPropertyOp11
 70
     1
102
RTVSPropertyOp12
 70
     1
102
RTVSPropertyOp13
 70
     1
102
RTVSPropertyOp14
 70
     1
102
RTVSPropertyOp15
 70
     1
102
RTVSPropertyOp16
 70
     1
102
RTVSPropertyOp17
 70
     1
102
RTVSPropertyOp18
 70
     1
102
RTVSPropertyOp19
 70
     1
102
RTVSPropertyOp20
 70
     1
102
RTVSPropertyOp21
 70
     1
102
RTVSPropertyOp22
 70
     1
102
RTVSPropertyOp23
 70
     1
102
RTVSPropertyOp24
 70
     1
102
RTVSPropertyOp25
 70
     1
102
RTVSPropertyOp26
 70
     1
102
RTVSPropertyOp27
 70
     1
102
RTVSPropertyOp28
 70
     1
102
RTVSPropertyOp29
 70
     1
102
RTVSPropertyOp30
 70
     1
102
RTVSPropertyOp31
 70
     1
102
RTVSPropertyOp32
 70
     1
102
RTVSPropertyOp33
 70
     1
102
RTVSPropertyOp34
 70
     1
102
RTVSPropertyOp35
 70
     1
102
RTVSPropertyOp36
 70
     1
102
RTVSPropertyOp37
 70
     1
102
RTVSPropertyOp38
 70
     1
102
RTVSPropertyOp39
 70
     1
102
RTVSPropertyOp40
 70
     1
102
RTVSPropertyOp41
 70
     1
102
RTVSPropertyOp42
 70
     1
102
RTVSPropertyOp43
 70
     1
102
RTVSPropertyOp44
 70
     1
102
RTVSPropertyOp45
 70
     1
102
RTVSPropertyOp46
 70
     1
102
RTVSPropertyOp47
 70
     1
102
RTVSPropertyOp48
 70
     1
102
RTVSPropertyOp49
 70
     1
102
RTVSPropertyOp50
 70
     1
102
RTVSPropertyOp51
 70
     0
102
RTVSPropertyOp52
 70
     0
102
RTVSPropertyOp53
 70
     1
102
RTVSPropertyOp54
 70
     1
102
RTVSPropertyOp55
 70
     1
102
RTVSPropertyOp56
 70
     1
102
RTVSPropertyOp57
 70
     1
102
RTVSPropertyOp58
 70
     1
102
RTVSPropertyOp59
 70
     1
102
RTVSPropertyOp60
 70
     1
102
RTVSPropertyOp61
 70
     1
102
RTVSPropertyOp62
 70
     1
  0
XRECORD
  5
E78
102
{ACAD_REACTORS
330
E77
102
}
330
E77
100
AcDbXrecord
280
     1
102
RTVSPost2010Prop28
280
     0
102
RTVSPost2010PropOp28
 70
     1
102
RTVSPost2010Prop29
280
     1
102
RTVSPost2010PropOp29
 70
     1
102
RTVSPost2010Prop30
280
     1
102
RTVSPost2010PropOp30
 70
     1
102
RTVSPost2010Prop31
280
     0
102
RTVSPost2010PropOp31
 70
     1
102
RTVSPost2010Prop32
280
     0
102
RTVSPost2010PropOp32
 70
     1
102
RTVSPost2010Prop33
280
     0
102
RTVSPost2010PropOp33
 70
     1
102
RTVSPost2010Prop34
280
     0
102
RTVSPost2010PropOp34
 70
     1
102
RTVSPost2010Prop35
280
     0
102
RTVSPost2010PropOp35
 70
     1
102
RTVSPost2010Prop36
280
     0
102
RTVSPost2010PropOp36
 70
     1
102
RTVSPost2010Prop37
 90
       50
102
RTVSPost2010PropOp37
 70
     1
102
RTVSPost2010Prop38
140
0.0
102
RTVSPost2010PropOp38
 70
     1
102
RTVSPost2010Prop39
140
1.0
102
RTVSPost2010PropOp39
 70
     1
102
RTVSPost2010Prop40
 90
        0
102
RTVSPost2010PropOp40
 70
     1
102
RTVSPost2010Prop41ColorIndex
 90
       18
102
RTVSPost2010Prop41ColorRGB
 90
        0
102
RTVSPost2010PropOp41
 70
     1
102
RTVSPost2010Prop42
 90
       50
102
RTVSPost2010PropOp42
 70
     1
102
RTVSPost2010Prop43
 90
        3
102
RTVSPost2010PropOp43
 70
     1
102
RTVSPost2010Prop44ColorIndex
 90
        5
102
RTVSPost2010Prop44ColorRGB
 90
      255
102
RTVSPost2010PropOp44
 70
     1
102
RTVSPost2010Prop45
280
     0
102
RTVSPost2010PropOp45
 70
     1
102
RTVSPost2010Prop46
 90
       50
102
RTVSPost2010PropOp46
 70
     1
102
RTVSPost2010Prop47
 90
       50
102
RTVSPost2010PropOp47
 70
     1
102
RTVSPost2010Prop48
 90
       50
102
RTVSPost2010PropOp48
 70
     1
102
RTVSPost2010Prop49
280
     0
102
RTVSPost2010PropOp49
 70
     1
102
RTVSPost2010Prop50
 90
       50
102
RTVSPost2010PropOp50
 70
     1
102
RTVSPost2010Prop51ColorIndex
 90
      256
102
RTVSPost2010Prop51ColorRGB
 90
-16777216
102
RTVSPost2010PropOp51
 70
     0
102
RTVSPost2010Prop52
140
1.0
102
RTVSPost2010PropOp52
 70
     0
102
RTVSPost2010Prop53
 90
        2
102
RTVSPost2010PropOp53
 70
     1
102
RTVSPost2010Prop54
  1
strokes_ogs.tif
102
RTVSPost2010PropOp54
 70
     1
102
RTVSPost2010Prop55
280
     0
102
RTVSPost2010PropOp55
 70
     1
102
RTVSPost2010Prop56
140
1.0
102
RTVSPost2010PropOp56
 70
     1
102
RTVSPost2010Prop57
140
1.0
102
RTVSPost2010PropOp57
 70
     1
102
RTVSPropertyOp0
 70
     1
102
RTVSPropertyOp1
 70
     1
102
RTVSPropertyOp2
 70
     1
102
RTVSPropertyOp3
 70
     1
102
RTVSPropertyOp4
 70
     1
102
RTVSPropertyOp5
 70
     1
102
RTVSPropertyOp6
 70
     1
102
RTVSPropertyOp7
 70
     1
102
RTVSPropertyOp8
 70
     1
102
RTVSPropertyOp9
 70
     1
102
RTVSPropertyOp10
 70
     1
102
RTVSPropertyOp11
 70
     1
102
RTVSPropertyOp12
 70
     1
102
RTVSPropertyOp13
 70
     1
102
RTVSPropertyOp14
 70
     1
102
RTVSPropertyOp15
 70
     1
102
RTVSPropertyOp16
 70
     1
102
RTVSPropertyOp17
 70
     1
102
RTVSPropertyOp18
 70
     1
102
RTVSPropertyOp19
 70
     1
102
RTVSPropertyOp20
 70
     1
102
RTVSPropertyOp21
 70
     1
102
RTVSPropertyOp22
 70
     1
102
RTVSPropertyOp23
 70
     1
102
RTVSPropertyOp24
 70
     1
102
RTVSPropertyOp25
 70
     1
102
RTVSPropertyOp26
 70
     1
102
RTVSPropertyOp27
 70
     1
102
RTVSPropertyOp28
 70
     1
102
RTVSPropertyOp29
 70
     1
102
RTVSPropertyOp30
 70
     1
102
RTVSPropertyOp31
 70
     1
102
RTVSPropertyOp32
 70
     1
102
RTVSPropertyOp33
 70
     1
102
RTVSPropertyOp34
 70
     1
102
RTVSPropertyOp35
 70
     1
102
RTVSPropertyOp36
 70
     1
102
RTVSPropertyOp37
 70
     1
102
RTVSPropertyOp38
 70
     1
102
RTVSPropertyOp39
 70
     1
102
RTVSPropertyOp40
 70
     1
102
RTVSPropertyOp41
 70
     1
102
RTVSPropertyOp42
 70
     1
102
RTVSPropertyOp43
 70
     1
102
RTVSPropertyOp44
 70
     1
102
RTVSPropertyOp45
 70
     1
102
RTVSPropertyOp46
 70
     1
102
RTVSPropertyOp47
 70
     1
102
RTVSPropertyOp48
 70
     1
102
RTVSPropertyOp49
 70
     1
102
RTVSPropertyOp50
 70
     1
102
RTVSPropertyOp51
 70
     0
102
RTVSPropertyOp52
 70
     0
102
RTVSPropertyOp53
 70
     1
102
RTVSPropertyOp54
 70
     1
102
RTVSPropertyOp55
 70
     1
102
RTVSPropertyOp56
 70
     1
102
RTVSPropertyOp57
 70
     1
102
RTVSPropertyOp58
 70
     1
102
RTVSPropertyOp59
 70
     1
102
RTVSPropertyOp60
 70
     1
102
RTVSPropertyOp61
 70
     1
102
RTVSPropertyOp62
 70
     1
  0
XRECORD
  5
E7A
102
{ACAD_REACTORS
330
E79
102
}
330
E79
100
AcDbXrecord
280
     1
102
RTVSPost2010Prop28
280
     0
102
RTVSPost2010PropOp28
 70
     1
102
RTVSPost2010Prop29
280
     1
102
RTVSPost2010PropOp29
 70
     1
102
RTVSPost2010Prop30
280
     1
102
RTVSPost2010PropOp30
 70
     1
102
RTVSPost2010Prop31
280
     0
102
RTVSPost2010PropOp31
 70
     1
102
RTVSPost2010Prop32
280
     0
102
RTVSPost2010PropOp32
 70
     1
102
RTVSPost2010Prop33
280
     0
102
RTVSPost2010PropOp33
 70
     1
102
RTVSPost2010Prop34
280
     0
102
RTVSPost2010PropOp34
 70
     1
102
RTVSPost2010Prop35
280
     0
102
RTVSPost2010PropOp35
 70
     1
102
RTVSPost2010Prop36
280
     0
102
RTVSPost2010PropOp36
 70
     1
102
RTVSPost2010Prop37
 90
       50
102
RTVSPost2010PropOp37
 70
     1
102
RTVSPost2010Prop38
140
0.0
102
RTVSPost2010PropOp38
 70
     1
102
RTVSPost2010Prop39
140
1.0
102
RTVSPost2010PropOp39
 70
     1
102
RTVSPost2010Prop40
 90
        0
102
RTVSPost2010PropOp40
 70
     1
102
RTVSPost2010Prop41ColorIndex
 90
       18
102
RTVSPost2010Prop41ColorRGB
 90
        0
102
RTVSPost2010PropOp41
 70
     1
102
RTVSPost2010Prop42
 90
       50
102
RTVSPost2010PropOp42
 70
     1
102
RTVSPost2010Prop43
 90
        3
102
RTVSPost2010PropOp43
 70
     1
102
RTVSPost2010Prop44ColorIndex
 90
        5
102
RTVSPost2010Prop44ColorRGB
 90
      255
102
RTVSPost2010PropOp44
 70
     1
102
RTVSPost2010Prop45
280
     0
102
RTVSPost2010PropOp45
 70
     1
102
RTVSPost2010Prop46
 90
       50
102
RTVSPost2010PropOp46
 70
     1
102
RTVSPost2010Prop47
 90
       50
102
RTVSPost2010PropOp47
 70
     1
102
RTVSPost2010Prop48
 90
       50
102
RTVSPost2010PropOp48
 70
     1
102
RTVSPost2010Prop49
280
     0
102
RTVSPost2010PropOp49
 70
     1
102
RTVSPost2010Prop50
 90
       50
102
RTVSPost2010PropOp50
 70
     1
102
RTVSPost2010Prop51ColorIndex
 90
      256
102
RTVSPost2010Prop51ColorRGB
 90
-16777216
102
RTVSPost2010PropOp51
 70
     0
102
RTVSPost2010Prop52
140
1.0
102
RTVSPost2010PropOp52
 70
     0
102
RTVSPost2010Prop53
 90
        2
102
RTVSPost2010PropOp53
 70
     1
102
RTVSPost2010Prop54
  1
strokes_ogs.tif
102
RTVSPost2010PropOp54
 70
     1
102
RTVSPost2010Prop55
280
     0
102
RTVSPost2010PropOp55
 70
     1
102
RTVSPost2010Prop56
140
1.0
102
RTVSPost2010PropOp56
 70
     1
102
RTVSPost2010Prop57
140
1.0
102
RTVSPost2010PropOp57
 70
     1
102
RTVSPropertyOp0
 70
     1
102
RTVSPropertyOp1
 70
     1
102
RTVSPropertyOp2
 70
     1
102
RTVSPropertyOp3
 70
     1
102
RTVSPropertyOp4
 70
     1
102
RTVSPropertyOp5
 70
     1
102
RTVSPropertyOp6
 70
     1
102
RTVSPropertyOp7
 70
     1
102
RTVSPropertyOp8
 70
     1
102
RTVSPropertyOp9
 70
     1
102
RTVSPropertyOp10
 70
     1
102
RTVSPropertyOp11
 70
     1
102
RTVSPropertyOp12
 70
     1
102
RTVSPropertyOp13
 70
     1
102
RTVSPropertyOp14
 70
     1
102
RTVSPropertyOp15
 70
     1
102
RTVSPropertyOp16
 70
     1
102
RTVSPropertyOp17
 70
     1
102
RTVSPropertyOp18
 70
     1
102
RTVSPropertyOp19
 70
     1
102
RTVSPropertyOp20
 70
     1
102
RTVSPropertyOp21
 70
     1
102
RTVSPropertyOp22
 70
     1
102
RTVSPropertyOp23
 70
     1
102
RTVSPropertyOp24
 70
     1
102
RTVSPropertyOp25
 70
     1
102
RTVSPropertyOp26
 70
     1
102
RTVSPropertyOp27
 70
     1
102
RTVSPropertyOp28
 70
     1
102
RTVSPropertyOp29
 70
     1
102
RTVSPropertyOp30
 70
     1
102
RTVSPropertyOp31
 70
     1
102
RTVSPropertyOp32
 70
     1
102
RTVSPropertyOp33
 70
     1
102
RTVSPropertyOp34
 70
     1
102
RTVSPropertyOp35
 70
     1
102
RTVSPropertyOp36
 70
     1
102
RTVSPropertyOp37
 70
     1
102
RTVSPropertyOp38
 70
     1
102
RTVSPropertyOp39
 70
     1
102
RTVSPropertyOp40
 70
     1
102
RTVSPropertyOp41
 70
     1
102
RTVSPropertyOp42
 70
     1
102
RTVSPropertyOp43
 70
     1
102
RTVSPropertyOp44
 70
     1
102
RTVSPropertyOp45
 70
     1
102
RTVSPropertyOp46
 70
     1
102
RTVSPropertyOp47
 70
     1
102
RTVSPropertyOp48
 70
     1
102
RTVSPropertyOp49
 70
     1
102
RTVSPropertyOp50
 70
     1
102
RTVSPropertyOp51
 70
     0
102
RTVSPropertyOp52
 70
     0
102
RTVSPropertyOp53
 70
     1
102
RTVSPropertyOp54
 70
     1
102
RTVSPropertyOp55
 70
     1
102
RTVSPropertyOp56
 70
     1
102
RTVSPropertyOp57
 70
     1
102
RTVSPropertyOp58
 70
     1
102
RTVSPropertyOp59
 70
     1
102
RTVSPropertyOp60
 70
     1
102
RTVSPropertyOp61
 70
     1
102
RTVSPropertyOp62
 70
     1
  0
XRECORD
  5
E7C
102
{ACAD_REACTORS
330
E7B
102
}
330
E7B
100
AcDbXrecord
280
     1
102
RTVSPost2010Prop28
280
     0
102
RTVSPost2010PropOp28
 70
     1
102
RTVSPost2010Prop29
280
     1
102
RTVSPost2010PropOp29
 70
     1
102
RTVSPost2010Prop30
280
     1
102
RTVSPost2010PropOp30
 70
     1
102
RTVSPost2010Prop31
280
     0
102
RTVSPost2010PropOp31
 70
     1
102
RTVSPost2010Prop32
280
     0
102
RTVSPost2010PropOp32
 70
     1
102
RTVSPost2010Prop33
280
     0
102
RTVSPost2010PropOp33
 70
     1
102
RTVSPost2010Prop34
280
     0
102
RTVSPost2010PropOp34
 70
     1
102
RTVSPost2010Prop35
280
     0
102
RTVSPost2010PropOp35
 70
     1
102
RTVSPost2010Prop36
280
     0
102
RTVSPost2010PropOp36
 70
     1
102
RTVSPost2010Prop37
 90
       50
102
RTVSPost2010PropOp37
 70
     1
102
RTVSPost2010Prop38
140
0.0
102
RTVSPost2010PropOp38
 70
     1
102
RTVSPost2010Prop39
140
1.0
102
RTVSPost2010PropOp39
 70
     1
102
RTVSPost2010Prop40
 90
        0
102
RTVSPost2010PropOp40
 70
     1
102
RTVSPost2010Prop41ColorIndex
 90
       18
102
RTVSPost2010Prop41ColorRGB
 90
        0
102
RTVSPost2010PropOp41
 70
     1
102
RTVSPost2010Prop42
 90
       50
102
RTVSPost2010PropOp42
 70
     1
102
RTVSPost2010Prop43
 90
        3
102
RTVSPost2010PropOp43
 70
     1
102
RTVSPost2010Prop44ColorIndex
 90
        5
102
RTVSPost2010Prop44ColorRGB
 90
      255
102
RTVSPost2010PropOp44
 70
     1
102
RTVSPost2010Prop45
280
     0
102
RTVSPost2010PropOp45
 70
     1
102
RTVSPost2010Prop46
 90
       50
102
RTVSPost2010PropOp46
 70
     1
102
RTVSPost2010Prop47
 90
       50
102
RTVSPost2010PropOp47
 70
     1
102
RTVSPost2010Prop48
 90
       50
102
RTVSPost2010PropOp48
 70
     1
102
RTVSPost2010Prop49
280
     0
102
RTVSPost2010PropOp49
 70
     1
102
RTVSPost2010Prop50
 90
       50
102
RTVSPost2010PropOp50
 70
     1
102
RTVSPost2010Prop51ColorIndex
 90
      256
102
RTVSPost2010Prop51ColorRGB
 90
-16777216
102
RTVSPost2010PropOp51
 70
     0
102
RTVSPost2010Prop52
140
1.0
102
RTVSPost2010PropOp52
 70
     0
102
RTVSPost2010Prop53
 90
        2
102
RTVSPost2010PropOp53
 70
     1
102
RTVSPost2010Prop54
  1
strokes_ogs.tif
102
RTVSPost2010PropOp54
 70
     1
102
RTVSPost2010Prop55
280
     0
102
RTVSPost2010PropOp55
 70
     1
102
RTVSPost2010Prop56
140
1.0
102
RTVSPost2010PropOp56
 70
     1
102
RTVSPost2010Prop57
140
1.0
102
RTVSPost2010PropOp57
 70
     1
102
RTVSPropertyOp0
 70
     1
102
RTVSPropertyOp1
 70
     1
102
RTVSPropertyOp2
 70
     1
102
RTVSPropertyOp3
 70
     1
102
RTVSPropertyOp4
 70
     1
102
RTVSPropertyOp5
 70
     1
102
RTVSPropertyOp6
 70
     1
102
RTVSPropertyOp7
 70
     1
102
RTVSPropertyOp8
 70
     1
102
RTVSPropertyOp9
 70
     1
102
RTVSPropertyOp10
 70
     1
102
RTVSPropertyOp11
 70
     1
102
RTVSPropertyOp12
 70
     1
102
RTVSPropertyOp13
 70
     1
102
RTVSPropertyOp14
 70
     1
102
RTVSPropertyOp15
 70
     1
102
RTVSPropertyOp16
 70
     1
102
RTVSPropertyOp17
 70
     1
102
RTVSPropertyOp18
 70
     1
102
RTVSPropertyOp19
 70
     1
102
RTVSPropertyOp20
 70
     1
102
RTVSPropertyOp21
 70
     1
102
RTVSPropertyOp22
 70
     1
102
RTVSPropertyOp23
 70
     1
102
RTVSPropertyOp24
 70
     1
102
RTVSPropertyOp25
 70
     1
102
RTVSPropertyOp26
 70
     1
102
RTVSPropertyOp27
 70
     1
102
RTVSPropertyOp28
 70
     1
102
RTVSPropertyOp29
 70
     1
102
RTVSPropertyOp30
 70
     1
102
RTVSPropertyOp31
 70
     1
102
RTVSPropertyOp32
 70
     1
102
RTVSPropertyOp33
 70
     1
102
RTVSPropertyOp34
 70
     1
102
RTVSPropertyOp35
 70
     1
102
RTVSPropertyOp36
 70
     1
102
RTVSPropertyOp37
 70
     1
102
RTVSPropertyOp38
 70
     1
102
RTVSPropertyOp39
 70
     1
102
RTVSPropertyOp40
 70
     1
102
RTVSPropertyOp41
 70
     1
102
RTVSPropertyOp42
 70
     1
102
RTVSPropertyOp43
 70
     1
102
RTVSPropertyOp44
 70
     1
102
RTVSPropertyOp45
 70
     1
102
RTVSPropertyOp46
 70
     1
102
RTVSPropertyOp47
 70
     1
102
RTVSPropertyOp48
 70
     1
102
RTVSPropertyOp49
 70
     1
102
RTVSPropertyOp50
 70
     1
102
RTVSPropertyOp51
 70
     0
102
RTVSPropertyOp52
 70
     0
102
RTVSPropertyOp53
 70
     1
102
RTVSPropertyOp54
 70
     1
102
RTVSPropertyOp55
 70
     1
102
RTVSPropertyOp56
 70
     1
102
RTVSPropertyOp57
 70
     1
102
RTVSPropertyOp58
 70
     1
102
RTVSPropertyOp59
 70
     1
102
RTVSPropertyOp60
 70
     1
102
RTVSPropertyOp61
 70
     1
102
RTVSPropertyOp62
 70
     1
  0
XRECORD
  5
E7E
102
{ACAD_REACTORS
330
E7D
102
}
330
E7D
100
AcDbXrecord
280
     1
102
RTVSPost2010Prop28
280
     0
102
RTVSPost2010PropOp28
 70
     1
102
RTVSPost2010Prop29
280
     1
102
RTVSPost2010PropOp29
 70
     1
102
RTVSPost2010Prop30
280
     1
102
RTVSPost2010PropOp30
 70
     1
102
RTVSPost2010Prop31
280
     0
102
RTVSPost2010PropOp31
 70
     1
102
RTVSPost2010Prop32
280
     0
102
RTVSPost2010PropOp32
 70
     1
102
RTVSPost2010Prop33
280
     0
102
RTVSPost2010PropOp33
 70
     1
102
RTVSPost2010Prop34
280
     0
102
RTVSPost2010PropOp34
 70
     1
102
RTVSPost2010Prop35
280
     0
102
RTVSPost2010PropOp35
 70
     1
102
RTVSPost2010Prop36
280
     0
102
RTVSPost2010PropOp36
 70
     1
102
RTVSPost2010Prop37
 90
       50
102
RTVSPost2010PropOp37
 70
     1
102
RTVSPost2010Prop38
140
0.0
102
RTVSPost2010PropOp38
 70
     1
102
RTVSPost2010Prop39
140
1.0
102
RTVSPost2010PropOp39
 70
     1
102
RTVSPost2010Prop40
 90
        0
102
RTVSPost2010PropOp40
 70
     1
102
RTVSPost2010Prop41ColorIndex
 90
       18
102
RTVSPost2010Prop41ColorRGB
 90
        0
102
RTVSPost2010PropOp41
 70
     1
102
RTVSPost2010Prop42
 90
       50
102
RTVSPost2010PropOp42
 70
     1
102
RTVSPost2010Prop43
 90
        3
102
RTVSPost2010PropOp43
 70
     1
102
RTVSPost2010Prop44ColorIndex
 90
        5
102
RTVSPost2010Prop44ColorRGB
 90
      255
102
RTVSPost2010PropOp44
 70
     1
102
RTVSPost2010Prop45
280
     0
102
RTVSPost2010PropOp45
 70
     1
102
RTVSPost2010Prop46
 90
       50
102
RTVSPost2010PropOp46
 70
     1
102
RTVSPost2010Prop47
 90
       50
102
RTVSPost2010PropOp47
 70
     1
102
RTVSPost2010Prop48
 90
       50
102
RTVSPost2010PropOp48
 70
     1
102
RTVSPost2010Prop49
280
     0
102
RTVSPost2010PropOp49
 70
     1
102
RTVSPost2010Prop50
 90
       50
102
RTVSPost2010PropOp50
 70
     1
102
RTVSPost2010Prop51ColorIndex
 90
      256
102
RTVSPost2010Prop51ColorRGB
 90
-16777216
102
RTVSPost2010PropOp51
 70
     0
102
RTVSPost2010Prop52
140
1.0
102
RTVSPost2010PropOp52
 70
     0
102
RTVSPost2010Prop53
 90
        2
102
RTVSPost2010PropOp53
 70
     1
102
RTVSPost2010Prop54
  1
strokes_ogs.tif
102
RTVSPost2010PropOp54
 70
     1
102
RTVSPost2010Prop55
280
     0
102
RTVSPost2010PropOp55
 70
     1
102
RTVSPost2010Prop56
140
1.0
102
RTVSPost2010PropOp56
 70
     1
102
RTVSPost2010Prop57
140
1.0
102
RTVSPost2010PropOp57
 70
     1
102
RTVSPropertyOp0
 70
     1
102
RTVSPropertyOp1
 70
     1
102
RTVSPropertyOp2
 70
     1
102
RTVSPropertyOp3
 70
     1
102
RTVSPropertyOp4
 70
     1
102
RTVSPropertyOp5
 70
     1
102
RTVSPropertyOp6
 70
     1
102
RTVSPropertyOp7
 70
     1
102
RTVSPropertyOp8
 70
     1
102
RTVSPropertyOp9
 70
     1
102
RTVSPropertyOp10
 70
     1
102
RTVSPropertyOp11
 70
     1
102
RTVSPropertyOp12
 70
     1
102
RTVSPropertyOp13
 70
     1
102
RTVSPropertyOp14
 70
     1
102
RTVSPropertyOp15
 70
     1
102
RTVSPropertyOp16
 70
     1
102
RTVSPropertyOp17
 70
     1
102
RTVSPropertyOp18
 70
     1
102
RTVSPropertyOp19
 70
     1
102
RTVSPropertyOp20
 70
     1
102
RTVSPropertyOp21
 70
     1
102
RTVSPropertyOp22
 70
     1
102
RTVSPropertyOp23
 70
     1
102
RTVSPropertyOp24
 70
     1
102
RTVSPropertyOp25
 70
     1
102
RTVSPropertyOp26
 70
     1
102
RTVSPropertyOp27
 70
     1
102
RTVSPropertyOp28
 70
     1
102
RTVSPropertyOp29
 70
     1
102
RTVSPropertyOp30
 70
     1
102
RTVSPropertyOp31
 70
     1
102
RTVSPropertyOp32
 70
     1
102
RTVSPropertyOp33
 70
     1
102
RTVSPropertyOp34
 70
     1
102
RTVSPropertyOp35
 70
     1
102
RTVSPropertyOp36
 70
     1
102
RTVSPropertyOp37
 70
     1
102
RTVSPropertyOp38
 70
     1
102
RTVSPropertyOp39
 70
     1
102
RTVSPropertyOp40
 70
     1
102
RTVSPropertyOp41
 70
     1
102
RTVSPropertyOp42
 70
     1
102
RTVSPropertyOp43
 70
     1
102
RTVSPropertyOp44
 70
     1
102
RTVSPropertyOp45
 70
     1
102
RTVSPropertyOp46
 70
     1
102
RTVSPropertyOp47
 70
     1
102
RTVSPropertyOp48
 70
     1
102
RTVSPropertyOp49
 70
     1
102
RTVSPropertyOp50
 70
     1
102
RTVSPropertyOp51
 70
     0
102
RTVSPropertyOp52
 70
     0
102
RTVSPropertyOp53
 70
     1
102
RTVSPropertyOp54
 70
     1
102
RTVSPropertyOp55
 70
     1
102
RTVSPropertyOp56
 70
     1
102
RTVSPropertyOp57
 70
     1
102
RTVSPropertyOp58
 70
     1
102
RTVSPropertyOp59
 70
     1
102
RTVSPropertyOp60
 70
     1
102
RTVSPropertyOp61
 70
     1
102
RTVSPropertyOp62
 70
     1
  0
XRECORD
  5
E86
102
{ACAD_REACTORS
330
E85
102
}
330
E85
100
AcDbXrecord
280
     1
102
RTVSPost2010Prop28
280
     0
102
RTVSPost2010PropOp28
 70
     1
102
RTVSPost2010Prop29
280
     1
102
RTVSPost2010PropOp29
 70
     1
102
RTVSPost2010Prop30
280
     1
102
RTVSPost2010PropOp30
 70
     1
102
RTVSPost2010Prop31
280
     0
102
RTVSPost2010PropOp31
 70
     1
102
RTVSPost2010Prop32
280
     0
102
RTVSPost2010PropOp32
 70
     1
102
RTVSPost2010Prop33
280
     0
102
RTVSPost2010PropOp33
 70
     1
102
RTVSPost2010Prop34
280
     0
102
RTVSPost2010PropOp34
 70
     1
102
RTVSPost2010Prop35
280
     0
102
RTVSPost2010PropOp35
 70
     1
102
RTVSPost2010Prop36
280
     0
102
RTVSPost2010PropOp36
 70
     1
102
RTVSPost2010Prop37
 90
       50
102
RTVSPost2010PropOp37
 70
     1
102
RTVSPost2010Prop38
140
0.0
102
RTVSPost2010PropOp38
 70
     1
102
RTVSPost2010Prop39
140
1.0
102
RTVSPost2010PropOp39
 70
     1
102
RTVSPost2010Prop40
 90
        0
102
RTVSPost2010PropOp40
 70
     1
102
RTVSPost2010Prop41ColorIndex
 90
       18
102
RTVSPost2010Prop41ColorRGB
 90
        0
102
RTVSPost2010PropOp41
 70
     1
102
RTVSPost2010Prop42
 90
       50
102
RTVSPost2010PropOp42
 70
     1
102
RTVSPost2010Prop43
 90
        3
102
RTVSPost2010PropOp43
 70
     1
102
RTVSPost2010Prop44ColorIndex
 90
        5
102
RTVSPost2010Prop44ColorRGB
 90
      255
102
RTVSPost2010PropOp44
 70
     1
102
RTVSPost2010Prop45
280
     0
102
RTVSPost2010PropOp45
 70
     1
102
RTVSPost2010Prop46
 90
       50
102
RTVSPost2010PropOp46
 70
     1
102
RTVSPost2010Prop47
 90
       50
102
RTVSPost2010PropOp47
 70
     1
102
RTVSPost2010Prop48
 90
       50
102
RTVSPost2010PropOp48
 70
     1
102
RTVSPost2010Prop49
280
     0
102
RTVSPost2010PropOp49
 70
     1
102
RTVSPost2010Prop50
 90
       50
102
RTVSPost2010PropOp50
 70
     1
102
RTVSPost2010Prop51ColorIndex
 90
      256
102
RTVSPost2010Prop51ColorRGB
 90
-16777216
102
RTVSPost2010PropOp51
 70
     0
102
RTVSPost2010Prop52
140
1.0
102
RTVSPost2010PropOp52
 70
     0
102
RTVSPost2010Prop53
 90
        2
102
RTVSPost2010PropOp53
 70
     1
102
RTVSPost2010Prop54
  1
strokes_ogs.tif
102
RTVSPost2010PropOp54
 70
     1
102
RTVSPost2010Prop55
280
     0
102
RTVSPost2010PropOp55
 70
     1
102
RTVSPost2010Prop56
140
1.0
102
RTVSPost2010PropOp56
 70
     1
102
RTVSPost2010Prop57
140
1.0
102
RTVSPost2010PropOp57
 70
     1
102
RTVSPropertyOp0
 70
     1
102
RTVSPropertyOp1
 70
     1
102
RTVSPropertyOp2
 70
     1
102
RTVSPropertyOp3
 70
     1
102
RTVSPropertyOp4
 70
     1
102
RTVSPropertyOp5
 70
     1
102
RTVSPropertyOp6
 70
     1
102
RTVSPropertyOp7
 70
     1
102
RTVSPropertyOp8
 70
     1
102
RTVSPropertyOp9
 70
     1
102
RTVSPropertyOp10
 70
     1
102
RTVSPropertyOp11
 70
     1
102
RTVSPropertyOp12
 70
     1
102
RTVSPropertyOp13
 70
     1
102
RTVSPropertyOp14
 70
     1
102
RTVSPropertyOp15
 70
     1
102
RTVSPropertyOp16
 70
     1
102
RTVSPropertyOp17
 70
     1
102
RTVSPropertyOp18
 70
     1
102
RTVSPropertyOp19
 70
     1
102
RTVSPropertyOp20
 70
     1
102
RTVSPropertyOp21
 70
     1
102
RTVSPropertyOp22
 70
     1
102
RTVSPropertyOp23
 70
     1
102
RTVSPropertyOp24
 70
     1
102
RTVSPropertyOp25
 70
     1
102
RTVSPropertyOp26
 70
     1
102
RTVSPropertyOp27
 70
     1
102
RTVSPropertyOp28
 70
     1
102
RTVSPropertyOp29
 70
     1
102
RTVSPropertyOp30
 70
     1
102
RTVSPropertyOp31
 70
     1
102
RTVSPropertyOp32
 70
     1
102
RTVSPropertyOp33
 70
     1
102
RTVSPropertyOp34
 70
     1
102
RTVSPropertyOp35
 70
     1
102
RTVSPropertyOp36
 70
     1
102
RTVSPropertyOp37
 70
     1
102
RTVSPropertyOp38
 70
     1
102
RTVSPropertyOp39
 70
     1
102
RTVSPropertyOp40
 70
     1
102
RTVSPropertyOp41
 70
     1
102
RTVSPropertyOp42
 70
     1
102
RTVSPropertyOp43
 70
     1
102
RTVSPropertyOp44
 70
     1
102
RTVSPropertyOp45
 70
     1
102
RTVSPropertyOp46
 70
     1
102
RTVSPropertyOp47
 70
     1
102
RTVSPropertyOp48
 70
     1
102
RTVSPropertyOp49
 70
     1
102
RTVSPropertyOp50
 70
     1
102
RTVSPropertyOp51
 70
     0
102
RTVSPropertyOp52
 70
     0
102
RTVSPropertyOp53
 70
     1
102
RTVSPropertyOp54
 70
     1
102
RTVSPropertyOp55
 70
     1
102
RTVSPropertyOp56
 70
     1
102
RTVSPropertyOp57
 70
     1
102
RTVSPropertyOp58
 70
     1
102
RTVSPropertyOp59
 70
     1
102
RTVSPropertyOp60
 70
     1
102
RTVSPropertyOp61
 70
     1
102
RTVSPropertyOp62
 70
     1
  0
XRECORD
  5
EA2
102
{ACAD_REACTORS
330
EA1
102
}
330
EA1
100
AcDbXrecord
280
     1
102
RTVSPost2010Prop28
280
     0
102
RTVSPost2010PropOp28
 70
     1
102
RTVSPost2010Prop29
280
     1
102
RTVSPost2010PropOp29
 70
     1
102
RTVSPost2010Prop30
280
     1
102
RTVSPost2010PropOp30
 70
     1
102
RTVSPost2010Prop31
280
     0
102
RTVSPost2010PropOp31
 70
     1
102
RTVSPost2010Prop32
280
     0
102
RTVSPost2010PropOp32
 70
     1
102
RTVSPost2010Prop33
280
     0
102
RTVSPost2010PropOp33
 70
     1
102
RTVSPost2010Prop34
280
     0
102
RTVSPost2010PropOp34
 70
     1
102
RTVSPost2010Prop35
280
     0
102
RTVSPost2010PropOp35
 70
     1
102
RTVSPost2010Prop36
280
     0
102
RTVSPost2010PropOp36
 70
     1
102
RTVSPost2010Prop37
 90
       50
102
RTVSPost2010PropOp37
 70
     0
102
RTVSPost2010Prop38
140
0.0
102
RTVSPost2010PropOp38
 70
     0
102
RTVSPost2010Prop39
140
1.0
102
RTVSPost2010PropOp39
 70
     0
102
RTVSPost2010Prop40
 90
        0
102
RTVSPost2010PropOp40
 70
     0
102
RTVSPost2010Prop41ColorIndex
 90
       18
102
RTVSPost2010Prop41ColorRGB
 90
        0
102
RTVSPost2010PropOp41
 70
     0
102
RTVSPost2010Prop42
 90
       50
102
RTVSPost2010PropOp42
 70
     0
102
RTVSPost2010Prop43
 90
        3
102
RTVSPost2010PropOp43
 70
     0
102
RTVSPost2010Prop44ColorIndex
 90
        5
102
RTVSPost2010Prop44ColorRGB
 90
      255
102
RTVSPost2010PropOp44
 70
     0
102
RTVSPost2010Prop45
280
     0
102
RTVSPost2010PropOp45
 70
     1
102
RTVSPost2010Prop46
 90
       50
102
RTVSPost2010PropOp46
 70
     0
102
RTVSPost2010Prop47
 90
       50
102
RTVSPost2010PropOp47
 70
     0
102
RTVSPost2010Prop48
 90
       50
102
RTVSPost2010PropOp48
 70
     0
102
RTVSPost2010Prop49
280
     0
102
RTVSPost2010PropOp49
 70
     1
102
RTVSPost2010Prop50
 90
       50
102
RTVSPost2010PropOp50
 70
     0
102
RTVSPost2010Prop51ColorIndex
 90
      256
102
RTVSPost2010Prop51ColorRGB
 90
-16777216
102
RTVSPost2010PropOp51
 70
     0
102
RTVSPost2010Prop52
140
1.0
102
RTVSPost2010PropOp52
 70
     0
102
RTVSPost2010Prop53
 90
        2
102
RTVSPost2010PropOp53
 70
     0
102
RTVSPost2010Prop54
  1
strokes_ogs.tif
102
RTVSPost2010PropOp54
 70
     0
102
RTVSPost2010Prop55
280
     0
102
RTVSPost2010PropOp55
 70
     1
102
RTVSPost2010Prop56
140
1.0
102
RTVSPost2010PropOp56
 70
     0
102
RTVSPost2010Prop57
140
1.0
102
RTVSPost2010PropOp57
 70
     0
102
RTVSPropertyOp0
 70
     0
102
RTVSPropertyOp1
 70
     0
102
RTVSPropertyOp2
 70
     0
102
RTVSPropertyOp3
 70
     0
102
RTVSPropertyOp4
 70
     0
102
RTVSPropertyOp5
 70
     0
102
RTVSPropertyOp6
 70
     0
102
RTVSPropertyOp7
 70
     0
102
RTVSPropertyOp8
 70
     0
102
RTVSPropertyOp9
 70
     0
102
RTVSPropertyOp10
 70
     0
102
RTVSPropertyOp11
 70
     0
102
RTVSPropertyOp12
 70
     0
102
RTVSPropertyOp13
 70
     0
102
RTVSPropertyOp14
 70
     2
102
RTVSPropertyOp15
 70
     0
102
RTVSPropertyOp16
 70
     0
102
RTVSPropertyOp17
 70
     0
102
RTVSPropertyOp18
 70
     0
102
RTVSPropertyOp19
 70
     0
102
RTVSPropertyOp20
 70
     0
102
RTVSPropertyOp21
 70
     0
102
RTVSPropertyOp22
 70
     0
102
RTVSPropertyOp23
 70
     0
102
RTVSPropertyOp24
 70
     0
102
RTVSPropertyOp25
 70
     0
102
RTVSPropertyOp26
 70
     0
102
RTVSPropertyOp27
 70
     0
102
RTVSPropertyOp28
 70
     1
102
RTVSPropertyOp29
 70
     1
102
RTVSPropertyOp30
 70
     1
102
RTVSPropertyOp31
 70
     1
102
RTVSPropertyOp32
 70
     1
102
RTVSPropertyOp33
 70
     1
102
RTVSPropertyOp34
 70
     1
102
RTVSPropertyOp35
 70
     1
102
RTVSPropertyOp36
 70
     1
102
RTVSPropertyOp37
 70
     0
102
RTVSPropertyOp38
 70
     0
102
RTVSPropertyOp39
 70
     0
102
RTVSPropertyOp40
 70
     0
102
RTVSPropertyOp41
 70
     0
102
RTVSPropertyOp42
 70
     0
102
RTVSPropertyOp43
 70
     0
102
RTVSPropertyOp44
 70
     0
102
RTVSPropertyOp45
 70
     1
102
RTVSPropertyOp46
 70
     0
102
RTVSPropertyOp47
 70
     0
102
RTVSPropertyOp48
 70
     0
102
RTVSPropertyOp49
 70
     1
102
RTVSPropertyOp50
 70
     0
102
RTVSPropertyOp51
 70
     0
102
RTVSPropertyOp52
 70
     0
102
RTVSPropertyOp53
 70
     0
102
RTVSPropertyOp54
 70
     0
102
RTVSPropertyOp55
 70
     1
102
RTVSPropertyOp56
 70
     0
102
RTVSPropertyOp57
 70
     0
102
RTVSPropertyOp58
 70
     1
102
RTVSPropertyOp59
 70
     1
102
RTVSPropertyOp60
 70
     1
102
RTVSPropertyOp61
 70
     1
102
RTVSPropertyOp62
 70
     1
  0
XRECORD
  5
E92
102
{ACAD_REACTORS
330
E91
102
}
330
E91
100
AcDbXrecord
280
     1
102
RTVSPost2010Prop28
280
     0
102
RTVSPost2010PropOp28
 70
     1
102
RTVSPost2010Prop29
280
     1
102
RTVSPost2010PropOp29
 70
     1
102
RTVSPost2010Prop30
280
     1
102
RTVSPost2010PropOp30
 70
     1
102
RTVSPost2010Prop31
280
     0
102
RTVSPost2010PropOp31
 70
     1
102
RTVSPost2010Prop32
280
     0
102
RTVSPost2010PropOp32
 70
     1
102
RTVSPost2010Prop33
280
     0
102
RTVSPost2010PropOp33
 70
     1
102
RTVSPost2010Prop34
280
     0
102
RTVSPost2010PropOp34
 70
     1
102
RTVSPost2010Prop35
280
     0
102
RTVSPost2010PropOp35
 70
     1
102
RTVSPost2010Prop36
280
     0
102
RTVSPost2010PropOp36
 70
     1
102
RTVSPost2010Prop37
 90
       50
102
RTVSPost2010PropOp37
 70
     1
102
RTVSPost2010Prop38
140
0.0
102
RTVSPost2010PropOp38
 70
     1
102
RTVSPost2010Prop39
140
1.0
102
RTVSPost2010PropOp39
 70
     1
102
RTVSPost2010Prop40
 90
        0
102
RTVSPost2010PropOp40
 70
     1
102
RTVSPost2010Prop41ColorIndex
 90
       18
102
RTVSPost2010Prop41ColorRGB
 90
        0
102
RTVSPost2010PropOp41
 70
     1
102
RTVSPost2010Prop42
 90
       50
102
RTVSPost2010PropOp42
 70
     1
102
RTVSPost2010Prop43
 90
        3
102
RTVSPost2010PropOp43
 70
     1
102
RTVSPost2010Prop44ColorIndex
 90
        5
102
RTVSPost2010Prop44ColorRGB
 90
      255
102
RTVSPost2010PropOp44
 70
     1
102
RTVSPost2010Prop45
280
     0
102
RTVSPost2010PropOp45
 70
     1
102
RTVSPost2010Prop46
 90
       50
102
RTVSPost2010PropOp46
 70
     1
102
RTVSPost2010Prop47
 90
       50
102
RTVSPost2010PropOp47
 70
     1
102
RTVSPost2010Prop48
 90
       50
102
RTVSPost2010PropOp48
 70
     1
102
RTVSPost2010Prop49
280
     0
102
RTVSPost2010PropOp49
 70
     1
102
RTVSPost2010Prop50
 90
       50
102
RTVSPost2010PropOp50
 70
     1
102
RTVSPost2010Prop51ColorIndex
 90
      256
102
RTVSPost2010Prop51ColorRGB
 90
-16777216
102
RTVSPost2010PropOp51
 70
     0
102
RTVSPost2010Prop52
140
1.0
102
RTVSPost2010PropOp52
 70
     0
102
RTVSPost2010Prop53
 90
        2
102
RTVSPost2010PropOp53
 70
     1
102
RTVSPost2010Prop54
  1
strokes_ogs.tif
102
RTVSPost2010PropOp54
 70
     1
102
RTVSPost2010Prop55
280
     0
102
RTVSPost2010PropOp55
 70
     1
102
RTVSPost2010Prop56
140
1.0
102
RTVSPost2010PropOp56
 70
     1
102
RTVSPost2010Prop57
140
1.0
102
RTVSPost2010PropOp57
 70
     1
102
RTVSPropertyOp0
 70
     1
102
RTVSPropertyOp1
 70
     1
102
RTVSPropertyOp2
 70
     1
102
RTVSPropertyOp3
 70
     1
102
RTVSPropertyOp4
 70
     1
102
RTVSPropertyOp5
 70
     1
102
RTVSPropertyOp6
 70
     1
102
RTVSPropertyOp7
 70
     1
102
RTVSPropertyOp8
 70
     1
102
RTVSPropertyOp9
 70
     1
102
RTVSPropertyOp10
 70
     1
102
RTVSPropertyOp11
 70
     1
102
RTVSPropertyOp12
 70
     1
102
RTVSPropertyOp13
 70
     1
102
RTVSPropertyOp14
 70
     1
102
RTVSPropertyOp15
 70
     1
102
RTVSPropertyOp16
 70
     1
102
RTVSPropertyOp17
 70
     1
102
RTVSPropertyOp18
 70
     1
102
RTVSPropertyOp19
 70
     1
102
RTVSPropertyOp20
 70
     1
102
RTVSPropertyOp21
 70
     1
102
RTVSPropertyOp22
 70
     1
102
RTVSPropertyOp23
 70
     1
102
RTVSPropertyOp24
 70
     1
102
RTVSPropertyOp25
 70
     1
102
RTVSPropertyOp26
 70
     1
102
RTVSPropertyOp27
 70
     1
102
RTVSPropertyOp28
 70
     1
102
RTVSPropertyOp29
 70
     1
102
RTVSPropertyOp30
 70
     1
102
RTVSPropertyOp31
 70
     1
102
RTVSPropertyOp32
 70
     1
102
RTVSPropertyOp33
 70
     1
102
RTVSPropertyOp34
 70
     1
102
RTVSPropertyOp35
 70
     1
102
RTVSPropertyOp36
 70
     1
102
RTVSPropertyOp37
 70
     1
102
RTVSPropertyOp38
 70
     1
102
RTVSPropertyOp39
 70
     1
102
RTVSPropertyOp40
 70
     1
102
RTVSPropertyOp41
 70
     1
102
RTVSPropertyOp42
 70
     1
102
RTVSPropertyOp43
 70
     1
102
RTVSPropertyOp44
 70
     1
102
RTVSPropertyOp45
 70
     1
102
RTVSPropertyOp46
 70
     1
102
RTVSPropertyOp47
 70
     1
102
RTVSPropertyOp48
 70
     1
102
RTVSPropertyOp49
 70
     1
102
RTVSPropertyOp50
 70
     1
102
RTVSPropertyOp51
 70
     0
102
RTVSPropertyOp52
 70
     0
102
RTVSPropertyOp53
 70
     1
102
RTVSPropertyOp54
 70
     1
102
RTVSPropertyOp55
 70
     1
102
RTVSPropertyOp56
 70
     1
102
RTVSPropertyOp57
 70
     1
102
RTVSPropertyOp58
 70
     1
102
RTVSPropertyOp59
 70
     1
102
RTVSPropertyOp60
 70
     1
102
RTVSPropertyOp61
 70
     1
102
RTVSPropertyOp62
 70
     1
  0
XRECORD
  5
EA4
102
{ACAD_REACTORS
330
EA3
102
}
330
EA3
100
AcDbXrecord
280
     1
102
RTVSPost2010Prop28
280
     0
102
RTVSPost2010PropOp28
 70
     1
102
RTVSPost2010Prop29
280
     1
102
RTVSPost2010PropOp29
 70
     1
102
RTVSPost2010Prop30
280
     1
102
RTVSPost2010PropOp30
 70
     1
102
RTVSPost2010Prop31
280
     0
102
RTVSPost2010PropOp31
 70
     1
102
RTVSPost2010Prop32
280
     0
102
RTVSPost2010PropOp32
 70
     1
102
RTVSPost2010Prop33
280
     0
102
RTVSPost2010PropOp33
 70
     1
102
RTVSPost2010Prop34
280
     0
102
RTVSPost2010PropOp34
 70
     1
102
RTVSPost2010Prop35
280
     0
102
RTVSPost2010PropOp35
 70
     1
102
RTVSPost2010Prop36
280
     0
102
RTVSPost2010PropOp36
 70
     1
102
RTVSPost2010Prop37
 90
       50
102
RTVSPost2010PropOp37
 70
     0
102
RTVSPost2010Prop38
140
0.0
102
RTVSPost2010PropOp38
 70
     0
102
RTVSPost2010Prop39
140
1.0
102
RTVSPost2010PropOp39
 70
     0
102
RTVSPost2010Prop40
 90
        0
102
RTVSPost2010PropOp40
 70
     0
102
RTVSPost2010Prop41ColorIndex
 90
       18
102
RTVSPost2010Prop41ColorRGB
 90
        0
102
RTVSPost2010PropOp41
 70
     0
102
RTVSPost2010Prop42
 90
       50
102
RTVSPost2010PropOp42
 70
     0
102
RTVSPost2010Prop43
 90
        3
102
RTVSPost2010PropOp43
 70
     0
102
RTVSPost2010Prop44ColorIndex
 90
        5
102
RTVSPost2010Prop44ColorRGB
 90
      255
102
RTVSPost2010PropOp44
 70
     0
102
RTVSPost2010Prop45
280
     0
102
RTVSPost2010PropOp45
 70
     1
102
RTVSPost2010Prop46
 90
       50
102
RTVSPost2010PropOp46
 70
     0
102
RTVSPost2010Prop47
 90
       50
102
RTVSPost2010PropOp47
 70
     0
102
RTVSPost2010Prop48
 90
       50
102
RTVSPost2010PropOp48
 70
     0
102
RTVSPost2010Prop49
280
     0
102
RTVSPost2010PropOp49
 70
     1
102
RTVSPost2010Prop50
 90
       50
102
RTVSPost2010PropOp50
 70
     0
102
RTVSPost2010Prop51ColorIndex
 90
      256
102
RTVSPost2010Prop51ColorRGB
 90
-16777216
102
RTVSPost2010PropOp51
 70
     0
102
RTVSPost2010Prop52
140
1.0
102
RTVSPost2010PropOp52
 70
     0
102
RTVSPost2010Prop53
 90
        2
102
RTVSPost2010PropOp53
 70
     0
102
RTVSPost2010Prop54
  1
strokes_ogs.tif
102
RTVSPost2010PropOp54
 70
     0
102
RTVSPost2010Prop55
280
     0
102
RTVSPost2010PropOp55
 70
     1
102
RTVSPost2010Prop56
140
1.0
102
RTVSPost2010PropOp56
 70
     0
102
RTVSPost2010Prop57
140
1.0
102
RTVSPost2010PropOp57
 70
     0
102
RTVSPropertyOp0
 70
     0
102
RTVSPropertyOp1
 70
     0
102
RTVSPropertyOp2
 70
     0
102
RTVSPropertyOp3
 70
     0
102
RTVSPropertyOp4
 70
     0
102
RTVSPropertyOp5
 70
     0
102
RTVSPropertyOp6
 70
     0
102
RTVSPropertyOp7
 70
     0
102
RTVSPropertyOp8
 70
     0
102
RTVSPropertyOp9
 70
     0
102
RTVSPropertyOp10
 70
     0
102
RTVSPropertyOp11
 70
     0
102
RTVSPropertyOp12
 70
     0
102
RTVSPropertyOp13
 70
     0
102
RTVSPropertyOp14
 70
     2
102
RTVSPropertyOp15
 70
     0
102
RTVSPropertyOp16
 70
     0
102
RTVSPropertyOp17
 70
     0
102
RTVSPropertyOp18
 70
     0
102
RTVSPropertyOp19
 70
     0
102
RTVSPropertyOp20
 70
     0
102
RTVSPropertyOp21
 70
     0
102
RTVSPropertyOp22
 70
     0
102
RTVSPropertyOp23
 70
     0
102
RTVSPropertyOp24
 70
     0
102
RTVSPropertyOp25
 70
     0
102
RTVSPropertyOp26
 70
     0
102
RTVSPropertyOp27
 70
     0
102
RTVSPropertyOp28
 70
     1
102
RTVSPropertyOp29
 70
     1
102
RTVSPropertyOp30
 70
     1
102
RTVSPropertyOp31
 70
     1
102
RTVSPropertyOp32
 70
     1
102
RTVSPropertyOp33
 70
     1
102
RTVSPropertyOp34
 70
     1
102
RTVSPropertyOp35
 70
     1
102
RTVSPropertyOp36
 70
     1
102
RTVSPropertyOp37
 70
     0
102
RTVSPropertyOp38
 70
     0
102
RTVSPropertyOp39
 70
     0
102
RTVSPropertyOp40
 70
     0
102
RTVSPropertyOp41
 70
     0
102
RTVSPropertyOp42
 70
     0
102
RTVSPropertyOp43
 70
     0
102
RTVSPropertyOp44
 70
     0
102
RTVSPropertyOp45
 70
     1
102
RTVSPropertyOp46
 70
     0
102
RTVSPropertyOp47
 70
     0
102
RTVSPropertyOp48
 70
     0
102
RTVSPropertyOp49
 70
     1
102
RTVSPropertyOp50
 70
     0
102
RTVSPropertyOp51
 70
     0
102
RTVSPropertyOp52
 70
     0
102
RTVSPropertyOp53
 70
     0
102
RTVSPropertyOp54
 70
     0
102
RTVSPropertyOp55
 70
     1
102
RTVSPropertyOp56
 70
     0
102
RTVSPropertyOp57
 70
     0
102
RTVSPropertyOp58
 70
     1
102
RTVSPropertyOp59
 70
     1
102
RTVSPropertyOp60
 70
     1
102
RTVSPropertyOp61
 70
     1
102
RTVSPropertyOp62
 70
     1
  0
XRECORD
  5
E8A
102
{ACAD_REACTORS
330
E89
102
}
330
E89
100
AcDbXrecord
280
     1
102
RTVSPost2010Prop28
280
     0
102
RTVSPost2010PropOp28
 70
     1
102
RTVSPost2010Prop29
280
     1
102
RTVSPost2010PropOp29
 70
     1
102
RTVSPost2010Prop30
280
     1
102
RTVSPost2010PropOp30
 70
     1
102
RTVSPost2010Prop31
280
     0
102
RTVSPost2010PropOp31
 70
     1
102
RTVSPost2010Prop32
280
     0
102
RTVSPost2010PropOp32
 70
     1
102
RTVSPost2010Prop33
280
     0
102
RTVSPost2010PropOp33
 70
     1
102
RTVSPost2010Prop34
280
     0
102
RTVSPost2010PropOp34
 70
     1
102
RTVSPost2010Prop35
280
     0
102
RTVSPost2010PropOp35
 70
     1
102
RTVSPost2010Prop36
280
     0
102
RTVSPost2010PropOp36
 70
     1
102
RTVSPost2010Prop37
 90
       50
102
RTVSPost2010PropOp37
 70
     1
102
RTVSPost2010Prop38
140
0.0
102
RTVSPost2010PropOp38
 70
     1
102
RTVSPost2010Prop39
140
1.0
102
RTVSPost2010PropOp39
 70
     1
102
RTVSPost2010Prop40
 90
        0
102
RTVSPost2010PropOp40
 70
     1
102
RTVSPost2010Prop41ColorIndex
 90
       18
102
RTVSPost2010Prop41ColorRGB
 90
        0
102
RTVSPost2010PropOp41
 70
     1
102
RTVSPost2010Prop42
 90
       50
102
RTVSPost2010PropOp42
 70
     1
102
RTVSPost2010Prop43
 90
        3
102
RTVSPost2010PropOp43
 70
     1
102
RTVSPost2010Prop44ColorIndex
 90
        5
102
RTVSPost2010Prop44ColorRGB
 90
      255
102
RTVSPost2010PropOp44
 70
     1
102
RTVSPost2010Prop45
280
     0
102
RTVSPost2010PropOp45
 70
     1
102
RTVSPost2010Prop46
 90
       50
102
RTVSPost2010PropOp46
 70
     1
102
RTVSPost2010Prop47
 90
       50
102
RTVSPost2010PropOp47
 70
     1
102
RTVSPost2010Prop48
 90
       50
102
RTVSPost2010PropOp48
 70
     1
102
RTVSPost2010Prop49
280
     0
102
RTVSPost2010PropOp49
 70
     1
102
RTVSPost2010Prop50
 90
       50
102
RTVSPost2010PropOp50
 70
     1
102
RTVSPost2010Prop51ColorIndex
 90
      256
102
RTVSPost2010Prop51ColorRGB
 90
-16777216
102
RTVSPost2010PropOp51
 70
     0
102
RTVSPost2010Prop52
140
1.0
102
RTVSPost2010PropOp52
 70
     0
102
RTVSPost2010Prop53
 90
        2
102
RTVSPost2010PropOp53
 70
     1
102
RTVSPost2010Prop54
  1
strokes_ogs.tif
102
RTVSPost2010PropOp54
 70
     1
102
RTVSPost2010Prop55
280
     0
102
RTVSPost2010PropOp55
 70
     1
102
RTVSPost2010Prop56
140
1.0
102
RTVSPost2010PropOp56
 70
     1
102
RTVSPost2010Prop57
140
1.0
102
RTVSPost2010PropOp57
 70
     1
102
RTVSPropertyOp0
 70
     1
102
RTVSPropertyOp1
 70
     1
102
RTVSPropertyOp2
 70
     1
102
RTVSPropertyOp3
 70
     1
102
RTVSPropertyOp4
 70
     1
102
RTVSPropertyOp5
 70
     1
102
RTVSPropertyOp6
 70
     1
102
RTVSPropertyOp7
 70
     1
102
RTVSPropertyOp8
 70
     1
102
RTVSPropertyOp9
 70
     1
102
RTVSPropertyOp10
 70
     1
102
RTVSPropertyOp11
 70
     1
102
RTVSPropertyOp12
 70
     1
102
RTVSPropertyOp13
 70
     1
102
RTVSPropertyOp14
 70
     1
102
RTVSPropertyOp15
 70
     1
102
RTVSPropertyOp16
 70
     1
102
RTVSPropertyOp17
 70
     1
102
RTVSPropertyOp18
 70
     1
102
RTVSPropertyOp19
 70
     1
102
RTVSPropertyOp20
 70
     1
102
RTVSPropertyOp21
 70
     1
102
RTVSPropertyOp22
 70
     1
102
RTVSPropertyOp23
 70
     1
102
RTVSPropertyOp24
 70
     1
102
RTVSPropertyOp25
 70
     1
102
RTVSPropertyOp26
 70
     1
102
RTVSPropertyOp27
 70
     1
102
RTVSPropertyOp28
 70
     1
102
RTVSPropertyOp29
 70
     1
102
RTVSPropertyOp30
 70
     1
102
RTVSPropertyOp31
 70
     1
102
RTVSPropertyOp32
 70
     1
102
RTVSPropertyOp33
 70
     1
102
RTVSPropertyOp34
 70
     1
102
RTVSPropertyOp35
 70
     1
102
RTVSPropertyOp36
 70
     1
102
RTVSPropertyOp37
 70
     1
102
RTVSPropertyOp38
 70
     1
102
RTVSPropertyOp39
 70
     1
102
RTVSPropertyOp40
 70
     1
102
RTVSPropertyOp41
 70
     1
102
RTVSPropertyOp42
 70
     1
102
RTVSPropertyOp43
 70
     1
102
RTVSPropertyOp44
 70
     1
102
RTVSPropertyOp45
 70
     1
102
RTVSPropertyOp46
 70
     1
102
RTVSPropertyOp47
 70
     1
102
RTVSPropertyOp48
 70
     1
102
RTVSPropertyOp49
 70
     1
102
RTVSPropertyOp50
 70
     1
102
RTVSPropertyOp51
 70
     0
102
RTVSPropertyOp52
 70
     0
102
RTVSPropertyOp53
 70
     1
102
RTVSPropertyOp54
 70
     1
102
RTVSPropertyOp55
 70
     1
102
RTVSPropertyOp56
 70
     1
102
RTVSPropertyOp57
 70
     1
102
RTVSPropertyOp58
 70
     1
102
RTVSPropertyOp59
 70
     1
102
RTVSPropertyOp60
 70
     1
102
RTVSPropertyOp61
 70
     1
102
RTVSPropertyOp62
 70
     1
  0
XRECORD
  5
EA0
102
{ACAD_REACTORS
330
E9F
102
}
330
E9F
100
AcDbXrecord
280
     1
102
RTVSPost2010Prop28
280
     0
102
RTVSPost2010PropOp28
 70
     1
102
RTVSPost2010Prop29
280
     1
102
RTVSPost2010PropOp29
 70
     1
102
RTVSPost2010Prop30
280
     1
102
RTVSPost2010PropOp30
 70
     1
102
RTVSPost2010Prop31
280
     0
102
RTVSPost2010PropOp31
 70
     1
102
RTVSPost2010Prop32
280
     0
102
RTVSPost2010PropOp32
 70
     1
102
RTVSPost2010Prop33
280
     0
102
RTVSPost2010PropOp33
 70
     1
102
RTVSPost2010Prop34
280
     0
102
RTVSPost2010PropOp34
 70
     1
102
RTVSPost2010Prop35
280
     0
102
RTVSPost2010PropOp35
 70
     1
102
RTVSPost2010Prop36
280
     0
102
RTVSPost2010PropOp36
 70
     1
102
RTVSPost2010Prop37
 90
       50
102
RTVSPost2010PropOp37
 70
     1
102
RTVSPost2010Prop38
140
0.0
102
RTVSPost2010PropOp38
 70
     1
102
RTVSPost2010Prop39
140
1.0
102
RTVSPost2010PropOp39
 70
     1
102
RTVSPost2010Prop40
 90
        0
102
RTVSPost2010PropOp40
 70
     1
102
RTVSPost2010Prop41ColorIndex
 90
       18
102
RTVSPost2010Prop41ColorRGB
 90
        0
102
RTVSPost2010PropOp41
 70
     1
102
RTVSPost2010Prop42
 90
       50
102
RTVSPost2010PropOp42
 70
     1
102
RTVSPost2010Prop43
 90
        3
102
RTVSPost2010PropOp43
 70
     1
102
RTVSPost2010Prop44ColorIndex
 90
        5
102
RTVSPost2010Prop44ColorRGB
 90
      255
102
RTVSPost2010PropOp44
 70
     1
102
RTVSPost2010Prop45
280
     0
102
RTVSPost2010PropOp45
 70
     1
102
RTVSPost2010Prop46
 90
       50
102
RTVSPost2010PropOp46
 70
     1
102
RTVSPost2010Prop47
 90
       50
102
RTVSPost2010PropOp47
 70
     1
102
RTVSPost2010Prop48
 90
       50
102
RTVSPost2010PropOp48
 70
     1
102
RTVSPost2010Prop49
280
     0
102
RTVSPost2010PropOp49
 70
     1
102
RTVSPost2010Prop50
 90
       50
102
RTVSPost2010PropOp50
 70
     1
102
RTVSPost2010Prop51ColorIndex
 90
      256
102
RTVSPost2010Prop51ColorRGB
 90
-16777216
102
RTVSPost2010PropOp51
 70
     0
102
RTVSPost2010Prop52
140
1.0
102
RTVSPost2010PropOp52
 70
     0
102
RTVSPost2010Prop53
 90
        2
102
RTVSPost2010PropOp53
 70
     1
102
RTVSPost2010Prop54
  1
strokes_ogs.tif
102
RTVSPost2010PropOp54
 70
     1
102
RTVSPost2010Prop55
280
     0
102
RTVSPost2010PropOp55
 70
     1
102
RTVSPost2010Prop56
140
1.0
102
RTVSPost2010PropOp56
 70
     1
102
RTVSPost2010Prop57
140
1.0
102
RTVSPost2010PropOp57
 70
     1
102
RTVSPropertyOp0
 70
     1
102
RTVSPropertyOp1
 70
     1
102
RTVSPropertyOp2
 70
     1
102
RTVSPropertyOp3
 70
     1
102
RTVSPropertyOp4
 70
     1
102
RTVSPropertyOp5
 70
     1
102
RTVSPropertyOp6
 70
     1
102
RTVSPropertyOp7
 70
     1
102
RTVSPropertyOp8
 70
     1
102
RTVSPropertyOp9
 70
     1
102
RTVSPropertyOp10
 70
     1
102
RTVSPropertyOp11
 70
     1
102
RTVSPropertyOp12
 70
     1
102
RTVSPropertyOp13
 70
     1
102
RTVSPropertyOp14
 70
     1
102
RTVSPropertyOp15
 70
     1
102
RTVSPropertyOp16
 70
     1
102
RTVSPropertyOp17
 70
     1
102
RTVSPropertyOp18
 70
     1
102
RTVSPropertyOp19
 70
     1
102
RTVSPropertyOp20
 70
     1
102
RTVSPropertyOp21
 70
     1
102
RTVSPropertyOp22
 70
     1
102
RTVSPropertyOp23
 70
     1
102
RTVSPropertyOp24
 70
     1
102
RTVSPropertyOp25
 70
     1
102
RTVSPropertyOp26
 70
     1
102
RTVSPropertyOp27
 70
     1
102
RTVSPropertyOp28
 70
     1
102
RTVSPropertyOp29
 70
     1
102
RTVSPropertyOp30
 70
     1
102
RTVSPropertyOp31
 70
     1
102
RTVSPropertyOp32
 70
     1
102
RTVSPropertyOp33
 70
     1
102
RTVSPropertyOp34
 70
     1
102
RTVSPropertyOp35
 70
     1
102
RTVSPropertyOp36
 70
     1
102
RTVSPropertyOp37
 70
     1
102
RTVSPropertyOp38
 70
     1
102
RTVSPropertyOp39
 70
     1
102
RTVSPropertyOp40
 70
     1
102
RTVSPropertyOp41
 70
     1
102
RTVSPropertyOp42
 70
     1
102
RTVSPropertyOp43
 70
     1
102
RTVSPropertyOp44
 70
     1
102
RTVSPropertyOp45
 70
     1
102
RTVSPropertyOp46
 70
     1
102
RTVSPropertyOp47
 70
     1
102
RTVSPropertyOp48
 70
     1
102
RTVSPropertyOp49
 70
     1
102
RTVSPropertyOp50
 70
     1
102
RTVSPropertyOp51
 70
     0
102
RTVSPropertyOp52
 70
     0
102
RTVSPropertyOp53
 70
     1
102
RTVSPropertyOp54
 70
     1
102
RTVSPropertyOp55
 70
     1
102
RTVSPropertyOp56
 70
     1
102
RTVSPropertyOp57
 70
     1
102
RTVSPropertyOp58
 70
     1
102
RTVSPropertyOp59
 70
     1
102
RTVSPropertyOp60
 70
     1
102
RTVSPropertyOp61
 70
     1
102
RTVSPropertyOp62
 70
     1
  0
XRECORD
  5
E9E
102
{ACAD_REACTORS
330
E9D
102
}
330
E9D
100
AcDbXrecord
280
     1
102
RTVSPost2010Prop28
280
     0
102
RTVSPost2010PropOp28
 70
     1
102
RTVSPost2010Prop29
280
     1
102
RTVSPost2010PropOp29
 70
     1
102
RTVSPost2010Prop30
280
     1
102
RTVSPost2010PropOp30
 70
     1
102
RTVSPost2010Prop31
280
     0
102
RTVSPost2010PropOp31
 70
     1
102
RTVSPost2010Prop32
280
     0
102
RTVSPost2010PropOp32
 70
     1
102
RTVSPost2010Prop33
280
     0
102
RTVSPost2010PropOp33
 70
     1
102
RTVSPost2010Prop34
280
     0
102
RTVSPost2010PropOp34
 70
     1
102
RTVSPost2010Prop35
280
     0
102
RTVSPost2010PropOp35
 70
     1
102
RTVSPost2010Prop36
280
     0
102
RTVSPost2010PropOp36
 70
     1
102
RTVSPost2010Prop37
 90
       50
102
RTVSPost2010PropOp37
 70
     1
102
RTVSPost2010Prop38
140
0.0
102
RTVSPost2010PropOp38
 70
     1
102
RTVSPost2010Prop39
140
1.0
102
RTVSPost2010PropOp39
 70
     1
102
RTVSPost2010Prop40
 90
        0
102
RTVSPost2010PropOp40
 70
     1
102
RTVSPost2010Prop41ColorIndex
 90
       18
102
RTVSPost2010Prop41ColorRGB
 90
        0
102
RTVSPost2010PropOp41
 70
     1
102
RTVSPost2010Prop42
 90
       50
102
RTVSPost2010PropOp42
 70
     1
102
RTVSPost2010Prop43
 90
        3
102
RTVSPost2010PropOp43
 70
     1
102
RTVSPost2010Prop44ColorIndex
 90
        5
102
RTVSPost2010Prop44ColorRGB
 90
      255
102
RTVSPost2010PropOp44
 70
     1
102
RTVSPost2010Prop45
280
     0
102
RTVSPost2010PropOp45
 70
     1
102
RTVSPost2010Prop46
 90
       50
102
RTVSPost2010PropOp46
 70
     1
102
RTVSPost2010Prop47
 90
       50
102
RTVSPost2010PropOp47
 70
     1
102
RTVSPost2010Prop48
 90
       50
102
RTVSPost2010PropOp48
 70
     1
102
RTVSPost2010Prop49
280
     0
102
RTVSPost2010PropOp49
 70
     1
102
RTVSPost2010Prop50
 90
       50
102
RTVSPost2010PropOp50
 70
     1
102
RTVSPost2010Prop51ColorIndex
 90
      256
102
RTVSPost2010Prop51ColorRGB
 90
-16777216
102
RTVSPost2010PropOp51
 70
     0
102
RTVSPost2010Prop52
140
1.0
102
RTVSPost2010PropOp52
 70
     0
102
RTVSPost2010Prop53
 90
        2
102
RTVSPost2010PropOp53
 70
     1
102
RTVSPost2010Prop54
  1
strokes_ogs.tif
102
RTVSPost2010PropOp54
 70
     1
102
RTVSPost2010Prop55
280
     0
102
RTVSPost2010PropOp55
 70
     1
102
RTVSPost2010Prop56
140
1.0
102
RTVSPost2010PropOp56
 70
     1
102
RTVSPost2010Prop57
140
1.0
102
RTVSPost2010PropOp57
 70
     1
102
RTVSPropertyOp0
 70
     1
102
RTVSPropertyOp1
 70
     1
102
RTVSPropertyOp2
 70
     1
102
RTVSPropertyOp3
 70
     1
102
RTVSPropertyOp4
 70
     1
102
RTVSPropertyOp5
 70
     1
102
RTVSPropertyOp6
 70
     1
102
RTVSPropertyOp7
 70
     1
102
RTVSPropertyOp8
 70
     1
102
RTVSPropertyOp9
 70
     1
102
RTVSPropertyOp10
 70
     1
102
RTVSPropertyOp11
 70
     1
102
RTVSPropertyOp12
 70
     1
102
RTVSPropertyOp13
 70
     1
102
RTVSPropertyOp14
 70
     1
102
RTVSPropertyOp15
 70
     1
102
RTVSPropertyOp16
 70
     1
102
RTVSPropertyOp17
 70
     1
102
RTVSPropertyOp18
 70
     1
102
RTVSPropertyOp19
 70
     1
102
RTVSPropertyOp20
 70
     1
102
RTVSPropertyOp21
 70
     1
102
RTVSPropertyOp22
 70
     1
102
RTVSPropertyOp23
 70
     1
102
RTVSPropertyOp24
 70
     1
102
RTVSPropertyOp25
 70
     1
102
RTVSPropertyOp26
 70
     1
102
RTVSPropertyOp27
 70
     1
102
RTVSPropertyOp28
 70
     1
102
RTVSPropertyOp29
 70
     1
102
RTVSPropertyOp30
 70
     1
102
RTVSPropertyOp31
 70
     1
102
RTVSPropertyOp32
 70
     1
102
RTVSPropertyOp33
 70
     1
102
RTVSPropertyOp34
 70
     1
102
RTVSPropertyOp35
 70
     1
102
RTVSPropertyOp36
 70
     1
102
RTVSPropertyOp37
 70
     1
102
RTVSPropertyOp38
 70
     1
102
RTVSPropertyOp39
 70
     1
102
RTVSPropertyOp40
 70
     1
102
RTVSPropertyOp41
 70
     1
102
RTVSPropertyOp42
 70
     1
102
RTVSPropertyOp43
 70
     1
102
RTVSPropertyOp44
 70
     1
102
RTVSPropertyOp45
 70
     1
102
RTVSPropertyOp46
 70
     1
102
RTVSPropertyOp47
 70
     1
102
RTVSPropertyOp48
 70
     1
102
RTVSPropertyOp49
 70
     1
102
RTVSPropertyOp50
 70
     1
102
RTVSPropertyOp51
 70
     0
102
RTVSPropertyOp52
 70
     0
102
RTVSPropertyOp53
 70
     1
102
RTVSPropertyOp54
 70
     1
102
RTVSPropertyOp55
 70
     1
102
RTVSPropertyOp56
 70
     1
102
RTVSPropertyOp57
 70
     1
102
RTVSPropertyOp58
 70
     1
102
RTVSPropertyOp59
 70
     1
102
RTVSPropertyOp60
 70
     1
102
RTVSPropertyOp61
 70
     1
102
RTVSPropertyOp62
 70
     1
  0
XRECORD
  5
E98
102
{ACAD_REACTORS
330
E97
102
}
330
E97
100
AcDbXrecord
280
     1
102
RTVSPost2010Prop28
280
     0
102
RTVSPost2010PropOp28
 70
     1
102
RTVSPost2010Prop29
280
     1
102
RTVSPost2010PropOp29
 70
     1
102
RTVSPost2010Prop30
280
     1
102
RTVSPost2010PropOp30
 70
     1
102
RTVSPost2010Prop31
280
     0
102
RTVSPost2010PropOp31
 70
     1
102
RTVSPost2010Prop32
280
     0
102
RTVSPost2010PropOp32
 70
     1
102
RTVSPost2010Prop33
280
     0
102
RTVSPost2010PropOp33
 70
     1
102
RTVSPost2010Prop34
280
     0
102
RTVSPost2010PropOp34
 70
     1
102
RTVSPost2010Prop35
280
     0
102
RTVSPost2010PropOp35
 70
     1
102
RTVSPost2010Prop36
280
     0
102
RTVSPost2010PropOp36
 70
     1
102
RTVSPost2010Prop37
 90
       50
102
RTVSPost2010PropOp37
 70
     1
102
RTVSPost2010Prop38
140
0.0
102
RTVSPost2010PropOp38
 70
     1
102
RTVSPost2010Prop39
140
1.0
102
RTVSPost2010PropOp39
 70
     1
102
RTVSPost2010Prop40
 90
        0
102
RTVSPost2010PropOp40
 70
     1
102
RTVSPost2010Prop41ColorIndex
 90
       18
102
RTVSPost2010Prop41ColorRGB
 90
        0
102
RTVSPost2010PropOp41
 70
     1
102
RTVSPost2010Prop42
 90
       50
102
RTVSPost2010PropOp42
 70
     1
102
RTVSPost2010Prop43
 90
        3
102
RTVSPost2010PropOp43
 70
     1
102
RTVSPost2010Prop44ColorIndex
 90
        5
102
RTVSPost2010Prop44ColorRGB
 90
      255
102
RTVSPost2010PropOp44
 70
     1
102
RTVSPost2010Prop45
280
     0
102
RTVSPost2010PropOp45
 70
     1
102
RTVSPost2010Prop46
 90
       50
102
RTVSPost2010PropOp46
 70
     1
102
RTVSPost2010Prop47
 90
       50
102
RTVSPost2010PropOp47
 70
     1
102
RTVSPost2010Prop48
 90
       50
102
RTVSPost2010PropOp48
 70
     1
102
RTVSPost2010Prop49
280
     0
102
RTVSPost2010PropOp49
 70
     1
102
RTVSPost2010Prop50
 90
       50
102
RTVSPost2010PropOp50
 70
     1
102
RTVSPost2010Prop51ColorIndex
 90
      256
102
RTVSPost2010Prop51ColorRGB
 90
-16777216
102
RTVSPost2010PropOp51
 70
     0
102
RTVSPost2010Prop52
140
1.0
102
RTVSPost2010PropOp52
 70
     0
102
RTVSPost2010Prop53
 90
        2
102
RTVSPost2010PropOp53
 70
     1
102
RTVSPost2010Prop54
  1
strokes_ogs.tif
102
RTVSPost2010PropOp54
 70
     1
102
RTVSPost2010Prop55
280
     0
102
RTVSPost2010PropOp55
 70
     1
102
RTVSPost2010Prop56
140
1.0
102
RTVSPost2010PropOp56
 70
     1
102
RTVSPost2010Prop57
140
1.0
102
RTVSPost2010PropOp57
 70
     1
102
RTVSPropertyOp0
 70
     1
102
RTVSPropertyOp1
 70
     1
102
RTVSPropertyOp2
 70
     1
102
RTVSPropertyOp3
 70
     1
102
RTVSPropertyOp4
 70
     1
102
RTVSPropertyOp5
 70
     1
102
RTVSPropertyOp6
 70
     1
102
RTVSPropertyOp7
 70
     1
102
RTVSPropertyOp8
 70
     1
102
RTVSPropertyOp9
 70
     1
102
RTVSPropertyOp10
 70
     1
102
RTVSPropertyOp11
 70
     1
102
RTVSPropertyOp12
 70
     1
102
RTVSPropertyOp13
 70
     1
102
RTVSPropertyOp14
 70
     1
102
RTVSPropertyOp15
 70
     1
102
RTVSPropertyOp16
 70
     1
102
RTVSPropertyOp17
 70
     1
102
RTVSPropertyOp18
 70
     1
102
RTVSPropertyOp19
 70
     1
102
RTVSPropertyOp20
 70
     1
102
RTVSPropertyOp21
 70
     1
102
RTVSPropertyOp22
 70
     1
102
RTVSPropertyOp23
 70
     1
102
RTVSPropertyOp24
 70
     1
102
RTVSPropertyOp25
 70
     1
102
RTVSPropertyOp26
 70
     1
102
RTVSPropertyOp27
 70
     1
102
RTVSPropertyOp28
 70
     1
102
RTVSPropertyOp29
 70
     1
102
RTVSPropertyOp30
 70
     1
102
RTVSPropertyOp31
 70
     1
102
RTVSPropertyOp32
 70
     1
102
RTVSPropertyOp33
 70
     1
102
RTVSPropertyOp34
 70
     1
102
RTVSPropertyOp35
 70
     1
102
RTVSPropertyOp36
 70
     1
102
RTVSPropertyOp37
 70
     1
102
RTVSPropertyOp38
 70
     1
102
RTVSPropertyOp39
 70
     1
102
RTVSPropertyOp40
 70
     1
102
RTVSPropertyOp41
 70
     1
102
RTVSPropertyOp42
 70
     1
102
RTVSPropertyOp43
 70
     1
102
RTVSPropertyOp44
 70
     1
102
RTVSPropertyOp45
 70
     1
102
RTVSPropertyOp46
 70
     1
102
RTVSPropertyOp47
 70
     1
102
RTVSPropertyOp48
 70
     1
102
RTVSPropertyOp49
 70
     1
102
RTVSPropertyOp50
 70
     1
102
RTVSPropertyOp51
 70
     0
102
RTVSPropertyOp52
 70
     0
102
RTVSPropertyOp53
 70
     1
102
RTVSPropertyOp54
 70
     1
102
RTVSPropertyOp55
 70
     1
102
RTVSPropertyOp56
 70
     1
102
RTVSPropertyOp57
 70
     1
102
RTVSPropertyOp58
 70
     1
102
RTVSPropertyOp59
 70
     1
102
RTVSPropertyOp60
 70
     1
102
RTVSPropertyOp61
 70
     1
102
RTVSPropertyOp62
 70
     1
  0
XRECORD
  5
E9A
102
{ACAD_REACTORS
330
E99
102
}
330
E99
100
AcDbXrecord
280
     1
102
RTVSPost2010Prop28
280
     0
102
RTVSPost2010PropOp28
 70
     1
102
RTVSPost2010Prop29
280
     1
102
RTVSPost2010PropOp29
 70
     1
102
RTVSPost2010Prop30
280
     1
102
RTVSPost2010PropOp30
 70
     1
102
RTVSPost2010Prop31
280
     0
102
RTVSPost2010PropOp31
 70
     1
102
RTVSPost2010Prop32
280
     0
102
RTVSPost2010PropOp32
 70
     1
102
RTVSPost2010Prop33
280
     0
102
RTVSPost2010PropOp33
 70
     1
102
RTVSPost2010Prop34
280
     0
102
RTVSPost2010PropOp34
 70
     1
102
RTVSPost2010Prop35
280
     0
102
RTVSPost2010PropOp35
 70
     1
102
RTVSPost2010Prop36
280
     0
102
RTVSPost2010PropOp36
 70
     1
102
RTVSPost2010Prop37
 90
       50
102
RTVSPost2010PropOp37
 70
     1
102
RTVSPost2010Prop38
140
0.0
102
RTVSPost2010PropOp38
 70
     1
102
RTVSPost2010Prop39
140
1.0
102
RTVSPost2010PropOp39
 70
     1
102
RTVSPost2010Prop40
 90
        0
102
RTVSPost2010PropOp40
 70
     1
102
RTVSPost2010Prop41ColorIndex
 90
       18
102
RTVSPost2010Prop41ColorRGB
 90
        0
102
RTVSPost2010PropOp41
 70
     1
102
RTVSPost2010Prop42
 90
       50
102
RTVSPost2010PropOp42
 70
     1
102
RTVSPost2010Prop43
 90
        3
102
RTVSPost2010PropOp43
 70
     1
102
RTVSPost2010Prop44ColorIndex
 90
        5
102
RTVSPost2010Prop44ColorRGB
 90
      255
102
RTVSPost2010PropOp44
 70
     1
102
RTVSPost2010Prop45
280
     0
102
RTVSPost2010PropOp45
 70
     1
102
RTVSPost2010Prop46
 90
       50
102
RTVSPost2010PropOp46
 70
     1
102
RTVSPost2010Prop47
 90
       50
102
RTVSPost2010PropOp47
 70
     1
102
RTVSPost2010Prop48
 90
       50
102
RTVSPost2010PropOp48
 70
     1
102
RTVSPost2010Prop49
280
     0
102
RTVSPost2010PropOp49
 70
     1
102
RTVSPost2010Prop50
 90
       50
102
RTVSPost2010PropOp50
 70
     1
102
RTVSPost2010Prop51ColorIndex
 90
      256
102
RTVSPost2010Prop51ColorRGB
 90
-16777216
102
RTVSPost2010PropOp51
 70
     0
102
RTVSPost2010Prop52
140
1.0
102
RTVSPost2010PropOp52
 70
     0
102
RTVSPost2010Prop53
 90
        2
102
RTVSPost2010PropOp53
 70
     1
102
RTVSPost2010Prop54
  1
strokes_ogs.tif
102
RTVSPost2010PropOp54
 70
     1
102
RTVSPost2010Prop55
280
     0
102
RTVSPost2010PropOp55
 70
     1
102
RTVSPost2010Prop56
140
1.0
102
RTVSPost2010PropOp56
 70
     1
102
RTVSPost2010Prop57
140
1.0
102
RTVSPost2010PropOp57
 70
     1
102
RTVSPropertyOp0
 70
     1
102
RTVSPropertyOp1
 70
     1
102
RTVSPropertyOp2
 70
     1
102
RTVSPropertyOp3
 70
     1
102
RTVSPropertyOp4
 70
     1
102
RTVSPropertyOp5
 70
     1
102
RTVSPropertyOp6
 70
     1
102
RTVSPropertyOp7
 70
     1
102
RTVSPropertyOp8
 70
     1
102
RTVSPropertyOp9
 70
     1
102
RTVSPropertyOp10
 70
     1
102
RTVSPropertyOp11
 70
     1
102
RTVSPropertyOp12
 70
     1
102
RTVSPropertyOp13
 70
     1
102
RTVSPropertyOp14
 70
     1
102
RTVSPropertyOp15
 70
     1
102
RTVSPropertyOp16
 70
     1
102
RTVSPropertyOp17
 70
     1
102
RTVSPropertyOp18
 70
     1
102
RTVSPropertyOp19
 70
     1
102
RTVSPropertyOp20
 70
     1
102
RTVSPropertyOp21
 70
     1
102
RTVSPropertyOp22
 70
     1
102
RTVSPropertyOp23
 70
     1
102
RTVSPropertyOp24
 70
     1
102
RTVSPropertyOp25
 70
     1
102
RTVSPropertyOp26
 70
     1
102
RTVSPropertyOp27
 70
     1
102
RTVSPropertyOp28
 70
     1
102
RTVSPropertyOp29
 70
     1
102
RTVSPropertyOp30
 70
     1
102
RTVSPropertyOp31
 70
     1
102
RTVSPropertyOp32
 70
     1
102
RTVSPropertyOp33
 70
     1
102
RTVSPropertyOp34
 70
     1
102
RTVSPropertyOp35
 70
     1
102
RTVSPropertyOp36
 70
     1
102
RTVSPropertyOp37
 70
     1
102
RTVSPropertyOp38
 70
     1
102
RTVSPropertyOp39
 70
     1
102
RTVSPropertyOp40
 70
     1
102
RTVSPropertyOp41
 70
     1
102
RTVSPropertyOp42
 70
     1
102
RTVSPropertyOp43
 70
     1
102
RTVSPropertyOp44
 70
     1
102
RTVSPropertyOp45
 70
     1
102
RTVSPropertyOp46
 70
     1
102
RTVSPropertyOp47
 70
     1
102
RTVSPropertyOp48
 70
     1
102
RTVSPropertyOp49
 70
     1
102
RTVSPropertyOp50
 70
     1
102
RTVSPropertyOp51
 70
     0
102
RTVSPropertyOp52
 70
     0
102
RTVSPropertyOp53
 70
     1
102
RTVSPropertyOp54
 70
     1
102
RTVSPropertyOp55
 70
     1
102
RTVSPropertyOp56
 70
     1
102
RTVSPropertyOp57
 70
     1
102
RTVSPropertyOp58
 70
     1
102
RTVSPropertyOp59
 70
     1
102
RTVSPropertyOp60
 70
     1
102
RTVSPropertyOp61
 70
     1
102
RTVSPropertyOp62
 70
     1
  0
XRECORD
  5
E90
102
{ACAD_REACTORS
330
E8F
102
}
330
E8F
100
AcDbXrecord
280
     1
102
RTVSPost2010Prop28
280
     0
102
RTVSPost2010PropOp28
 70
     1
102
RTVSPost2010Prop29
280
     1
102
RTVSPost2010PropOp29
 70
     1
102
RTVSPost2010Prop30
280
     1
102
RTVSPost2010PropOp30
 70
     1
102
RTVSPost2010Prop31
280
     0
102
RTVSPost2010PropOp31
 70
     1
102
RTVSPost2010Prop32
280
     0
102
RTVSPost2010PropOp32
 70
     1
102
RTVSPost2010Prop33
280
     0
102
RTVSPost2010PropOp33
 70
     1
102
RTVSPost2010Prop34
280
     0
102
RTVSPost2010PropOp34
 70
     1
102
RTVSPost2010Prop35
280
     0
102
RTVSPost2010PropOp35
 70
     1
102
RTVSPost2010Prop36
280
     0
102
RTVSPost2010PropOp36
 70
     1
102
RTVSPost2010Prop37
 90
       50
102
RTVSPost2010PropOp37
 70
     1
102
RTVSPost2010Prop38
140
0.0
102
RTVSPost2010PropOp38
 70
     1
102
RTVSPost2010Prop39
140
1.0
102
RTVSPost2010PropOp39
 70
     1
102
RTVSPost2010Prop40
 90
        0
102
RTVSPost2010PropOp40
 70
     1
102
RTVSPost2010Prop41ColorIndex
 90
       18
102
RTVSPost2010Prop41ColorRGB
 90
        0
102
RTVSPost2010PropOp41
 70
     1
102
RTVSPost2010Prop42
 90
       50
102
RTVSPost2010PropOp42
 70
     1
102
RTVSPost2010Prop43
 90
        3
102
RTVSPost2010PropOp43
 70
     1
102
RTVSPost2010Prop44ColorIndex
 90
        5
102
RTVSPost2010Prop44ColorRGB
 90
      255
102
RTVSPost2010PropOp44
 70
     1
102
RTVSPost2010Prop45
280
     0
102
RTVSPost2010PropOp45
 70
     1
102
RTVSPost2010Prop46
 90
       50
102
RTVSPost2010PropOp46
 70
     1
102
RTVSPost2010Prop47
 90
       50
102
RTVSPost2010PropOp47
 70
     1
102
RTVSPost2010Prop48
 90
       50
102
RTVSPost2010PropOp48
 70
     1
102
RTVSPost2010Prop49
280
     0
102
RTVSPost2010PropOp49
 70
     1
102
RTVSPost2010Prop50
 90
       50
102
RTVSPost2010PropOp50
 70
     1
102
RTVSPost2010Prop51ColorIndex
 90
      256
102
RTVSPost2010Prop51ColorRGB
 90
-16777216
102
RTVSPost2010PropOp51
 70
     0
102
RTVSPost2010Prop52
140
1.0
102
RTVSPost2010PropOp52
 70
     0
102
RTVSPost2010Prop53
 90
        2
102
RTVSPost2010PropOp53
 70
     1
102
RTVSPost2010Prop54
  1
strokes_ogs.tif
102
RTVSPost2010PropOp54
 70
     1
102
RTVSPost2010Prop55
280
     0
102
RTVSPost2010PropOp55
 70
     1
102
RTVSPost2010Prop56
140
1.0
102
RTVSPost2010PropOp56
 70
     1
102
RTVSPost2010Prop57
140
1.0
102
RTVSPost2010PropOp57
 70
     1
102
RTVSPropertyOp0
 70
     1
102
RTVSPropertyOp1
 70
     1
102
RTVSPropertyOp2
 70
     1
102
RTVSPropertyOp3
 70
     1
102
RTVSPropertyOp4
 70
     1
102
RTVSPropertyOp5
 70
     1
102
RTVSPropertyOp6
 70
     1
102
RTVSPropertyOp7
 70
     1
102
RTVSPropertyOp8
 70
     1
102
RTVSPropertyOp9
 70
     1
102
RTVSPropertyOp10
 70
     1
102
RTVSPropertyOp11
 70
     1
102
RTVSPropertyOp12
 70
     1
102
RTVSPropertyOp13
 70
     1
102
RTVSPropertyOp14
 70
     1
102
RTVSPropertyOp15
 70
     1
102
RTVSPropertyOp16
 70
     1
102
RTVSPropertyOp17
 70
     1
102
RTVSPropertyOp18
 70
     1
102
RTVSPropertyOp19
 70
     1
102
RTVSPropertyOp20
 70
     1
102
RTVSPropertyOp21
 70
     1
102
RTVSPropertyOp22
 70
     1
102
RTVSPropertyOp23
 70
     1
102
RTVSPropertyOp24
 70
     1
102
RTVSPropertyOp25
 70
     1
102
RTVSPropertyOp26
 70
     1
102
RTVSPropertyOp27
 70
     1
102
RTVSPropertyOp28
 70
     1
102
RTVSPropertyOp29
 70
     1
102
RTVSPropertyOp30
 70
     1
102
RTVSPropertyOp31
 70
     1
102
RTVSPropertyOp32
 70
     1
102
RTVSPropertyOp33
 70
     1
102
RTVSPropertyOp34
 70
     1
102
RTVSPropertyOp35
 70
     1
102
RTVSPropertyOp36
 70
     1
102
RTVSPropertyOp37
 70
     1
102
RTVSPropertyOp38
 70
     1
102
RTVSPropertyOp39
 70
     1
102
RTVSPropertyOp40
 70
     1
102
RTVSPropertyOp41
 70
     1
102
RTVSPropertyOp42
 70
     1
102
RTVSPropertyOp43
 70
     1
102
RTVSPropertyOp44
 70
     1
102
RTVSPropertyOp45
 70
     1
102
RTVSPropertyOp46
 70
     1
102
RTVSPropertyOp47
 70
     1
102
RTVSPropertyOp48
 70
     1
102
RTVSPropertyOp49
 70
     1
102
RTVSPropertyOp50
 70
     1
102
RTVSPropertyOp51
 70
     0
102
RTVSPropertyOp52
 70
     0
102
RTVSPropertyOp53
 70
     1
102
RTVSPropertyOp54
 70
     1
102
RTVSPropertyOp55
 70
     1
102
RTVSPropertyOp56
 70
     1
102
RTVSPropertyOp57
 70
     1
102
RTVSPropertyOp58
 70
     1
102
RTVSPropertyOp59
 70
     1
102
RTVSPropertyOp60
 70
     1
102
RTVSPropertyOp61
 70
     1
102
RTVSPropertyOp62
 70
     1
  0
XRECORD
  5
E84
102
{ACAD_REACTORS
330
E83
102
}
330
E83
100
AcDbXrecord
280
     1
102
RTVSPost2010Prop28
280
     0
102
RTVSPost2010PropOp28
 70
     1
102
RTVSPost2010Prop29
280
     1
102
RTVSPost2010PropOp29
 70
     1
102
RTVSPost2010Prop30
280
     1
102
RTVSPost2010PropOp30
 70
     1
102
RTVSPost2010Prop31
280
     0
102
RTVSPost2010PropOp31
 70
     1
102
RTVSPost2010Prop32
280
     0
102
RTVSPost2010PropOp32
 70
     1
102
RTVSPost2010Prop33
280
     0
102
RTVSPost2010PropOp33
 70
     1
102
RTVSPost2010Prop34
280
     0
102
RTVSPost2010PropOp34
 70
     1
102
RTVSPost2010Prop35
280
     0
102
RTVSPost2010PropOp35
 70
     1
102
RTVSPost2010Prop36
280
     0
102
RTVSPost2010PropOp36
 70
     1
102
RTVSPost2010Prop37
 90
       50
102
RTVSPost2010PropOp37
 70
     1
102
RTVSPost2010Prop38
140
0.0
102
RTVSPost2010PropOp38
 70
     1
102
RTVSPost2010Prop39
140
1.0
102
RTVSPost2010PropOp39
 70
     1
102
RTVSPost2010Prop40
 90
        0
102
RTVSPost2010PropOp40
 70
     1
102
RTVSPost2010Prop41ColorIndex
 90
       18
102
RTVSPost2010Prop41ColorRGB
 90
        0
102
RTVSPost2010PropOp41
 70
     1
102
RTVSPost2010Prop42
 90
       50
102
RTVSPost2010PropOp42
 70
     1
102
RTVSPost2010Prop43
 90
        3
102
RTVSPost2010PropOp43
 70
     1
102
RTVSPost2010Prop44ColorIndex
 90
        5
102
RTVSPost2010Prop44ColorRGB
 90
      255
102
RTVSPost2010PropOp44
 70
     1
102
RTVSPost2010Prop45
280
     0
102
RTVSPost2010PropOp45
 70
     1
102
RTVSPost2010Prop46
 90
       50
102
RTVSPost2010PropOp46
 70
     1
102
RTVSPost2010Prop47
 90
       50
102
RTVSPost2010PropOp47
 70
     1
102
RTVSPost2010Prop48
 90
       50
102
RTVSPost2010PropOp48
 70
     1
102
RTVSPost2010Prop49
280
     0
102
RTVSPost2010PropOp49
 70
     1
102
RTVSPost2010Prop50
 90
       50
102
RTVSPost2010PropOp50
 70
     1
102
RTVSPost2010Prop51ColorIndex
 90
      256
102
RTVSPost2010Prop51ColorRGB
 90
-16777216
102
RTVSPost2010PropOp51
 70
     0
102
RTVSPost2010Prop52
140
1.0
102
RTVSPost2010PropOp52
 70
     0
102
RTVSPost2010Prop53
 90
        2
102
RTVSPost2010PropOp53
 70
     1
102
RTVSPost2010Prop54
  1
strokes_ogs.tif
102
RTVSPost2010PropOp54
 70
     1
102
RTVSPost2010Prop55
280
     0
102
RTVSPost2010PropOp55
 70
     1
102
RTVSPost2010Prop56
140
1.0
102
RTVSPost2010PropOp56
 70
     1
102
RTVSPost2010Prop57
140
1.0
102
RTVSPost2010PropOp57
 70
     1
102
RTVSPropertyOp0
 70
     1
102
RTVSPropertyOp1
 70
     1
102
RTVSPropertyOp2
 70
     1
102
RTVSPropertyOp3
 70
     1
102
RTVSPropertyOp4
 70
     1
102
RTVSPropertyOp5
 70
     1
102
RTVSPropertyOp6
 70
     1
102
RTVSPropertyOp7
 70
     1
102
RTVSPropertyOp8
 70
     1
102
RTVSPropertyOp9
 70
     1
102
RTVSPropertyOp10
 70
     1
102
RTVSPropertyOp11
 70
     1
102
RTVSPropertyOp12
 70
     1
102
RTVSPropertyOp13
 70
     1
102
RTVSPropertyOp14
 70
     1
102
RTVSPropertyOp15
 70
     1
102
RTVSPropertyOp16
 70
     1
102
RTVSPropertyOp17
 70
     1
102
RTVSPropertyOp18
 70
     1
102
RTVSPropertyOp19
 70
     1
102
RTVSPropertyOp20
 70
     1
102
RTVSPropertyOp21
 70
     1
102
RTVSPropertyOp22
 70
     1
102
RTVSPropertyOp23
 70
     1
102
RTVSPropertyOp24
 70
     1
102
RTVSPropertyOp25
 70
     1
102
RTVSPropertyOp26
 70
     1
102
RTVSPropertyOp27
 70
     1
102
RTVSPropertyOp28
 70
     1
102
RTVSPropertyOp29
 70
     1
102
RTVSPropertyOp30
 70
     1
102
RTVSPropertyOp31
 70
     1
102
RTVSPropertyOp32
 70
     1
102
RTVSPropertyOp33
 70
     1
102
RTVSPropertyOp34
 70
     1
102
RTVSPropertyOp35
 70
     1
102
RTVSPropertyOp36
 70
     1
102
RTVSPropertyOp37
 70
     1
102
RTVSPropertyOp38
 70
     1
102
RTVSPropertyOp39
 70
     1
102
RTVSPropertyOp40
 70
     1
102
RTVSPropertyOp41
 70
     1
102
RTVSPropertyOp42
 70
     1
102
RTVSPropertyOp43
 70
     1
102
RTVSPropertyOp44
 70
     1
102
RTVSPropertyOp45
 70
     1
102
RTVSPropertyOp46
 70
     1
102
RTVSPropertyOp47
 70
     1
102
RTVSPropertyOp48
 70
     1
102
RTVSPropertyOp49
 70
     1
102
RTVSPropertyOp50
 70
     1
102
RTVSPropertyOp51
 70
     0
102
RTVSPropertyOp52
 70
     0
102
RTVSPropertyOp53
 70
     1
102
RTVSPropertyOp54
 70
     1
102
RTVSPropertyOp55
 70
     1
102
RTVSPropertyOp56
 70
     1
102
RTVSPropertyOp57
 70
     1
102
RTVSPropertyOp58
 70
     1
102
RTVSPropertyOp59
 70
     1
102
RTVSPropertyOp60
 70
     1
102
RTVSPropertyOp61
 70
     1
102
RTVSPropertyOp62
 70
     1
  0
XRECORD
  5
E9C
102
{ACAD_REACTORS
330
E9B
102
}
330
E9B
100
AcDbXrecord
280
     1
102
RTVSPost2010Prop28
280
     0
102
RTVSPost2010PropOp28
 70
     1
102
RTVSPost2010Prop29
280
     1
102
RTVSPost2010PropOp29
 70
     1
102
RTVSPost2010Prop30
280
     1
102
RTVSPost2010PropOp30
 70
     1
102
RTVSPost2010Prop31
280
     0
102
RTVSPost2010PropOp31
 70
     1
102
RTVSPost2010Prop32
280
     0
102
RTVSPost2010PropOp32
 70
     1
102
RTVSPost2010Prop33
280
     0
102
RTVSPost2010PropOp33
 70
     1
102
RTVSPost2010Prop34
280
     0
102
RTVSPost2010PropOp34
 70
     1
102
RTVSPost2010Prop35
280
     0
102
RTVSPost2010PropOp35
 70
     1
102
RTVSPost2010Prop36
280
     0
102
RTVSPost2010PropOp36
 70
     1
102
RTVSPost2010Prop37
 90
       50
102
RTVSPost2010PropOp37
 70
     1
102
RTVSPost2010Prop38
140
0.0
102
RTVSPost2010PropOp38
 70
     1
102
RTVSPost2010Prop39
140
1.0
102
RTVSPost2010PropOp39
 70
     1
102
RTVSPost2010Prop40
 90
        0
102
RTVSPost2010PropOp40
 70
     1
102
RTVSPost2010Prop41ColorIndex
 90
       18
102
RTVSPost2010Prop41ColorRGB
 90
        0
102
RTVSPost2010PropOp41
 70
     1
102
RTVSPost2010Prop42
 90
       50
102
RTVSPost2010PropOp42
 70
     1
102
RTVSPost2010Prop43
 90
        3
102
RTVSPost2010PropOp43
 70
     1
102
RTVSPost2010Prop44ColorIndex
 90
        5
102
RTVSPost2010Prop44ColorRGB
 90
      255
102
RTVSPost2010PropOp44
 70
     1
102
RTVSPost2010Prop45
280
     0
102
RTVSPost2010PropOp45
 70
     1
102
RTVSPost2010Prop46
 90
       50
102
RTVSPost2010PropOp46
 70
     1
102
RTVSPost2010Prop47
 90
       50
102
RTVSPost2010PropOp47
 70
     1
102
RTVSPost2010Prop48
 90
       50
102
RTVSPost2010PropOp48
 70
     1
102
RTVSPost2010Prop49
280
     0
102
RTVSPost2010PropOp49
 70
     1
102
RTVSPost2010Prop50
 90
       50
102
RTVSPost2010PropOp50
 70
     1
102
RTVSPost2010Prop51ColorIndex
 90
      256
102
RTVSPost2010Prop51ColorRGB
 90
-16777216
102
RTVSPost2010PropOp51
 70
     0
102
RTVSPost2010Prop52
140
1.0
102
RTVSPost2010PropOp52
 70
     0
102
RTVSPost2010Prop53
 90
        2
102
RTVSPost2010PropOp53
 70
     1
102
RTVSPost2010Prop54
  1
strokes_ogs.tif
102
RTVSPost2010PropOp54
 70
     1
102
RTVSPost2010Prop55
280
     0
102
RTVSPost2010PropOp55
 70
     1
102
RTVSPost2010Prop56
140
1.0
102
RTVSPost2010PropOp56
 70
     1
102
RTVSPost2010Prop57
140
1.0
102
RTVSPost2010PropOp57
 70
     1
102
RTVSPropertyOp0
 70
     1
102
RTVSPropertyOp1
 70
     1
102
RTVSPropertyOp2
 70
     1
102
RTVSPropertyOp3
 70
     1
102
RTVSPropertyOp4
 70
     1
102
RTVSPropertyOp5
 70
     1
102
RTVSPropertyOp6
 70
     1
102
RTVSPropertyOp7
 70
     1
102
RTVSPropertyOp8
 70
     1
102
RTVSPropertyOp9
 70
     1
102
RTVSPropertyOp10
 70
     1
102
RTVSPropertyOp11
 70
     1
102
RTVSPropertyOp12
 70
     1
102
RTVSPropertyOp13
 70
     1
102
RTVSPropertyOp14
 70
     1
102
RTVSPropertyOp15
 70
     1
102
RTVSPropertyOp16
 70
     1
102
RTVSPropertyOp17
 70
     1
102
RTVSPropertyOp18
 70
     1
102
RTVSPropertyOp19
 70
     1
102
RTVSPropertyOp20
 70
     1
102
RTVSPropertyOp21
 70
     1
102
RTVSPropertyOp22
 70
     1
102
RTVSPropertyOp23
 70
     1
102
RTVSPropertyOp24
 70
     1
102
RTVSPropertyOp25
 70
     1
102
RTVSPropertyOp26
 70
     1
102
RTVSPropertyOp27
 70
     1
102
RTVSPropertyOp28
 70
     1
102
RTVSPropertyOp29
 70
     1
102
RTVSPropertyOp30
 70
     1
102
RTVSPropertyOp31
 70
     1
102
RTVSPropertyOp32
 70
     1
102
RTVSPropertyOp33
 70
     1
102
RTVSPropertyOp34
 70
     1
102
RTVSPropertyOp35
 70
     1
102
RTVSPropertyOp36
 70
     1
102
RTVSPropertyOp37
 70
     1
102
RTVSPropertyOp38
 70
     1
102
RTVSPropertyOp39
 70
     1
102
RTVSPropertyOp40
 70
     1
102
RTVSPropertyOp41
 70
     1
102
RTVSPropertyOp42
 70
     1
102
RTVSPropertyOp43
 70
     1
102
RTVSPropertyOp44
 70
     1
102
RTVSPropertyOp45
 70
     1
102
RTVSPropertyOp46
 70
     1
102
RTVSPropertyOp47
 70
     1
102
RTVSPropertyOp48
 70
     1
102
RTVSPropertyOp49
 70
     1
102
RTVSPropertyOp50
 70
     1
102
RTVSPropertyOp51
 70
     0
102
RTVSPropertyOp52
 70
     0
102
RTVSPropertyOp53
 70
     1
102
RTVSPropertyOp54
 70
     1
102
RTVSPropertyOp55
 70
     1
102
RTVSPropertyOp56
 70
     1
102
RTVSPropertyOp57
 70
     1
102
RTVSPropertyOp58
 70
     1
102
RTVSPropertyOp59
 70
     1
102
RTVSPropertyOp60
 70
     1
102
RTVSPropertyOp61
 70
     1
102
RTVSPropertyOp62
 70
     1
  0
ENDSEC
  0
EOF
