  0
SECTION
  2
HEADER
  9
$ACADVER
  1
AC1015
  9
$ACADMAINTVER
 70
     6
  9
$DWGCODEPAGE
  3
ANSI_932
  9
$INSBASE
 10
0.0
 20
0.0
 30
0.0
  9
$EXTMIN
 10
50.92753886864676
 20
102.8035455586796
 30
0.0
  9
$EXTMAX
 10
378.4618231420593
 20
239.4189512025632
 30
0.0
  9
$LIMMIN
 10
0.0
 20
0.0
  9
$LIMMAX
 10
420.0
 20
297.0
  9
$ORTHOMODE
 70
     0
  9
$REGENMODE
 70
     1
  9
$FILLMODE
 70
     1
  9
$QTEXTMODE
 70
     0
  9
$MIRRTEXT
 70
     1
  9
$LTSCALE
 40
1.0
  9
$ATTMODE
 70
     1
  9
$TEXTSIZE
 40
2.5
  9
$TRACEWID
 40
1.0
  9
$TEXTSTYLE
  7
ＭＳ 明朝
  9
$CLAYER
  8
0
  9
$CELTYPE
  6
ByLayer
  9
$CECOLOR
 62
   256
  9
$CELTSCALE
 40
1.0
  9
$DISPSILH
 70
     0
  9
$DIMSCALE
 40
1.0
  9
$DIMASZ
 40
2.0
  9
$DIMEXO
 40
1.0
  9
$DIMDLI
 40
10.0
  9
$DIMRND
 40
0.0
  9
$DIMDLE
 40
6.0
  9
$DIMEXE
 40
1.0
  9
$DIMTP
 40
0.0
  9
$DIMTM
 40
0.0
  9
$DIMTXT
 40
4.0
  9
$DIMCEN
 40
2.5
  9
$DIMTSZ
 40
0.0
  9
$DIMTOL
 70
     0
  9
$DIMLIM
 70
     0
  9
$DIMTIH
 70
     0
  9
$DIMTOH
 70
     0
  9
$DIMSE1
 70
     0
  9
$DIMSE2
 70
     0
  9
$DIMTAD
 70
     1
  9
$DIMZIN
 70
     8
  9
$DIMBLK
  1

  9
$DIMASO
 70
     1
  9
$DIMSHO
 70
     1
  9
$DIMPOST
  1

  9
$DIMAPOST
  1

  9
$DIMALT
 70
     0
  9
$DIMALTD
 70
     3
  9
$DIMALTF
 40
0.03937
  9
$DIMLFAC
 40
1.0
  9
$DIMTOFL
 70
     1
  9
$DIMTVP
 40
0.0
  9
$DIMTIX
 70
     0
  9
$DIMSOXD
 70
     0
  9
$DIMSAH
 70
     1
  9
$DIMBLK1
  1
FXTIP_ARROW_S
  9
$DIMBLK2
  1
FXTIP_ARROW_E
  9
$DIMSTYLE
  2
FX_DIMINFO
  9
$DIMCLRD
 70
     0
  9
$DIMCLRE
 70
     0
  9
$DIMCLRT
 70
     0
  9
$DIMTFAC
 40
1.0
  9
$DIMGAP
 40
1.0
  9
$DIMJUST
 70
     0
  9
$DIMSD1
 70
     0
  9
$DIMSD2
 70
     0
  9
$DIMTOLJ
 70
     1
  9
$DIMTZIN
 70
     8
  9
$DIMALTZ
 70
     0
  9
$DIMALTTZ
 70
     0
  9
$DIMUPT
 70
     0
  9
$DIMDEC
 70
     2
  9
$DIMTDEC
 70
     2
  9
$DIMALTU
 70
     2
  9
$DIMALTTD
 70
     3
  9
$DIMTXSTY
  7
ＭＳ 明朝
  9
$DIMAUNIT
 70
     0
  9
$DIMADEC
 70
     2
  9
$DIMALTRND
 40
0.0
  9
$DIMAZIN
 70
     2
  9
$DIMDSEP
 70
    46
  9
$DIMATFIT
 70
     3
  9
$DIMFRAC
 70
     0
  9
$DIMLDRBLK
  1
FXTIP_ARROW_S
  9
$DIMLUNIT
 70
     2
  9
$DIMLWD
 70
    -2
  9
$DIMLWE
 70
    -2
  9
$DIMTMOVE
 70
     0
  9
$LUNITS
 70
     2
  9
$LUPREC
 70
     4
  9
$SKETCHINC
 40
1.0
  9
$FILLETRAD
 40
10.0
  9
$AUNITS
 70
     0
  9
$AUPREC
 70
     0
  9
$MENU
  1
.
  9
$ELEVATION
 40
0.0
  9
$PELEVATION
 40
0.0
  9
$THICKNESS
 40
0.0
  9
$LIMCHECK
 70
     0
  9
$CHAMFERA
 40
0.0
  9
$CHAMFERB
 40
0.0
  9
$CHAMFERC
 40
0.0
  9
$CHAMFERD
 40
0.0
  9
$SKPOLY
 70
     0
  9
$TDCREATE
 40
2458388.461360116
  9
$TDUCREATE
 40
2458388.086360116
  9
$TDUPDATE
 40
2459209.43636022
  9
$TDUUPDATE
 40
2459209.06136022
  9
$TDINDWG
 40
0.0099497685
  9
$TDUSRTIMER
 40
0.0016486458
  9
$USRTIMER
 70
     1
  9
$ANGBASE
 50
0.0
  9
$ANGDIR
 70
     0
  9
$PDMODE
 70
     0
  9
$PDSIZE
 40
0.0
  9
$PLINEWID
 40
0.0
  9
$SPLFRAME
 70
     0
  9
$SPLINETYPE
 70
     6
  9
$SPLINESEGS
 70
     8
  9
$HANDSEED
  5
628
  9
$SURFTAB1
 70
     6
  9
$SURFTAB2
 70
     6
  9
$SURFTYPE
 70
     6
  9
$SURFU
 70
     6
  9
$SURFV
 70
     6
  9
$UCSBASE
  2

  9
$UCSNAME
  2

  9
$UCSORG
 10
0.0
 20
0.0
 30
0.0
  9
$UCSXDIR
 10
1.0
 20
0.0
 30
0.0
  9
$UCSYDIR
 10
0.0
 20
1.0
 30
0.0
  9
$UCSORTHOREF
  2

  9
$UCSORTHOVIEW
 70
     0
  9
$UCSORGTOP
 10
0.0
 20
0.0
 30
0.0
  9
$UCSORGBOTTOM
 10
0.0
 20
0.0
 30
0.0
  9
$UCSORGLEFT
 10
0.0
 20
0.0
 30
0.0
  9
$UCSORGRIGHT
 10
0.0
 20
0.0
 30
0.0
  9
$UCSORGFRONT
 10
0.0
 20
0.0
 30
0.0
  9
$UCSORGBACK
 10
0.0
 20
0.0
 30
0.0
  9
$PUCSBASE
  2

  9
$PUCSNAME
  2

  9
$PUCSORG
 10
0.0
 20
0.0
 30
0.0
  9
$PUCSXDIR
 10
1.0
 20
0.0
 30
0.0
  9
$PUCSYDIR
 10
0.0
 20
1.0
 30
0.0
  9
$PUCSORTHOREF
  2

  9
$PUCSORTHOVIEW
 70
     0
  9
$PUCSORGTOP
 10
0.0
 20
0.0
 30
0.0
  9
$PUCSORGBOTTOM
 10
0.0
 20
0.0
 30
0.0
  9
$PUCSORGLEFT
 10
0.0
 20
0.0
 30
0.0
  9
$PUCSORGRIGHT
 10
0.0
 20
0.0
 30
0.0
  9
$PUCSORGFRONT
 10
0.0
 20
0.0
 30
0.0
  9
$PUCSORGBACK
 10
0.0
 20
0.0
 30
0.0
  9
$USERI1
 70
     0
  9
$USERI2
 70
     0
  9
$USERI3
 70
     0
  9
$USERI4
 70
     0
  9
$USERI5
 70
     0
  9
$USERR1
 40
0.0
  9
$USERR2
 40
0.0
  9
$USERR3
 40
0.0
  9
$USERR4
 40
0.0
  9
$USERR5
 40
0.0
  9
$WORLDVIEW
 70
     1
  9
$SHADEDGE
 70
     3
  9
$SHADEDIF
 70
    70
  9
$TILEMODE
 70
     1
  9
$MAXACTVP
 70
    64
  9
$PINSBASE
 10
0.0
 20
0.0
 30
0.0
  9
$PLIMCHECK
 70
     0
  9
$PEXTMIN
 10
1.000000000000000E+20
 20
1.000000000000000E+20
 30
1.000000000000000E+20
  9
$PEXTMAX
 10
-1.000000000000000E+20
 20
-1.000000000000000E+20
 30
-1.000000000000000E+20
  9
$PLIMMIN
 10
0.0
 20
0.0
  9
$PLIMMAX
 10
0.0
 20
0.0
  9
$UNITMODE
 70
     0
  9
$VISRETAIN
 70
     1
  9
$PLINEGEN
 70
     0
  9
$PSLTSCALE
 70
     1
  9
$TREEDEPTH
 70
  3020
  9
$CMLSTYLE
  2
Standard
  9
$CMLJUST
 70
     0
  9
$CMLSCALE
 40
20.0
  9
$PROXYGRAPHICS
 70
     1
  9
$MEASUREMENT
 70
     1
  9
$CELWEIGHT
370
    -1
  9
$ENDCAPS
280
     0
  9
$JOINSTYLE
280
     0
  9
$LWDISPLAY
290
     0
  9
$INSUNITS
 70
     4
  9
$HYPERLINKBASE
  1

  9
$STYLESHEET
  1

  9
$XEDIT
290
     1
  9
$CEPSNTYPE
380
     0
  9
$PSTYLEMODE
290
     1
  9
$FINGERPRINTGUID
  2
{AFBC066D-C1CE-4E3D-99CB-132E8FAD7647}
  9
$VERSIONGUID
  2
{FAEB1C32-E019-11D5-929B-00C0DF256EC4}
  9
$EXTNAMES
290
     1
  9
$PSVPSCALE
 40
0.0
  9
$OLESTARTUP
290
     0
  0
ENDSEC
  0
SECTION
  2
CLASSES
  0
CLASS
  1
ACDBDICTIONARYWDFLT
  2
AcDbDictionaryWithDefault
  3
ObjectDBX Classes
 90
        0
280
     0
281
     0
  0
CLASS
  1
VISUALSTYLE
  2
AcDbVisualStyle
  3
ObjectDBX Classes
 90
     4095
280
     0
281
     0
  0
CLASS
  1
MATERIAL
  2
AcDbMaterial
  3
ObjectDBX Classes
 90
     1153
280
     0
281
     0
  0
CLASS
  1
SCALE
  2
AcDbScale
  3
ObjectDBX Classes
 90
     1153
280
     0
281
     0
  0
CLASS
  1
TABLESTYLE
  2
AcDbTableStyle
  3
ObjectDBX Classes
 90
     4095
280
     0
281
     0
  0
CLASS
  1
MLEADERSTYLE
  2
AcDbMLeaderStyle
  3
ACDB_MLEADERSTYLE_CLASS
 90
     4095
280
     0
281
     0
  0
CLASS
  1
SUN
  2
AcDbSun
  3
SCENEOE
 90
     1153
280
     0
281
     0
  0
CLASS
  1
DICTIONARYVAR
  2
AcDbDictionaryVar
  3
ObjectDBX Classes
 90
        0
280
     0
281
     0
  0
CLASS
  1
ACDBPLACEHOLDER
  2
AcDbPlaceHolder
  3
ObjectDBX Classes
 90
        0
280
     0
281
     0
  0
CLASS
  1
LAYOUT
  2
AcDbLayout
  3
ObjectDBX Classes
 90
        0
280
     0
281
     0
  0
CLASS
  1
DIMASSOC
  2
AcDbDimAssoc
  3
"AcDbDimAssoc|Product Desc:     AcDim ARX App For Dimension|Company:          Autodesk, Inc.|WEB Address:      www.autodesk.com"
 90
        0
280
     0
281
     0
  0
ENDSEC
  0
SECTION
  2
TABLES
  0
TABLE
  2
VPORT
  5
8
330
0
100
AcDbSymbolTable
 70
     1
  0
VPORT
  5
29
330
8
100
AcDbSymbolTableRecord
100
AcDbViewportTableRecord
  2
*Active
 70
     0
 10
0.0
 20
0.0
 11
1.0
 21
1.0
 12
281.948621370087
 22
195.7272951910649
 13
0.0
 23
0.0
 14
10.0
 24
10.0
 15
10.0
 25
10.0
 16
0.0
 26
0.0
 36
1.0
 17
0.0
 27
0.0
 37
0.0
 40
466.3259302899885
 41
2.180305131761441
 42
50.0
 43
0.0
 44
0.0
 50
0.0
 51
0.0
 71
    16
 72
   100
 73
     1
 74
     3
 75
     0
 76
     0
 77
     0
 78
     0
281
     0
 65
     1
110
0.0
120
0.0
130
0.0
111
1.0
121
0.0
131
0.0
112
0.0
122
1.0
132
0.0
 79
     0
146
0.0
  0
ENDTAB
  0
TABLE
  2
LTYPE
  5
5
330
0
100
AcDbSymbolTable
 70
     4
  0
LTYPE
  5
14
330
5
100
AcDbSymbolTableRecord
100
AcDbLinetypeTableRecord
  2
ByBlock
 70
     0
  3

 72
    65
 73
     0
 40
0.0
  0
LTYPE
  5
15
330
5
100
AcDbSymbolTableRecord
100
AcDbLinetypeTableRecord
  2
ByLayer
 70
     0
  3

 72
    65
 73
     0
 40
0.0
  0
LTYPE
  5
16
330
5
100
AcDbSymbolTableRecord
100
AcDbLinetypeTableRecord
  2
Continuous
 70
     0
  3
Continuous ___________________________________
 72
    65
 73
     0
 40
0.0
  0
LTYPE
  5
6E
330
5
100
AcDbSymbolTableRecord
100
AcDbLinetypeTableRecord
  2
DASHDOT
 70
     0
  3
Dash dot __ . __ . __ . __ . __ . __ . __ . __
 72
    65
 73
     4
 40
13.0
 49
10.0
 74
     0
 49
-1.0
 74
     0
 49
1.0
 74
     0
 49
-1.0
 74
     0
  0
LTYPE
  5
71
330
5
100
AcDbSymbolTableRecord
100
AcDbLinetypeTableRecord
  2
DASHED
 70
     0
  3
Dashed __ __ __ __ __ __ __ __ __ __ __ __ __ _
 72
    65
 73
     2
 40
4.0
 49
3.0
 74
     0
 49
-1.0
 74
     0
  0
LTYPE
  5
4A7
330
5
100
AcDbSymbolTableRecord
100
AcDbLinetypeTableRecord
  2
DASH_CENTER
 70
     0
  3
Dash_Center
 72
    65
 73
     4
 40
14.0
 49
11.0
 74
     0
 49
-1.0
 74
     0
 49
1.0
 74
     0
 49
-1.0
 74
     0
  0
ENDTAB
  0
TABLE
  2
LAYER
  5
2
330
0
100
AcDbSymbolTable
 70
     6
  0
LAYER
  5
10
330
2
100
AcDbSymbolTableRecord
100
AcDbLayerTableRecord
  2
0
 70
     0
 62
     7
  6
Continuous
370
    -3
390
F
  0
LAYER
  5
E0
330
2
100
AcDbSymbolTableRecord
100
AcDbLayerTableRecord
  2
Defpoints
 70
     0
 62
     7
  6
Continuous
290
     0
370
    -3
390
F
  0
LAYER
  5
E2
330
2
100
AcDbSymbolTableRecord
100
AcDbLayerTableRecord
  2
作図レイヤ
 70
     0
 62
     7
  6
Continuous
370
    -3
390
F
  0
LAYER
  5
4A3
330
2
100
AcDbSymbolTableRecord
100
AcDbLayerTableRecord
  2
1
 70
     0
 62
     7
  6
Continuous
370
    -3
390
F
  0
LAYER
  5
4A5
330
2
100
AcDbSymbolTableRecord
100
AcDbLayerTableRecord
  2
PV
 70
     0
 62
     7
  6
Continuous
370
    -3
390
F
  0
LAYER
  5
4A6
330
2
100
AcDbSymbolTableRecord
100
AcDbLayerTableRecord
  2
RV
 70
     0
 62
     7
  6
Continuous
370
    -3
390
F
  0
ENDTAB
  0
TABLE
  2
STYLE
  5
3
330
0
100
AcDbSymbolTable
 70
     5
  0
STYLE
  5
11
330
3
100
AcDbSymbolTableRecord
100
AcDbTextStyleTableRecord
  2
Standard
 70
     0
 40
0.0
 41
1.0
 50
0.0
 71
     0
 42
2.5
  3
txt
  4

  0
STYLE
  5
74
330
3
100
AcDbSymbolTableRecord
100
AcDbTextStyleTableRecord
  2
FX_VECTOR
 70
     0
 40
0.0
 41
1.0
 50
0.0
 71
     0
 42
2.5
  3
MONOTXT.SHX
  4
BigFont.shx
  0
STYLE
  5
DF
330
3
100
AcDbSymbolTableRecord
100
AcDbTextStyleTableRecord
  2
ＭＳ 明朝
 70
     0
 40
0.0
 41
1.0
 50
0.0
 71
     0
 42
2.5
  3
msmincho.ttc
  4

1001
ACAD
1000
ＭＳ 明朝
1071
    32785
  0
STYLE
  5
E1
330
3
100
AcDbSymbolTableRecord
100
AcDbTextStyleTableRecord
  2
DEFAULT
 70
     0
 40
0.0
 41
1.0
 50
0.0
 71
     0
 42
2.5
  3
msgothic.ttc
  4

1001
ACAD
1000
ＭＳ ゴシック
1071
    32817
  0
STYLE
  5
4AB
330
3
100
AcDbSymbolTableRecord
100
AcDbTextStyleTableRecord
  2
CONVERTER_11
 70
     0
 40
0.0
 41
0.9
 50
0.0
 71
     0
 42
2.5
  3
txt.shx
  4

  0
ENDTAB
  0
TABLE
  2
VIEW
  5
6
330
0
100
AcDbSymbolTable
 70
     0
  0
ENDTAB
  0
TABLE
  2
UCS
  5
7
330
0
100
AcDbSymbolTable
 70
     0
  0
ENDTAB
  0
TABLE
  2
APPID
  5
9
330
0
100
AcDbSymbolTable
 70
     3
  0
APPID
  5
12
330
9
100
AcDbSymbolTableRecord
100
AcDbRegAppTableRecord
  2
ACAD
 70
     0
  0
APPID
  5
492
330
9
100
AcDbSymbolTableRecord
100
AcDbRegAppTableRecord
  2
ACAD_MLEADERVER
 70
     0
  0
APPID
  5
4A0
330
9
100
AcDbSymbolTableRecord
100
AcDbRegAppTableRecord
  2
PLOTTRANSPARENCY
 70
     0
  0
ENDTAB
  0
TABLE
  2
DIMSTYLE
  5
A
330
0
100
AcDbSymbolTable
 70
     8
100
AcDbDimStyleTable
  0
DIMSTYLE
105
27
330
A
100
AcDbSymbolTableRecord
100
AcDbDimStyleTableRecord
  2
ISO-25
 70
     0
 41
2.5
 42
0.625
 43
3.75
 44
1.25
 73
     0
 74
     0
 77
     1
 78
     8
140
2.5
141
2.5
143
0.03937007874016
147
0.625
171
     3
172
     1
178
     0
271
     2
272
     2
274
     3
278
    44
283
     0
284
     8
340
11
  0
DIMSTYLE
105
DE
102
{ACAD_REACTORS
330
1B3
330
1CA
330
1D4
330
1DD
330
1E7
330
5DB
330
1BD
102
}
330
A
100
AcDbSymbolTableRecord
100
AcDbDimStyleTableRecord
  2
FX_DIMINFO
 70
     0
 41
2.0
 42
1.0
 43
10.0
 44
1.0
 46
6.0
 73
     0
 74
     0
 77
     1
 78
     8
 79
     2
140
4.0
141
2.5
143
0.03937
147
1.0
171
     3
172
     1
173
     1
178
     0
179
     2
271
     2
272
     2
274
     3
284
     8
340
DF
341
78
343
78
344
7E
  0
DIMSTYLE
105
4A8
330
A
100
AcDbSymbolTableRecord
100
AcDbDimStyleTableRecord
  2
Standard
 70
     0
178
     0
340
11
  0
DIMSTYLE
105
4AA
330
A
100
AcDbSymbolTableRecord
100
AcDbDimStyleTableRecord
  2
ME10_DIM_10
 70
     0
 41
3.2
 42
0.5
 44
0.7
 73
     0
 74
     0
 77
     1
 78
     8
140
3.2
147
1.2
172
     1
173
     1
176
     2
177
     2
271
     3
178
     2
271
     3
340
4AB
  0
DIMSTYLE
105
4AC
330
A
100
AcDbSymbolTableRecord
100
AcDbDimStyleTableRecord
  2
ME10_DIM_11
 70
     0
 41
3.2
 42
0.5
 44
0.7
 73
     0
 74
     0
 77
     1
 78
     8
140
3.2
147
1.2
172
     1
173
     1
176
     2
177
     2
271
     3
178
     2
271
     3
340
4AB
  0
DIMSTYLE
105
4AD
330
A
100
AcDbSymbolTableRecord
100
AcDbDimStyleTableRecord
  2
ME10_DIM_17
 70
     0
 41
3.2
 42
0.5
 44
0.7
 73
     0
 74
     0
 77
     1
 78
     8
140
3.2
147
1.2
172
     1
173
     1
176
     2
177
     2
271
     3
178
     2
271
     3
340
4AB
  0
DIMSTYLE
105
4AE
330
A
100
AcDbSymbolTableRecord
100
AcDbDimStyleTableRecord
  2
ME10_DIM_18
 70
     0
 41
3.2
 42
0.5
 44
0.7
 73
     0
 74
     0
 77
     1
 78
     8
140
3.2
147
1.2
172
     1
173
     1
176
     2
177
     2
271
     3
178
     2
271
     3
340
4AB
  0
DIMSTYLE
105
4AF
330
A
100
AcDbSymbolTableRecord
100
AcDbDimStyleTableRecord
  2
ME10_DIM_19
 70
     0
 41
3.2
 42
0.5
 44
0.7
 73
     0
 74
     0
 77
     1
 78
     8
140
3.2
147
1.2
172
     1
173
     1
176
     2
177
     2
271
     3
178
     2
271
     3
340
4AB
  0
ENDTAB
  0
TABLE
  2
BLOCK_RECORD
  5
1
330
0
100
AcDbSymbolTable
 70
    45
  0
BLOCK_RECORD
  5
1F
330
1
100
AcDbSymbolTableRecord
100
AcDbBlockTableRecord
  2
*Model_Space
340
22
  0
BLOCK_RECORD
  5
1B
330
1
100
AcDbSymbolTableRecord
100
AcDbBlockTableRecord
  2
*Paper_Space
340
1E
  0
BLOCK_RECORD
  5
23
330
1
100
AcDbSymbolTableRecord
100
AcDbBlockTableRecord
  2
*Paper_Space0
340
26
  0
BLOCK_RECORD
  5
75
330
1
100
AcDbSymbolTableRecord
100
AcDbBlockTableRecord
  2
FXTIP_NONE
340
0
  0
BLOCK_RECORD
  5
78
330
1
100
AcDbSymbolTableRecord
100
AcDbBlockTableRecord
  2
FXTIP_ARROW_S
340
0
102
{BLKREFS
331
16E
331
170
331
177
331
181
331
18B
331
197
331
19D
331
1A5
331
1B0
331
1B9
331
1C9
331
1D0
331
1DA
331
1E3
331
1EF
331
1F8
331
200
331
208
331
5E4
331
0
331
0
331
1C9
102
}
  0
BLOCK_RECORD
  5
7E
330
1
100
AcDbSymbolTableRecord
100
AcDbBlockTableRecord
  2
FXTIP_ARROW_E
340
0
102
{BLKREFS
331
178
331
182
331
18C
331
1AF
331
1BA
331
1C7
331
1D1
331
1DB
331
1E4
331
1F0
331
5E5
331
0
331
0
331
1C7
102
}
  0
BLOCK_RECORD
  5
84
330
1
100
AcDbSymbolTableRecord
100
AcDbBlockTableRecord
  2
FXTIP_BLACKDOT_S
340
0
  0
BLOCK_RECORD
  5
8A
330
1
100
AcDbSymbolTableRecord
100
AcDbBlockTableRecord
  2
FXTIP_BLACKDOT_E
340
0
  0
BLOCK_RECORD
  5
90
330
1
100
AcDbSymbolTableRecord
100
AcDbBlockTableRecord
  2
FXTIP_TRIANGLE_S
340
0
  0
BLOCK_RECORD
  5
97
330
1
100
AcDbSymbolTableRecord
100
AcDbBlockTableRecord
  2
FXTIP_TRIANGLE_E
340
0
  0
BLOCK_RECORD
  5
9E
330
1
100
AcDbSymbolTableRecord
100
AcDbBlockTableRecord
  2
FXTIP_ARCHITECT_S
340
0
  0
BLOCK_RECORD
  5
A4
330
1
100
AcDbSymbolTableRecord
100
AcDbBlockTableRecord
  2
FXTIP_ARCHITECT_E
340
0
  0
BLOCK_RECORD
  5
AA
330
1
100
AcDbSymbolTableRecord
100
AcDbBlockTableRecord
  2
FXTIP_CIVIL_S
340
0
  0
BLOCK_RECORD
  5
B0
330
1
100
AcDbSymbolTableRecord
100
AcDbBlockTableRecord
  2
FXTIP_CIVIL_E
340
0
  0
BLOCK_RECORD
  5
B6
330
1
100
AcDbSymbolTableRecord
100
AcDbBlockTableRecord
  2
FXTIP_WHITEDOT_S
340
0
  0
BLOCK_RECORD
  5
BB
330
1
100
AcDbSymbolTableRecord
100
AcDbBlockTableRecord
  2
FXTIP_WHITEDOT_E
340
0
  0
BLOCK_RECORD
  5
C0
330
1
100
AcDbSymbolTableRecord
100
AcDbBlockTableRecord
  2
FXTIP_UPARROW_S
340
0
  0
BLOCK_RECORD
  5
C5
330
1
100
AcDbSymbolTableRecord
100
AcDbBlockTableRecord
  2
FXTIP_UPARROW_E
340
0
  0
BLOCK_RECORD
  5
CA
330
1
100
AcDbSymbolTableRecord
100
AcDbBlockTableRecord
  2
FXTIP_DOWNARROW_S
340
0
  0
BLOCK_RECORD
  5
CF
330
1
100
AcDbSymbolTableRecord
100
AcDbBlockTableRecord
  2
FXTIP_DOWNARROW_E
340
0
  0
BLOCK_RECORD
  5
D4
330
1
100
AcDbSymbolTableRecord
100
AcDbBlockTableRecord
  2
FXTIP_BLACKTRIANGLE_S
340
0
  0
BLOCK_RECORD
  5
D9
330
1
100
AcDbSymbolTableRecord
100
AcDbBlockTableRecord
  2
FXTIP_BLACKTRIANGLE_E
340
0
  0
BLOCK_RECORD
  5
129
330
1
100
AcDbSymbolTableRecord
100
AcDbBlockTableRecord
  2
BLKF023
340
0
102
{BLKREFS
331
0
102
}
  0
BLOCK_RECORD
  5
167
330
1
100
AcDbSymbolTableRecord
100
AcDbBlockTableRecord
  2
*D21
340
0
  0
BLOCK_RECORD
  5
172
330
1
100
AcDbSymbolTableRecord
100
AcDbBlockTableRecord
  2
*D22
340
0
  0
BLOCK_RECORD
  5
17C
330
1
100
AcDbSymbolTableRecord
100
AcDbBlockTableRecord
  2
*D23
340
0
  0
BLOCK_RECORD
  5
185
330
1
100
AcDbSymbolTableRecord
100
AcDbBlockTableRecord
  2
*D24
340
0
  0
BLOCK_RECORD
  5
190
330
1
100
AcDbSymbolTableRecord
100
AcDbBlockTableRecord
  2
*D25
340
0
  0
BLOCK_RECORD
  5
198
330
1
100
AcDbSymbolTableRecord
100
AcDbBlockTableRecord
  2
FXDIM029
340
0
102
{BLKREFS
331
0
102
}
  0
BLOCK_RECORD
  5
1A0
330
1
100
AcDbSymbolTableRecord
100
AcDbBlockTableRecord
  2
FXDIM030
340
0
102
{BLKREFS
331
0
102
}
  0
BLOCK_RECORD
  5
1AA
330
1
100
AcDbSymbolTableRecord
100
AcDbBlockTableRecord
  2
*D28
340
0
  0
BLOCK_RECORD
  5
1B4
330
1
100
AcDbSymbolTableRecord
100
AcDbBlockTableRecord
  2
*D29
340
0
  0
BLOCK_RECORD
  5
1BE
330
1
100
AcDbSymbolTableRecord
100
AcDbBlockTableRecord
  2
*D30
340
0
  0
BLOCK_RECORD
  5
1CB
330
1
100
AcDbSymbolTableRecord
100
AcDbBlockTableRecord
  2
*D31
340
0
  0
BLOCK_RECORD
  5
1D5
330
1
100
AcDbSymbolTableRecord
100
AcDbBlockTableRecord
  2
*D32
340
0
  0
BLOCK_RECORD
  5
1DE
330
1
100
AcDbSymbolTableRecord
100
AcDbBlockTableRecord
  2
*D33
340
0
  0
BLOCK_RECORD
  5
1E8
330
1
100
AcDbSymbolTableRecord
100
AcDbBlockTableRecord
  2
*D34
340
0
  0
BLOCK_RECORD
  5
1F3
330
1
100
AcDbSymbolTableRecord
100
AcDbBlockTableRecord
  2
FXDIM038
340
0
102
{BLKREFS
331
0
102
}
  0
BLOCK_RECORD
  5
1FB
330
1
100
AcDbSymbolTableRecord
100
AcDbBlockTableRecord
  2
FXDIM039
340
0
102
{BLKREFS
331
0
102
}
  0
BLOCK_RECORD
  5
203
330
1
100
AcDbSymbolTableRecord
100
AcDbBlockTableRecord
  2
FXDIM040
340
0
102
{BLKREFS
331
0
102
}
  0
BLOCK_RECORD
  5
392
330
1
100
AcDbSymbolTableRecord
100
AcDbBlockTableRecord
  2
BLKF041
340
0
102
{BLKREFS
331
395
102
}
  0
BLOCK_RECORD
  5
3A1
330
1
100
AcDbSymbolTableRecord
100
AcDbBlockTableRecord
  2
BLKF042
340
0
102
{BLKREFS
331
3A4
102
}
  0
BLOCK_RECORD
  5
3DF
330
1
100
AcDbSymbolTableRecord
100
AcDbBlockTableRecord
  2
BLKF043
340
0
102
{BLKREFS
331
3E2
102
}
  0
BLOCK_RECORD
  5
4B6
330
1
100
AcDbSymbolTableRecord
100
AcDbBlockTableRecord
  2
DL45S-01-010__G___R_____J_o___SUS420J2_1
340
0
102
{BLKREFS
331
0
102
}
  0
BLOCK_RECORD
  5
4D3
330
1
100
AcDbSymbolTableRecord
100
AcDbBlockTableRecord
  2
DL40-01-AS001-4__g__
340
0
102
{BLKREFS
331
0
102
}
  0
BLOCK_RECORD
  5
4D6
330
1
100
AcDbSymbolTableRecord
100
AcDbBlockTableRecord
  2
TOP
340
0
102
{BLKREFS
331
4D5
102
}
  0
BLOCK_RECORD
  5
5DE
330
1
100
AcDbSymbolTableRecord
100
AcDbBlockTableRecord
  2
*D44
340
0
  0
ENDTAB
  0
ENDSEC
  0
SECTION
  2
BLOCKS
  0
BLOCK
  5
20
330
1F
100
AcDbEntity
  8
0
100
AcDbBlockBegin
  2
*Model_Space
 70
     0
 10
0.0
 20
0.0
 30
0.0
  3
*Model_Space
  1

  0
ENDBLK
  5
21
330
1F
100
AcDbEntity
  8
0
100
AcDbBlockEnd
  0
BLOCK
  5
1C
330
1B
100
AcDbEntity
 67
     1
  8
0
100
AcDbBlockBegin
  2
*Paper_Space
 70
     0
 10
0.0
 20
0.0
 30
0.0
  3
*Paper_Space
  1

  0
ENDBLK
  5
1D
330
1B
100
AcDbEntity
 67
     1
  8
0
100
AcDbBlockEnd
  0
BLOCK
  5
24
330
23
100
AcDbEntity
  8
0
100
AcDbBlockBegin
  2
*Paper_Space0
 70
     0
 10
0.0
 20
0.0
 30
0.0
  3
*Paper_Space0
  1

  0
ENDBLK
  5
25
330
23
100
AcDbEntity
  8
0
100
AcDbBlockEnd
  0
BLOCK
  5
76
330
75
100
AcDbEntity
  8
0
100
AcDbBlockBegin
  2
FXTIP_NONE
 70
     0
 10
0.0
 20
0.0
 30
0.0
  3
FXTIP_NONE
  1

  0
ENDBLK
  5
77
330
75
100
AcDbEntity
  8
0
100
AcDbBlockEnd
  0
BLOCK
  5
79
330
78
100
AcDbEntity
  8
0
100
AcDbBlockBegin
  2
FXTIP_ARROW_S
 70
     0
 10
0.0
 20
0.0
 30
0.0
  3
FXTIP_ARROW_S
  1

  0
LINE
  5
7B
330
78
100
AcDbEntity
  8
0
  6
Continuous
 62
     0
370
    -2
100
AcDbLine
 10
0.0
 20
0.0
 30
0.0
 11
-1.0
 21
0.0000000000000001
 31
0.0
  0
LINE
  5
7C
330
78
100
AcDbEntity
  8
0
  6
Continuous
 62
     0
370
    -2
100
AcDbLine
 10
0.0
 20
0.0
 30
0.0
 11
-0.9659258262890683
 21
-0.2588190451025206
 31
0.0
  0
LINE
  5
7D
330
78
100
AcDbEntity
  8
0
  6
Continuous
 62
     0
370
    -2
100
AcDbLine
 10
0.0
 20
0.0
 30
0.0
 11
-0.9659258262890683
 21
0.2588190451025209
 31
0.0
  0
ENDBLK
  5
7A
330
78
100
AcDbEntity
  8
0
100
AcDbBlockEnd
  0
BLOCK
  5
7F
330
7E
100
AcDbEntity
  8
0
100
AcDbBlockBegin
  2
FXTIP_ARROW_E
 70
     0
 10
0.0
 20
0.0
 30
0.0
  3
FXTIP_ARROW_E
  1

  0
LINE
  5
81
330
7E
100
AcDbEntity
  8
0
  6
Continuous
 62
     0
370
    -2
100
AcDbLine
 10
0.0
 20
0.0
 30
0.0
 11
-1.0
 21
0.0
 31
0.0
  0
LINE
  5
82
330
7E
100
AcDbEntity
  8
0
  6
Continuous
 62
     0
370
    -2
100
AcDbLine
 10
0.0
 20
0.0
 30
0.0
 11
-0.9659258262890683
 21
0.2588190451025207
 31
0.0
  0
LINE
  5
83
330
7E
100
AcDbEntity
  8
0
  6
Continuous
 62
     0
370
    -2
100
AcDbLine
 10
0.0
 20
0.0
 30
0.0
 11
-0.9659258262890683
 21
-0.2588190451025207
 31
0.0
  0
ENDBLK
  5
80
330
7E
100
AcDbEntity
  8
0
100
AcDbBlockEnd
  0
BLOCK
  5
85
330
84
100
AcDbEntity
  8
0
100
AcDbBlockBegin
  2
FXTIP_BLACKDOT_S
 70
     0
 10
0.0
 20
0.0
 30
0.0
  3
FXTIP_BLACKDOT_S
  1

  0
LINE
  5
87
330
84
100
AcDbEntity
  8
0
  6
Continuous
 62
     0
370
    -2
100
AcDbLine
 10
0.0
 20
0.0
 30
0.0
 11
-1.0
 21
0.0000000000000001
 31
0.0
  0
LWPOLYLINE
  5
88
330
84
100
AcDbEntity
  8
0
  6
Continuous
 62
     0
370
    -2
100
AcDbPolyline
 90
        2
 70
     1
 43
0.25
 10
-0.125
 20
0.0
 42
1.0
 10
0.125
 20
0.0
 42
1.0
  0
CIRCLE
  5
89
330
84
100
AcDbEntity
  8
0
  6
Continuous
 62
     0
370
    -2
100
AcDbCircle
 10
0.0
 20
0.0
 30
0.0
 40
0.25
  0
ENDBLK
  5
86
330
84
100
AcDbEntity
  8
0
100
AcDbBlockEnd
  0
BLOCK
  5
8B
330
8A
100
AcDbEntity
  8
0
100
AcDbBlockBegin
  2
FXTIP_BLACKDOT_E
 70
     0
 10
0.0
 20
0.0
 30
0.0
  3
FXTIP_BLACKDOT_E
  1

  0
LINE
  5
8D
330
8A
100
AcDbEntity
  8
0
  6
Continuous
 62
     0
370
    -2
100
AcDbLine
 10
0.0
 20
0.0
 30
0.0
 11
-1.0
 21
0.0
 31
0.0
  0
LWPOLYLINE
  5
8E
330
8A
100
AcDbEntity
  8
0
  6
Continuous
 62
     0
370
    -2
100
AcDbPolyline
 90
        2
 70
     1
 43
0.25
 10
-0.125
 20
0.0
 42
1.0
 10
0.125
 20
0.0
 42
1.0
  0
CIRCLE
  5
8F
330
8A
100
AcDbEntity
  8
0
  6
Continuous
 62
     0
370
    -2
100
AcDbCircle
 10
0.0
 20
0.0
 30
0.0
 40
0.25
  0
ENDBLK
  5
8C
330
8A
100
AcDbEntity
  8
0
100
AcDbBlockEnd
  0
BLOCK
  5
91
330
90
100
AcDbEntity
  8
0
100
AcDbBlockBegin
  2
FXTIP_TRIANGLE_S
 70
     0
 10
0.0
 20
0.0
 30
0.0
  3
FXTIP_TRIANGLE_S
  1

  0
LINE
  5
93
330
90
100
AcDbEntity
  8
0
  6
Continuous
 62
     0
370
    -2
100
AcDbLine
 10
0.0
 20
0.0
 30
0.0
 11
-1.0
 21
0.0000000000000001
 31
0.0
  0
LINE
  5
94
330
90
100
AcDbEntity
  8
0
  6
Continuous
 62
     0
370
    -2
100
AcDbLine
 10
0.0
 20
0.0
 30
0.0
 11
-0.9659258262890683
 21
-0.2588190451025206
 31
0.0
  0
LINE
  5
95
330
90
100
AcDbEntity
  8
0
  6
Continuous
 62
     0
370
    -2
100
AcDbLine
 10
0.0
 20
0.0
 30
0.0
 11
-0.9659258262890683
 21
0.2588190451025209
 31
0.0
  0
LINE
  5
96
330
90
100
AcDbEntity
  8
0
  6
Continuous
 62
     0
370
    -2
100
AcDbLine
 10
-0.9659258262890683
 20
-0.2588190451025206
 30
0.0
 11
-0.9659258262890683
 21
0.2588190451025209
 31
0.0
  0
ENDBLK
  5
92
330
90
100
AcDbEntity
  8
0
100
AcDbBlockEnd
  0
BLOCK
  5
98
330
97
100
AcDbEntity
  8
0
100
AcDbBlockBegin
  2
FXTIP_TRIANGLE_E
 70
     0
 10
0.0
 20
0.0
 30
0.0
  3
FXTIP_TRIANGLE_E
  1

  0
LINE
  5
9A
330
97
100
AcDbEntity
  8
0
  6
Continuous
 62
     0
370
    -2
100
AcDbLine
 10
0.0
 20
0.0
 30
0.0
 11
-1.0
 21
0.0
 31
0.0
  0
LINE
  5
9B
330
97
100
AcDbEntity
  8
0
  6
Continuous
 62
     0
370
    -2
100
AcDbLine
 10
0.0
 20
0.0
 30
0.0
 11
-0.9659258262890683
 21
0.2588190451025207
 31
0.0
  0
LINE
  5
9C
330
97
100
AcDbEntity
  8
0
  6
Continuous
 62
     0
370
    -2
100
AcDbLine
 10
0.0
 20
0.0
 30
0.0
 11
-0.9659258262890683
 21
-0.2588190451025207
 31
0.0
  0
LINE
  5
9D
330
97
100
AcDbEntity
  8
0
  6
Continuous
 62
     0
370
    -2
100
AcDbLine
 10
-0.9659258262890683
 20
0.2588190451025207
 30
0.0
 11
-0.9659258262890683
 21
-0.2588190451025207
 31
0.0
  0
ENDBLK
  5
99
330
97
100
AcDbEntity
  8
0
100
AcDbBlockEnd
  0
BLOCK
  5
9F
330
9E
100
AcDbEntity
  8
0
100
AcDbBlockBegin
  2
FXTIP_ARCHITECT_S
 70
     0
 10
0.0
 20
0.0
 30
0.0
  3
FXTIP_ARCHITECT_S
  1

  0
LINE
  5
A1
330
9E
100
AcDbEntity
  8
0
  6
Continuous
 62
     0
370
    -2
100
AcDbLine
 10
0.0
 20
0.0
 30
0.0
 11
-1.0
 21
0.0000000000000001
 31
0.0
  0
LINE
  5
A2
330
9E
100
AcDbEntity
  8
0
  6
Continuous
 62
     0
370
    -2
100
AcDbLine
 10
0.0
 20
0.0
 30
0.0
 11
-0.7071067811865476
 21
-0.7071067811865474
 31
0.0
  0
LINE
  5
A3
330
9E
100
AcDbEntity
  8
0
  6
Continuous
 62
     0
370
    -2
100
AcDbLine
 10
0.0
 20
0.0
 30
0.0
 11
0.7071067811865476
 21
0.7071067811865474
 31
0.0
  0
ENDBLK
  5
A0
330
9E
100
AcDbEntity
  8
0
100
AcDbBlockEnd
  0
BLOCK
  5
A5
330
A4
100
AcDbEntity
  8
0
100
AcDbBlockBegin
  2
FXTIP_ARCHITECT_E
 70
     0
 10
0.0
 20
0.0
 30
0.0
  3
FXTIP_ARCHITECT_E
  1

  0
LINE
  5
A7
330
A4
100
AcDbEntity
  8
0
  6
Continuous
 62
     0
370
    -2
100
AcDbLine
 10
0.0
 20
0.0
 30
0.0
 11
-1.0
 21
0.0
 31
0.0
  0
LINE
  5
A8
330
A4
100
AcDbEntity
  8
0
  6
Continuous
 62
     0
370
    -2
100
AcDbLine
 10
0.0
 20
0.0
 30
0.0
 11
0.7071067811865475
 21
0.7071067811865475
 31
0.0
  0
LINE
  5
A9
330
A4
100
AcDbEntity
  8
0
  6
Continuous
 62
     0
370
    -2
100
AcDbLine
 10
0.0
 20
0.0
 30
0.0
 11
-0.7071067811865475
 21
-0.7071067811865475
 31
0.0
  0
ENDBLK
  5
A6
330
A4
100
AcDbEntity
  8
0
100
AcDbBlockEnd
  0
BLOCK
  5
AB
330
AA
100
AcDbEntity
  8
0
100
AcDbBlockBegin
  2
FXTIP_CIVIL_S
 70
     0
 10
0.0
 20
0.0
 30
0.0
  3
FXTIP_CIVIL_S
  1

  0
LINE
  5
AD
330
AA
100
AcDbEntity
  8
0
  6
Continuous
 62
     0
370
    -2
100
AcDbLine
 10
0.0
 20
0.0
 30
0.0
 11
-1.0
 21
0.0000000000000002
 31
0.0
  0
LINE
  5
AE
330
AA
100
AcDbEntity
  8
0
  6
Continuous
 62
     0
370
    -2
100
AcDbLine
 10
0.0
 20
-0.125
 30
0.0
 11
-1.0
 21
-0.1249999999999998
 31
0.0
  0
LINE
  5
AF
330
AA
100
AcDbEntity
  8
0
  6
Continuous
 62
     0
370
    -2
100
AcDbLine
 10
0.0
 20
-0.25
 30
0.0
 11
-1.0
 21
-0.2499999999999999
 31
0.0
  0
ENDBLK
  5
AC
330
AA
100
AcDbEntity
  8
0
100
AcDbBlockEnd
  0
BLOCK
  5
B1
330
B0
100
AcDbEntity
  8
0
100
AcDbBlockBegin
  2
FXTIP_CIVIL_E
 70
     0
 10
0.0
 20
0.0
 30
0.0
  3
FXTIP_CIVIL_E
  1

  0
LINE
  5
B3
330
B0
100
AcDbEntity
  8
0
  6
Continuous
 62
     0
370
    -2
100
AcDbLine
 10
0.0
 20
0.0
 30
0.0
 11
-1.0
 21
0.0
 31
0.0
  0
LINE
  5
B4
330
B0
100
AcDbEntity
  8
0
  6
Continuous
 62
     0
370
    -2
100
AcDbLine
 10
0.0
 20
0.125
 30
0.0
 11
-1.0
 21
0.125
 31
0.0
  0
LINE
  5
B5
330
B0
100
AcDbEntity
  8
0
  6
Continuous
 62
     0
370
    -2
100
AcDbLine
 10
0.0
 20
0.25
 30
0.0
 11
-1.0
 21
0.25
 31
0.0
  0
ENDBLK
  5
B2
330
B0
100
AcDbEntity
  8
0
100
AcDbBlockEnd
  0
BLOCK
  5
B7
330
B6
100
AcDbEntity
  8
0
100
AcDbBlockBegin
  2
FXTIP_WHITEDOT_S
 70
     0
 10
0.0
 20
0.0
 30
0.0
  3
FXTIP_WHITEDOT_S
  1

  0
LINE
  5
B9
330
B6
100
AcDbEntity
  8
0
  6
Continuous
 62
     0
370
    -2
100
AcDbLine
 10
0.0
 20
0.0
 30
0.0
 11
-1.0
 21
0.0000000000000001
 31
0.0
  0
CIRCLE
  5
BA
330
B6
100
AcDbEntity
  8
0
  6
Continuous
 62
     0
370
    -2
100
AcDbCircle
 10
0.0
 20
0.0
 30
0.0
 40
0.25
  0
ENDBLK
  5
B8
330
B6
100
AcDbEntity
  8
0
100
AcDbBlockEnd
  0
BLOCK
  5
BC
330
BB
100
AcDbEntity
  8
0
100
AcDbBlockBegin
  2
FXTIP_WHITEDOT_E
 70
     0
 10
0.0
 20
0.0
 30
0.0
  3
FXTIP_WHITEDOT_E
  1

  0
LINE
  5
BE
330
BB
100
AcDbEntity
  8
0
  6
Continuous
 62
     0
370
    -2
100
AcDbLine
 10
0.0
 20
0.0
 30
0.0
 11
-1.0
 21
0.0
 31
0.0
  0
CIRCLE
  5
BF
330
BB
100
AcDbEntity
  8
0
  6
Continuous
 62
     0
370
    -2
100
AcDbCircle
 10
0.0
 20
0.0
 30
0.0
 40
0.25
  0
ENDBLK
  5
BD
330
BB
100
AcDbEntity
  8
0
100
AcDbBlockEnd
  0
BLOCK
  5
C1
330
C0
100
AcDbEntity
  8
0
100
AcDbBlockBegin
  2
FXTIP_UPARROW_S
 70
     0
 10
0.0
 20
0.0
 30
0.0
  3
FXTIP_UPARROW_S
  1

  0
LINE
  5
C3
330
C0
100
AcDbEntity
  8
0
  6
Continuous
 62
     0
370
    -2
100
AcDbLine
 10
0.0
 20
0.0
 30
0.0
 11
-1.0
 21
0.0000000000000001
 31
0.0
  0
LINE
  5
C4
330
C0
100
AcDbEntity
  8
0
  6
Continuous
 62
     0
370
    -2
100
AcDbLine
 10
0.0
 20
0.0
 30
0.0
 11
-0.9659258262890683
 21
-0.2588190451025206
 31
0.0
  0
ENDBLK
  5
C2
330
C0
100
AcDbEntity
  8
0
100
AcDbBlockEnd
  0
BLOCK
  5
C6
330
C5
100
AcDbEntity
  8
0
100
AcDbBlockBegin
  2
FXTIP_UPARROW_E
 70
     0
 10
0.0
 20
0.0
 30
0.0
  3
FXTIP_UPARROW_E
  1

  0
LINE
  5
C8
330
C5
100
AcDbEntity
  8
0
  6
Continuous
 62
     0
370
    -2
100
AcDbLine
 10
0.0
 20
0.0
 30
0.0
 11
-1.0
 21
0.0
 31
0.0
  0
LINE
  5
C9
330
C5
100
AcDbEntity
  8
0
  6
Continuous
 62
     0
370
    -2
100
AcDbLine
 10
0.0
 20
0.0
 30
0.0
 11
-0.9659258262890683
 21
0.2588190451025207
 31
0.0
  0
ENDBLK
  5
C7
330
C5
100
AcDbEntity
  8
0
100
AcDbBlockEnd
  0
BLOCK
  5
CB
330
CA
100
AcDbEntity
  8
0
100
AcDbBlockBegin
  2
FXTIP_DOWNARROW_S
 70
     0
 10
0.0
 20
0.0
 30
0.0
  3
FXTIP_DOWNARROW_S
  1

  0
LINE
  5
CD
330
CA
100
AcDbEntity
  8
0
  6
Continuous
 62
     0
370
    -2
100
AcDbLine
 10
0.0
 20
0.0
 30
0.0
 11
-1.0
 21
0.0000000000000001
 31
0.0
  0
LINE
  5
CE
330
CA
100
AcDbEntity
  8
0
  6
Continuous
 62
     0
370
    -2
100
AcDbLine
 10
0.0
 20
0.0
 30
0.0
 11
-0.9659258262890683
 21
0.2588190451025209
 31
0.0
  0
ENDBLK
  5
CC
330
CA
100
AcDbEntity
  8
0
100
AcDbBlockEnd
  0
BLOCK
  5
D0
330
CF
100
AcDbEntity
  8
0
100
AcDbBlockBegin
  2
FXTIP_DOWNARROW_E
 70
     0
 10
0.0
 20
0.0
 30
0.0
  3
FXTIP_DOWNARROW_E
  1

  0
LINE
  5
D2
330
CF
100
AcDbEntity
  8
0
  6
Continuous
 62
     0
370
    -2
100
AcDbLine
 10
0.0
 20
0.0
 30
0.0
 11
-1.0
 21
0.0
 31
0.0
  0
LINE
  5
D3
330
CF
100
AcDbEntity
  8
0
  6
Continuous
 62
     0
370
    -2
100
AcDbLine
 10
0.0
 20
0.0
 30
0.0
 11
-0.9659258262890683
 21
-0.2588190451025207
 31
0.0
  0
ENDBLK
  5
D1
330
CF
100
AcDbEntity
  8
0
100
AcDbBlockEnd
  0
BLOCK
  5
D5
330
D4
100
AcDbEntity
  8
0
100
AcDbBlockBegin
  2
FXTIP_BLACKTRIANGLE_S
 70
     0
 10
0.0
 20
0.0
 30
0.0
  3
FXTIP_BLACKTRIANGLE_S
  1

  0
LINE
  5
D7
330
D4
100
AcDbEntity
  8
0
  6
Continuous
 62
     0
370
    -2
100
AcDbLine
 10
0.0
 20
0.0
 30
0.0
 11
-1.0
 21
0.0000000000000001
 31
0.0
  0
SOLID
  5
D8
330
D4
100
AcDbEntity
  8
0
  6
Continuous
 62
     0
370
    -2
100
AcDbTrace
 10
0.0
 20
0.0
 30
0.0
 11
-0.9659258262890683
 21
-0.2588190451025206
 31
0.0
 12
-0.9659258262890683
 22
0.2588190451025209
 32
0.0
 13
-0.9659258262890683
 23
0.2588190451025209
 33
0.0
  0
ENDBLK
  5
D6
330
D4
100
AcDbEntity
  8
0
100
AcDbBlockEnd
  0
BLOCK
  5
DA
330
D9
100
AcDbEntity
  8
0
100
AcDbBlockBegin
  2
FXTIP_BLACKTRIANGLE_E
 70
     0
 10
0.0
 20
0.0
 30
0.0
  3
FXTIP_BLACKTRIANGLE_E
  1

  0
LINE
  5
DC
330
D9
100
AcDbEntity
  8
0
  6
Continuous
 62
     0
370
    -2
100
AcDbLine
 10
0.0
 20
0.0
 30
0.0
 11
-1.0
 21
0.0
 31
0.0
  0
SOLID
  5
DD
330
D9
100
AcDbEntity
  8
0
  6
Continuous
 62
     0
370
    -2
100
AcDbTrace
 10
0.0
 20
0.0
 30
0.0
 11
-0.9659258262890683
 21
0.2588190451025207
 31
0.0
 12
-0.9659258262890683
 22
-0.2588190451025207
 32
0.0
 13
-0.9659258262890683
 23
-0.2588190451025207
 33
0.0
  0
ENDBLK
  5
DB
330
D9
100
AcDbEntity
  8
0
100
AcDbBlockEnd
  0
BLOCK
  5
12A
330
129
100
AcDbEntity
  8
0
100
AcDbBlockBegin
  2
BLKF023
 70
     0
 10
0.0
 20
0.0
 30
0.0
  3
BLKF023
  1

  0
LINE
  5
12D
330
129
100
AcDbEntity
  8
作図レイヤ
  6
Continuous
 62
     7
370
    13
100
AcDbLine
 10
411.8928571428571
 20
289.0360316519971
 30
0.0
 11
411.8928571428571
 21
8.036031651997291
 31
0.0
  0
LINE
  5
12E
330
129
100
AcDbEntity
  8
作図レイヤ
  6
Continuous
 62
     7
370
    13
100
AcDbLine
 10
411.8928571428571
 20
8.036031651997291
 30
0.0
 11
7.892857142857565
 21
8.036031651997291
 31
0.0
  0
LINE
  5
12F
330
129
100
AcDbEntity
  8
作図レイヤ
  6
Continuous
 62
     7
370
    13
100
AcDbLine
 10
7.892857142857565
 20
8.036031651997291
 30
0.0
 11
7.892857142857565
 21
289.0360316519971
 31
0.0
  0
LINE
  5
130
330
129
100
AcDbEntity
  8
作図レイヤ
  6
Continuous
 62
     7
370
    13
100
AcDbLine
 10
7.892857142857565
 20
289.0360316519971
 30
0.0
 11
411.8928571428571
 21
289.0360316519971
 31
0.0
  0
ENDBLK
  5
12B
330
129
100
AcDbEntity
  8
0
100
AcDbBlockEnd
  0
BLOCK
  5
168
330
167
100
AcDbEntity
  8
0
100
AcDbBlockBegin
  2
*D21
 70
     1
 10
0.0
 20
0.0
 30
0.0
  3
*D21
  1

  0
TEXT
  5
16A
330
167
100
AcDbEntity
  8
作図レイヤ
  6
Continuous
 62
     7
370
    25
100
AcDbText
 10
109.2566684101077
 20
160.5341012477715
 30
0.0
 40
2.666666666666667
  1
P.C.D.%%c
 50
309.3254394531251
 41
1.024965800273598
  7
ＭＳ 明朝
 72
     1
 11
113.2665176391602
 21
154.7738342285156
 31
0.0
100
AcDbText
 73
     1
  0
TEXT
  5
16B
330
167
100
AcDbEntity
  8
作図レイヤ
  6
Continuous
 62
     7
370
    25
100
AcDbText
 10
118.761194985676
 20
148.932343659624
 30
0.0
 40
2.666666666666667
  1
65
 50
309.3254394531251
 41
1.024965800273598
  7
ＭＳ 明朝
 72
     1
 11
119.603759765625
 21
147.0382385253906
 31
0.0
100
AcDbText
 73
     1
  0
LINE
  5
16C
330
167
100
AcDbEntity
  8
作図レイヤ
  6
Continuous
 62
     4
370
    13
100
AcDbLine
 10
104.0235795383937
 20
164.4782847688718
 30
0.0
 11
62.83149819890002
 21
214.7596176362545
 31
0.0
  0
LINE
  5
16D
330
167
100
AcDbEntity
  8
作図レイヤ
  6
Continuous
 62
     4
370
    13
100
AcDbLine
 10
104.0235795383937
 20
164.4782847688718
 30
0.0
 11
123.4972250602933
 21
140.7076759336912
 31
0.0
  0
INSERT
  5
16E
330
167
100
AcDbEntity
  8
作図レイヤ
  6
Continuous
 62
     4
370
    13
100
AcDbBlockReference
  2
FXTIP_ARROW_S
 10
104.0235795383937
 20
164.4782847688718
 30
0.0
 41
2.0
 42
2.0
 50
129.3254343681269
  0
LINE
  5
16F
330
167
100
AcDbEntity
  8
作図レイヤ
  6
Continuous
 62
     4
370
    13
100
AcDbLine
 10
62.83149819890002
 20
214.7596176362545
 30
0.0
 11
59.02915222910059
 21
219.4009714393974
 31
0.0
  0
INSERT
  5
170
330
167
100
AcDbEntity
  8
作図レイヤ
  6
Continuous
 62
     4
370
    13
100
AcDbBlockReference
  2
FXTIP_ARROW_S
 10
62.83149819890002
 20
214.7596176362545
 30
0.0
 41
2.0
 42
2.0
 50
309.3254343681276
  0
ENDBLK
  5
169
330
167
100
AcDbEntity
  8
0
100
AcDbBlockEnd
  0
BLOCK
  5
173
330
172
100
AcDbEntity
  8
0
100
AcDbBlockBegin
  2
*D22
 70
     1
 10
0.0
 20
0.0
 30
0.0
  3
*D22
  1

  0
TEXT
  5
175
330
172
100
AcDbEntity
  8
作図レイヤ
  6
Continuous
 62
     7
370
    25
100
AcDbText
 10
23.35072485180947
 20
201.8706459956815
 30
0.0
 40
2.666666666666667
  1
32.5
 50
90.0
 41
1.024965800273598
  7
ＭＳ 明朝
 72
     1
 11
23.8992919921875
 21
205.8689575195312
 31
0.0
100
AcDbText
 73
     1
  0
LINE
  5
176
330
172
100
AcDbEntity
  8
作図レイヤ
  6
Continuous
 62
     4
370
    13
100
AcDbLine
 10
24.89928145079847
 20
189.6189512025631
 30
0.0
 11
24.89928145079847
 21
222.118951202563
 31
0.0
  0
INSERT
  5
177
330
172
100
AcDbEntity
  8
作図レイヤ
  6
Continuous
 62
     4
370
    13
100
AcDbBlockReference
  2
FXTIP_ARROW_S
 10
24.89928145079847
 20
189.6189512025631
 30
0.0
 41
2.0
 42
2.0
 50
270.0
  0
INSERT
  5
178
330
172
100
AcDbEntity
  8
作図レイヤ
  6
Continuous
 62
     4
370
    13
100
AcDbBlockReference
  2
FXTIP_ARROW_E
 10
24.89928145079847
 20
222.118951202563
 30
0.0
 41
2.0
 42
2.0
 50
90.0
  0
LINE
  5
179
330
172
100
AcDbEntity
  8
作図レイヤ
  6
Continuous
 62
     4
370
    13
100
AcDbLine
 10
55.42753886864676
 20
189.6189512025631
 30
0.0
 11
23.89928145079847
 21
189.6189512025631
 31
0.0
  0
LINE
  5
17A
330
172
100
AcDbEntity
  8
作図レイヤ
  6
Continuous
 62
     4
370
    13
100
AcDbLine
 10
82.42753886864676
 20
222.118951202563
 30
0.0
 11
23.89928145079847
 21
222.118951202563
 31
0.0
  0
ENDBLK
  5
174
330
172
100
AcDbEntity
  8
0
100
AcDbBlockEnd
  0
BLOCK
  5
17D
330
17C
100
AcDbEntity
  8
0
100
AcDbBlockBegin
  2
*D23
 70
     1
 10
0.0
 20
0.0
 30
0.0
  3
*D23
  1

  0
TEXT
  5
17F
330
17C
100
AcDbEntity
  8
作図レイヤ
  6
Continuous
 62
     7
370
    25
100
AcDbText
 10
23.35072485180947
 20
169.3706459956815
 30
0.0
 40
2.666666666666667
  1
32.5
 50
90.0
 41
1.024965800273598
  7
ＭＳ 明朝
 72
     1
 11
23.8992919921875
 21
173.3689575195312
 31
0.0
100
AcDbText
 73
     1
  0
LINE
  5
180
330
17C
100
AcDbEntity
  8
作図レイヤ
  6
Continuous
 62
     4
370
    13
100
AcDbLine
 10
24.89928145079847
 20
157.118951202563
 30
0.0
 11
24.89928145079847
 21
189.6189512025631
 31
0.0
  0
INSERT
  5
181
330
17C
100
AcDbEntity
  8
作図レイヤ
  6
Continuous
 62
     4
370
    13
100
AcDbBlockReference
  2
FXTIP_ARROW_S
 10
24.89928145079847
 20
157.118951202563
 30
0.0
 41
2.0
 42
2.0
 50
270.0
  0
INSERT
  5
182
330
17C
100
AcDbEntity
  8
作図レイヤ
  6
Continuous
 62
     4
370
    13
100
AcDbBlockReference
  2
FXTIP_ARROW_E
 10
24.89928145079847
 20
189.6189512025631
 30
0.0
 41
2.0
 42
2.0
 50
90.0
  0
LINE
  5
183
330
17C
100
AcDbEntity
  8
作図レイヤ
  6
Continuous
 62
     4
370
    13
100
AcDbLine
 10
82.42753886864676
 20
157.1189512025631
 30
0.0
 11
23.89928145079847
 21
157.118951202563
 31
0.0
  0
ENDBLK
  5
17E
330
17C
100
AcDbEntity
  8
0
100
AcDbBlockEnd
  0
BLOCK
  5
186
330
185
100
AcDbEntity
  8
0
100
AcDbBlockBegin
  2
*D24
 70
     1
 10
0.0
 20
0.0
 30
0.0
  3
*D24
  1

  0
TEXT
  5
188
330
185
100
AcDbEntity
  8
作図レイヤ
  6
Continuous
 62
     7
370
    25
100
AcDbText
 10
77.42839550751064
 20
119.59103234999
 30
0.0
 40
2.666666666666667
  1
2-
 50
0.0000000099999999
 41
1.024965800273598
  7
ＭＳ 明朝
 72
     1
 11
79.42755126953125
 21
119.0424652099609
 31
0.0
100
AcDbText
 73
     1
  0
TEXT
  5
189
330
185
100
AcDbEntity
  8
作図レイヤ
  6
Continuous
 62
     7
370
    25
100
AcDbText
 10
81.42923974558578
 20
119.5910323496411
 30
0.0
 40
2.666666666666667
  1
17.5
 50
0.0000000099999999
 41
1.024965800273598
  7
ＭＳ 明朝
 72
     1
 11
85.42755126953125
 21
119.0424652099609
 31
0.0
100
AcDbText
 73
     1
  0
LINE
  5
18A
330
185
100
AcDbEntity
  8
作図レイヤ
  6
Continuous
 62
     4
370
    13
100
AcDbLine
 10
74.67753886864676
 20
118.042447841785
 30
0.0
 11
92.17753886864676
 21
118.042447841785
 31
0.0
  0
INSERT
  5
18B
330
185
100
AcDbEntity
  8
作図レイヤ
  6
Continuous
 62
     4
370
    13
100
AcDbBlockReference
  2
FXTIP_ARROW_S
 10
74.67753886864676
 20
118.042447841785
 30
0.0
 41
2.0
 42
2.0
 50
180.0
  0
INSERT
  5
18C
330
185
100
AcDbEntity
  8
作図レイヤ
  6
Continuous
 62
     4
370
    13
100
AcDbBlockReference
  2
FXTIP_ARROW_E
 10
92.17753886864676
 20
118.042447841785
 30
0.0
 41
2.0
 42
2.0
 50
360.0
  0
LINE
  5
18D
330
185
100
AcDbEntity
  8
作図レイヤ
  6
Continuous
 62
     4
370
    13
100
AcDbLine
 10
74.67753886864676
 20
148.0518771153184
 30
0.0
 11
74.67753886864665
 21
117.042447841785
 31
0.0
  0
LINE
  5
18E
330
185
100
AcDbEntity
  8
作図レイヤ
  6
Continuous
 62
     4
370
    13
100
AcDbLine
 10
92.17753886864676
 20
148.0518771153184
 30
0.0
 11
92.17753886864668
 21
117.042447841785
 31
0.0
  0
ENDBLK
  5
187
330
185
100
AcDbEntity
  8
0
100
AcDbBlockEnd
  0
BLOCK
  5
191
330
190
100
AcDbEntity
  8
0
100
AcDbBlockBegin
  2
*D25
 70
     1
 10
0.0
 20
0.0
 30
0.0
  3
*D25
  1

  0
TEXT
  5
193
330
190
100
AcDbEntity
  8
作図レイヤ
  6
Continuous
 62
     7
370
    25
100
AcDbText
 10
53.95665309110857
 20
241.9142306890181
 30
0.0
 40
2.666666666666667
  1
2-R
 50
-59.11843872070312
 41
1.024965800273598
  7
ＭＳ 明朝
 72
     1
 11
55.02500152587891
 21
239.0590667724609
 31
0.0
100
AcDbText
 73
     1
  0
TEXT
  5
194
330
190
100
AcDbEntity
  8
作図レイヤ
  6
Continuous
 62
     7
370
    25
100
AcDbText
 10
57.03646202478932
 20
236.7644844052783
 30
0.0
 40
2.666666666666667
  1
41.5
 50
-59.11843872070312
 41
1.024965800273598
  7
ＭＳ 明朝
 72
     1
 11
58.61785888671875
 21
233.0514526367188
 31
0.0
100
AcDbText
 73
     1
  0
LINE
  5
195
330
190
100
AcDbEntity
  8
作図レイヤ
  6
Continuous
 62
     4
370
    13
100
AcDbLine
 10
62.12703678375135
 20
225.2355008800846
 30
0.0
 11
83.42753886864688
 21
189.6189512025631
 31
0.0
  0
LINE
  5
196
330
190
100
AcDbEntity
  8
作図レイヤ
  6
Continuous
 62
     4
370
    13
100
AcDbLine
 10
62.12703678375135
 20
225.2355008800846
 30
0.0
 11
50.3126399126549
 21
244.9903428735863
 31
0.0
  0
INSERT
  5
197
330
190
100
AcDbEntity
  8
作図レイヤ
  6
Continuous
 62
     4
370
    13
100
AcDbBlockReference
  2
FXTIP_ARROW_S
 10
62.12703678375135
 20
225.2355008800846
 30
0.0
 41
2.0
 42
2.0
 50
300.8815629053226
  0
ENDBLK
  5
192
330
190
100
AcDbEntity
  8
0
100
AcDbBlockEnd
  0
BLOCK
  5
199
330
198
100
AcDbEntity
  8
0
100
AcDbBlockBegin
  2
FXDIM029
 70
     0
 10
0.0
 20
0.0
 30
0.0
  3
FXDIM029
  1

  0
LINE
  5
19C
330
198
100
AcDbEntity
  8
作図レイヤ
  6
Continuous
 62
     4
370
    13
100
AcDbLine
 10
86.6804027379535
 20
152.6839904758194
 30
0.0
 11
109.9120571370904
 21
129.8009632304011
 31
0.0
  0
INSERT
  5
19D
330
198
100
AcDbEntity
  8
作図レイヤ
  6
Continuous
 62
     4
370
    13
100
AcDbBlockReference
  2
FXTIP_ARROW_S
 10
86.6804027379535
 20
152.6839904758194
 30
0.0
 41
2.0
 42
2.0
 50
135.4331480406447
  0
LINE
  5
19E
330
198
100
AcDbEntity
  8
作図レイヤ
  6
Continuous
 62
     4
370
    13
100
AcDbLine
 10
109.9120571370904
 20
129.8009632304011
 30
0.0
 11
123.9120571370904
 21
129.8009632304011
 31
0.0
  0
TEXT
  5
19F
330
198
100
AcDbEntity
  8
作図レイヤ
  6
Continuous
 62
     7
370
    25
100
AcDbText
 10
111.9142199701878
 20
131.3495314958468
 30
0.0
 40
2.666666666666667
  1
2-%%c11
 41
1.024965800273598
  7
ＭＳ 明朝
 72
     1
 11
116.912109375
 21
130.8009643554688
 31
0.0
100
AcDbText
 73
     1
  0
ENDBLK
  5
19A
330
198
100
AcDbEntity
  8
0
100
AcDbBlockEnd
  0
BLOCK
  5
1A1
330
1A0
100
AcDbEntity
  8
0
100
AcDbBlockBegin
  2
FXDIM030
 70
     0
 10
0.0
 20
0.0
 30
0.0
  3
FXDIM030
  1

  0
LINE
  5
1A4
330
1A0
100
AcDbEntity
  8
作図レイヤ
  6
Continuous
 62
     4
370
    13
100
AcDbLine
 10
65.26375992779731
 20
160.8922209698774
 30
0.0
 11
42.33592833989536
 21
145.7443182064944
 31
0.0
  0
INSERT
  5
1A5
330
1A0
100
AcDbEntity
  8
作図レイヤ
  6
Continuous
 62
     4
370
    13
100
AcDbBlockReference
  2
FXTIP_ARROW_S
 10
65.26375992779731
 20
160.8922209698774
 30
0.0
 41
2.0
 42
2.0
 50
33.45184278866566
  0
LINE
  5
1A6
330
1A0
100
AcDbEntity
  8
作図レイヤ
  6
Continuous
 62
     4
370
    13
100
AcDbLine
 10
42.33592833989536
 20
145.7443182064944
 30
0.0
 11
26.33592833989536
 21
145.7443182064944
 31
0.0
  0
TEXT
  5
1A7
330
1A0
100
AcDbEntity
  8
作図レイヤ
  6
Continuous
 62
     7
370
    25
100
AcDbText
 10
28.33847021422541
 20
151.2928908708468
 30
0.0
 40
2.666666666666667
  1
2-%%c4H7
 41
1.024965800273598
  7
ＭＳ 明朝
 72
     1
 11
34.3359375
 21
150.7443237304688
 31
0.0
100
AcDbText
 73
     1
  0
TEXT
  5
1A8
330
1A0
100
AcDbEntity
  8
作図レイヤ
  6
Continuous
 62
     7
370
    25
100
AcDbText
 10
28.33847021422541
 20
147.2928908708468
 30
0.0
 40
2.666666666666667
  1
(貫通)
 41
1.024965800273598
  7
ＭＳ 明朝
 72
     1
 11
34.3359375
 21
146.7443237304688
 31
0.0
100
AcDbText
 73
     1
  0
ENDBLK
  5
1A2
330
1A0
100
AcDbEntity
  8
0
100
AcDbBlockEnd
  0
BLOCK
  5
1AB
330
1AA
100
AcDbEntity
  8
0
100
AcDbBlockBegin
  2
*D28
 70
     1
 10
0.0
 20
0.0
 30
0.0
  3
*D28
  1

  0
TEXT
  5
1AD
330
1AA
100
AcDbEntity
  8
作図レイヤ
  6
Continuous
 62
     7
370
    25
100
AcDbText
 10
129.4931317949145
 20
219.677537498175
 30
0.0
 40
2.666666666666667
  1
60ﾟ
 50
300.0
 41
1.024965800273598
  7
ＭＳ 明朝
 72
     1
 11
130.5174255371094
 21
216.8062744140625
 31
0.0
100
AcDbText
 73
     1
  0
ARC
  5
1AE
330
1AA
100
AcDbEntity
  8
作図レイヤ
  6
Continuous
 62
     4
370
    13
100
AcDbCircle
 10
83.42753886864688
 20
189.6189512025632
 30
0.0
 40
53.37468137786811
100
AcDbArc
 50
359.9999999999998
 51
60.0
  0
INSERT
  5
1AF
330
1AA
100
AcDbEntity
  8
作図レイヤ
  6
Continuous
 62
     4
370
    13
100
AcDbBlockReference
  2
FXTIP_ARROW_E
 10
136.802220246515
 20
189.6189512025631
 30
0.0
 41
2.0
 42
2.0
 50
269.9999999999999
  0
INSERT
  5
1B0
330
1AA
100
AcDbEntity
  8
作図レイヤ
  6
Continuous
 62
     4
370
    13
100
AcDbBlockReference
  2
FXTIP_ARROW_S
 10
110.1148795575809
 20
235.8427811946971
 30
0.0
 41
2.0
 42
2.0
 50
150.0
  0
LINE
  5
1B1
330
1AA
100
AcDbEntity
  8
作図レイヤ
  6
Continuous
 62
     4
370
    13
100
AcDbLine
 10
111.4275388686468
 20
189.6189512025631
 30
0.0
 11
137.802220246515
 21
189.618951202563
 31
0.0
  0
LINE
  5
1B2
330
1AA
100
AcDbEntity
  8
作図レイヤ
  6
Continuous
 62
     4
370
    13
100
AcDbLine
 10
108.8275388686469
 20
233.6130417148127
 30
0.0
 11
110.6148795575809
 21
236.7088065984815
 31
0.0
  0
ENDBLK
  5
1AC
330
1AA
100
AcDbEntity
  8
0
100
AcDbBlockEnd
  0
BLOCK
  5
1B5
330
1B4
100
AcDbEntity
  8
0
100
AcDbBlockBegin
  2
*D29
 70
     1
 10
0.0
 20
0.0
 30
0.0
  3
*D29
  1

  0
TEXT
  5
1B7
330
1B4
100
AcDbEntity
  8
作図レイヤ
  6
Continuous
 62
     7
370
    25
100
AcDbText
 10
81.42839550751064
 20
105.3521102308494
 30
0.0
 40
2.666666666666667
  1
45
 50
0.0000000099999999
 41
1.024965800273598
  7
ＭＳ 明朝
 72
     1
 11
83.42755126953125
 21
104.8035430908203
 31
0.0
100
AcDbText
 73
     1
  0
LINE
  5
1B8
330
1B4
100
AcDbEntity
  8
作図レイヤ
  6
Continuous
 62
     4
370
    13
100
AcDbLine
 10
60.92753886864686
 20
103.8035455586796
 30
0.0
 11
105.9275388686468
 21
103.8035455586796
 31
0.0
  0
INSERT
  5
1B9
330
1B4
100
AcDbEntity
  8
作図レイヤ
  6
Continuous
 62
     4
370
    13
100
AcDbBlockReference
  2
FXTIP_ARROW_S
 10
60.92753886864686
 20
103.8035455586796
 30
0.0
 41
2.0
 42
2.0
 50
180.0
  0
INSERT
  5
1BA
330
1B4
100
AcDbEntity
  8
作図レイヤ
  6
Continuous
 62
     4
370
    13
100
AcDbBlockReference
  2
FXTIP_ARROW_E
 10
105.9275388686468
 20
103.8035455586796
 30
0.0
 41
2.0
 42
2.0
 50
360.0
  0
LINE
  5
1BB
330
1B4
100
AcDbEntity
  8
作図レイヤ
  6
Continuous
 62
     4
370
    13
100
AcDbLine
 10
60.92753886864676
 20
153.7477596542377
 30
0.0
 11
60.92753886864685
 21
102.8035455586796
 31
0.0
  0
LINE
  5
1BC
330
1B4
100
AcDbEntity
  8
作図レイヤ
  6
Continuous
 62
     4
370
    13
100
AcDbLine
 10
105.9275388686468
 20
153.7477596542377
 30
0.0
 11
105.9275388686468
 21
102.8035455586796
 31
0.0
  0
ENDBLK
  5
1B6
330
1B4
100
AcDbEntity
  8
0
100
AcDbBlockEnd
  0
BLOCK
  5
1BF
330
1BE
100
AcDbEntity
  8
0
100
AcDbBlockBegin
  2
*D30
 70
     1
 10
0.0
 20
0.0
 30
0.0
  3
*D30
  1

  0
TEXT
  5
1C1
330
1BE
100
AcDbEntity
  8
作図レイヤ
  6
Continuous
 62
     7
370
    25
100
AcDbText
 10
263.9924790022001
 20
150.8284860838814
 30
0.0
 40
2.666666666666667
  1
%%c
 50
90.0
 41
1.024965800273598
  7
ＭＳ 明朝
 72
     1
 11
264.5410461425781
 21
151.8280639648438
 31
0.0
100
AcDbText
 73
     1
  0
TEXT
  5
1C2
330
1BE
100
AcDbEntity
  8
作図レイヤ
  6
Continuous
 62
     7
370
    25
100
AcDbText
 10
263.9924790022001
 20
153.8289082029189
 30
0.0
 40
2.666666666666667
  1
45
 50
90.0
 41
1.024965800273598
  7
ＭＳ 明朝
 72
     1
 11
264.5410461425781
 21
155.8280639648438
 31
0.0
100
AcDbText
 73
     1
  0
TEXT
  5
1C3
330
1BE
100
AcDbEntity
  8
作図レイヤ
  6
Continuous
 62
     7
370
    25
100
AcDbText
 10
262.2667625723891
 20
157.8284860838814
 30
0.0
 40
1.333333333333333
  1
 0
 50
90.0
 41
1.024965800273598
  7
ＭＳ 明朝
 72
     1
 11
262.5410461425781
 21
158.8280639648438
 31
0.0
100
AcDbText
 73
     1
  0
TEXT
  5
1C4
330
1BE
100
AcDbEntity
  8
作図レイヤ
  6
Continuous
 62
     7
370
    25
100
AcDbText
 10
264.2667625723891
 20
157.8291192624377
 30
0.0
 40
1.333333333333333
  1
-0.02
 50
90.0
 41
1.024965800273598
  7
ＭＳ 明朝
 72
     1
 11
264.5410461425781
 21
160.3280639648438
 31
0.0
100
AcDbText
 73
     1
  0
LINE
  5
1C5
330
1BE
100
AcDbEntity
  8
作図レイヤ
  6
Continuous
 62
     4
370
    13
100
AcDbLine
 10
265.5410544021237
 20
167.1189512025632
 30
0.0
 11
265.5410544021237
 21
212.1189512025631
 31
0.0
  0
LINE
  5
1C6
330
1BE
100
AcDbEntity
  8
作図レイヤ
  6
Continuous
 62
     4
370
    13
100
AcDbLine
 10
265.5410544021237
 20
145.5371650647532
 30
0.0
 11
265.5410544021237
 21
167.1189512025632
 31
0.0
  0
INSERT
  5
1C7
330
1BE
100
AcDbEntity
  8
作図レイヤ
  6
Continuous
 62
     4
370
    13
100
AcDbBlockReference
  2
FXTIP_ARROW_E
 10
265.5410544021237
 20
167.1189512025632
 30
0.0
 41
2.0
 42
2.0
 50
90.0
  0
LINE
  5
1C8
330
1BE
100
AcDbEntity
  8
作図レイヤ
  6
Continuous
 62
     4
370
    13
100
AcDbLine
 10
265.5410544021237
 20
212.1189512025631
 30
0.0
 11
265.5410544021237
 21
218.1189512025631
 31
0.0
  0
INSERT
  5
1C9
330
1BE
100
AcDbEntity
  8
作図レイヤ
  6
Continuous
 62
     4
370
    13
100
AcDbBlockReference
  2
FXTIP_ARROW_S
 10
265.5410544021237
 20
212.1189512025631
 30
0.0
 41
2.0
 42
2.0
 50
270.0
  0
ENDBLK
  5
1C0
330
1BE
100
AcDbEntity
  8
0
100
AcDbBlockEnd
  0
BLOCK
  5
1CC
330
1CB
100
AcDbEntity
  8
0
100
AcDbBlockBegin
  2
*D31
 70
     1
 10
0.0
 20
0.0
 30
0.0
  3
*D31
  1

  0
TEXT
  5
1CE
330
1CB
100
AcDbEntity
  8
作図レイヤ
  6
Continuous
 62
     7
370
    25
100
AcDbText
 10
206.8631184079013
 20
132.4134353040916
 30
0.0
 40
2.666666666666667
  1
23
 50
0.0000000099999999
 41
1.024965800273598
  7
ＭＳ 明朝
 72
     1
 11
208.8622741699219
 21
131.8648681640625
 31
0.0
100
AcDbText
 73
     1
  0
LINE
  5
1CF
330
1CB
100
AcDbEntity
  8
作図レイヤ
  6
Continuous
 62
     4
370
    13
100
AcDbLine
 10
197.3622675148744
 20
130.8648666069059
 30
0.0
 11
220.3622675148743
 21
130.8648666069059
 31
0.0
  0
INSERT
  5
1D0
330
1CB
100
AcDbEntity
  8
作図レイヤ
  6
Continuous
 62
     4
370
    13
100
AcDbBlockReference
  2
FXTIP_ARROW_S
 10
197.3622675148744
 20
130.8648666069059
 30
0.0
 41
2.0
 42
2.0
 50
180.0
  0
INSERT
  5
1D1
330
1CB
100
AcDbEntity
  8
作図レイヤ
  6
Continuous
 62
     4
370
    13
100
AcDbBlockReference
  2
FXTIP_ARROW_E
 10
220.3622675148743
 20
130.8648666069059
 30
0.0
 41
2.0
 42
2.0
 50
360.0
  0
LINE
  5
1D2
330
1CB
100
AcDbEntity
  8
作図レイヤ
  6
Continuous
 62
     4
370
    13
100
AcDbLine
 10
197.3622675148744
 20
147.6189512025632
 30
0.0
 11
197.3622675148744
 21
129.8648666069059
 31
0.0
  0
LINE
  5
1D3
330
1CB
100
AcDbEntity
  8
作図レイヤ
  6
Continuous
 62
     4
370
    13
100
AcDbLine
 10
220.3622675148743
 20
147.6189512025631
 30
0.0
 11
220.3622675148743
 21
129.8648666069059
 31
0.0
  0
ENDBLK
  5
1CD
330
1CB
100
AcDbEntity
  8
0
100
AcDbBlockEnd
  0
BLOCK
  5
1D6
330
1D5
100
AcDbEntity
  8
0
100
AcDbBlockBegin
  2
*D32
 70
     1
 10
0.0
 20
0.0
 30
0.0
  3
*D32
  1

  0
TEXT
  5
1D8
330
1D5
100
AcDbEntity
  8
作図レイヤ
  6
Continuous
 62
     7
370
    25
100
AcDbText
 10
290.2143908685296
 20
119.5910170906776
 30
0.0
 40
2.666666666666667
  1
149.5
 50
0.0000000100000079
 41
1.024965800273598
  7
ＭＳ 明朝
 72
     1
 11
295.2122802734375
 21
119.0424499511719
 31
0.0
100
AcDbText
 73
     1
  0
LINE
  5
1D9
330
1D5
100
AcDbEntity
  8
作図レイヤ
  6
Continuous
 62
     4
370
    13
100
AcDbLine
 10
220.4622675148744
 20
118.042447841785
 30
0.0
 11
369.9622675148742
 21
118.042447841785
 31
0.0
  0
INSERT
  5
1DA
330
1D5
100
AcDbEntity
  8
作図レイヤ
  6
Continuous
 62
     4
370
    13
100
AcDbBlockReference
  2
FXTIP_ARROW_S
 10
220.4622675148744
 20
118.042447841785
 30
0.0
 41
2.0
 42
2.0
 50
180.0
  0
INSERT
  5
1DB
330
1D5
100
AcDbEntity
  8
作図レイヤ
  6
Continuous
 62
     4
370
    13
100
AcDbBlockReference
  2
FXTIP_ARROW_E
 10
369.9622675148742
 20
118.042447841785
 30
0.0
 41
2.0
 42
2.0
 50
360.0
  0
LINE
  5
1DC
330
1D5
100
AcDbEntity
  8
作図レイヤ
  6
Continuous
 62
     4
370
    13
100
AcDbLine
 10
369.9622675148743
 20
166.6189512025632
 30
0.0
 11
369.9622675148742
 21
117.042447841785
 31
0.0
  0
ENDBLK
  5
1D7
330
1D5
100
AcDbEntity
  8
0
100
AcDbBlockEnd
  0
BLOCK
  5
1DF
330
1DE
100
AcDbEntity
  8
0
100
AcDbBlockBegin
  2
*D33
 70
     1
 10
0.0
 20
0.0
 30
0.0
  3
*D33
  1

  0
TEXT
  5
1E1
330
1DE
100
AcDbEntity
  8
作図レイヤ
  6
Continuous
 62
     7
370
    25
100
AcDbText
 10
194.2139534907029
 20
119.5910170908521
 30
0.0
 40
2.666666666666667
  1
44.5
 50
0.0000000099999999
 41
1.024965800273598
  7
ＭＳ 明朝
 72
     1
 11
198.2122650146484
 21
119.0424499511719
 31
0.0
100
AcDbText
 73
     1
  0
LINE
  5
1E2
330
1DE
100
AcDbEntity
  8
作図レイヤ
  6
Continuous
 62
     4
370
    13
100
AcDbLine
 10
175.9622675148744
 20
118.042447841785
 30
0.0
 11
220.4622675148744
 21
118.042447841785
 31
0.0
  0
INSERT
  5
1E3
330
1DE
100
AcDbEntity
  8
作図レイヤ
  6
Continuous
 62
     4
370
    13
100
AcDbBlockReference
  2
FXTIP_ARROW_S
 10
175.9622675148744
 20
118.042447841785
 30
0.0
 41
2.0
 42
2.0
 50
180.0
  0
INSERT
  5
1E4
330
1DE
100
AcDbEntity
  8
作図レイヤ
  6
Continuous
 62
     4
370
    13
100
AcDbBlockReference
  2
FXTIP_ARROW_E
 10
220.4622675148744
 20
118.042447841785
 30
0.0
 41
2.0
 42
2.0
 50
360.0
  0
LINE
  5
1E5
330
1DE
100
AcDbEntity
  8
作図レイヤ
  6
Continuous
 62
     4
370
    13
100
AcDbLine
 10
175.9622675148743
 20
179.6189512025632
 30
0.0
 11
175.9622675148744
 21
117.042447841785
 31
0.0
  0
LINE
  5
1E6
330
1DE
100
AcDbEntity
  8
作図レイヤ
  6
Continuous
 62
     4
370
    13
100
AcDbLine
 10
220.4622675148743
 20
147.6189512025631
 30
0.0
 11
220.4622675148744
 21
117.042447841785
 31
0.0
  0
ENDBLK
  5
1E0
330
1DE
100
AcDbEntity
  8
0
100
AcDbBlockEnd
  0
BLOCK
  5
1E9
330
1E8
100
AcDbEntity
  8
0
100
AcDbBlockBegin
  2
*D34
 70
     1
 10
0.0
 20
0.0
 30
0.0
  3
*D34
  1

  0
TEXT
  5
1EB
330
1E8
100
AcDbEntity
  8
作図レイヤ
  6
Continuous
 62
     7
370
    25
100
AcDbText
 10
267.9627023923793
 20
105.3521102310239
 30
0.0
 40
2.666666666666667
  1
(
 50
0.0000000100000079
 41
1.024965800273598
  7
ＭＳ 明朝
 72
     1
 11
268.9622802734375
 21
104.8035430908203
 31
0.0
100
AcDbText
 73
     1
  0
TEXT
  5
1EC
330
1E8
100
AcDbEntity
  8
作図レイヤ
  6
Continuous
 62
     7
370
    25
100
AcDbText
 10
269.9635466304545
 20
105.352110230675
 30
0.0
 40
2.666666666666667
  1
194
 50
0.0000000100000079
 41
1.024965800273598
  7
ＭＳ 明朝
 72
     1
 11
272.9622802734375
 21
104.8035430908203
 31
0.0
100
AcDbText
 73
     1
  0
TEXT
  5
1ED
330
1E8
100
AcDbEntity
  8
作図レイヤ
  6
Continuous
 62
     7
370
    25
100
AcDbText
 10
275.9627023923793
 20
105.3521102310239
 30
0.0
 40
2.666666666666667
  1
)
 50
0.0000000100000079
 41
1.024965800273598
  7
ＭＳ 明朝
 72
     1
 11
276.9622802734375
 21
104.8035430908203
 31
0.0
100
AcDbText
 73
     1
  0
LINE
  5
1EE
330
1E8
100
AcDbEntity
  8
作図レイヤ
  6
Continuous
 62
     4
370
    13
100
AcDbLine
 10
175.9622675148742
 20
103.8035455586796
 30
0.0
 11
369.9622675148743
 21
103.8035455586796
 31
0.0
  0
INSERT
  5
1EF
330
1E8
100
AcDbEntity
  8
作図レイヤ
  6
Continuous
 62
     4
370
    13
100
AcDbBlockReference
  2
FXTIP_ARROW_S
 10
175.9622675148742
 20
103.8035455586796
 30
0.0
 41
2.0
 42
2.0
 50
180.0
  0
INSERT
  5
1F0
330
1E8
100
AcDbEntity
  8
作図レイヤ
  6
Continuous
 62
     4
370
    13
100
AcDbBlockReference
  2
FXTIP_ARROW_E
 10
369.9622675148743
 20
103.8035455586796
 30
0.0
 41
2.0
 42
2.0
 50
360.0
  0
LINE
  5
1F1
330
1E8
100
AcDbEntity
  8
作図レイヤ
  6
Continuous
 62
     4
370
    13
100
AcDbLine
 10
175.9622675148743
 20
179.6189512025632
 30
0.0
 11
175.9622675148742
 21
102.8035455586796
 31
0.0
  0
LINE
  5
1F2
330
1E8
100
AcDbEntity
  8
作図レイヤ
  6
Continuous
 62
     4
370
    13
100
AcDbLine
 10
369.9622675148743
 20
166.6189512025632
 30
0.0
 11
369.9622675148743
 21
102.8035455586796
 31
0.0
  0
ENDBLK
  5
1EA
330
1E8
100
AcDbEntity
  8
0
100
AcDbBlockEnd
  0
BLOCK
  5
1F4
330
1F3
100
AcDbEntity
  8
0
100
AcDbBlockBegin
  2
FXDIM038
 70
     0
 10
0.0
 20
0.0
 30
0.0
  3
FXDIM038
  1

  0
LINE
  5
1F7
330
1F3
100
AcDbEntity
  8
作図レイヤ
  6
Continuous
 62
     4
370
    13
100
AcDbLine
 10
362.4532029734517
 20
202.8755200320523
 30
0.0
 11
377.8469191941327
 21
223.0007690591377
 31
0.0
  0
INSERT
  5
1F8
330
1F3
100
AcDbEntity
  8
作図レイヤ
  6
Continuous
 62
     4
370
    13
100
AcDbBlockReference
  2
FXTIP_ARROW_S
 10
362.4532029734517
 20
202.8755200320523
 30
0.0
 41
2.0
 42
2.0
 50
232.5877817493199
  0
LINE
  5
1F9
330
1F3
100
AcDbEntity
  8
作図レイヤ
  6
Continuous
 62
     4
370
    13
100
AcDbLine
 10
377.8469191941327
 20
223.0007690591377
 30
0.0
 11
403.8469191941327
 21
223.0007690591377
 31
0.0
  0
TEXT
  5
1FA
330
1F3
100
AcDbEntity
  8
作図レイヤ
  6
Continuous
 62
     7
370
    25
100
AcDbText
 10
378.8519892565758
 20
224.5493300798311
 30
0.0
 40
2.666666666666667
  1
モータ動力線
 41
1.024965800273598
  7
ＭＳ 明朝
 72
     1
 11
390.846923828125
 21
224.0007629394531
 31
0.0
100
AcDbText
 73
     1
  0
ENDBLK
  5
1F5
330
1F3
100
AcDbEntity
  8
0
100
AcDbBlockEnd
  0
BLOCK
  5
1FC
330
1FB
100
AcDbEntity
  8
0
100
AcDbBlockBegin
  2
FXDIM039
 70
     0
 10
0.0
 20
0.0
 30
0.0
  3
FXDIM039
  1

  0
LINE
  5
1FF
330
1FB
100
AcDbEntity
  8
作図レイヤ
  6
Continuous
 62
     4
370
    13
100
AcDbLine
 10
361.9895115043635
 20
177.2736832419498
 30
0.0
 11
380.0995258174076
 21
156.3226598057767
 31
0.0
  0
INSERT
  5
200
330
1FB
100
AcDbEntity
  8
作図レイヤ
  6
Continuous
 62
     4
370
    13
100
AcDbBlockReference
  2
FXTIP_ARROW_S
 10
361.9895115043635
 20
177.2736832419498
 30
0.0
 41
2.0
 42
2.0
 50
130.8400565787433
  0
LINE
  5
201
330
1FB
100
AcDbEntity
  8
作図レイヤ
  6
Continuous
 62
     4
370
    13
100
AcDbLine
 10
380.0995258174076
 20
156.3226598057767
 30
0.0
 11
406.0995258174076
 21
156.3226598057767
 31
0.0
  0
TEXT
  5
202
330
1FB
100
AcDbEntity
  8
作図レイヤ
  6
Continuous
 62
     7
370
    25
100
AcDbText
 10
381.1045832507165
 20
157.8712294938936
 30
0.0
 40
2.666666666666667
  1
モータ信号線
 41
1.024965800273598
  7
ＭＳ 明朝
 72
     1
 11
393.0995178222656
 21
157.3226623535156
 31
0.0
100
AcDbText
 73
     1
  0
ENDBLK
  5
1FD
330
1FB
100
AcDbEntity
  8
0
100
AcDbBlockEnd
  0
BLOCK
  5
204
330
203
100
AcDbEntity
  8
0
100
AcDbBlockBegin
  2
FXDIM040
 70
     0
 10
0.0
 20
0.0
 30
0.0
  3
FXDIM040
  1

  0
LINE
  5
207
330
203
100
AcDbEntity
  8
作図レイヤ
  6
Continuous
 62
     4
370
    13
100
AcDbLine
 10
346.8695979840953
 20
192.519998133674
 30
0.0
 11
335.3891185379553
 21
223.0007690591377
 31
0.0
  0
INSERT
  5
208
330
203
100
AcDbEntity
  8
作図レイヤ
  6
Continuous
 62
     4
370
    13
100
AcDbBlockReference
  2
FXTIP_ARROW_S
 10
346.8695979840953
 20
192.519998133674
 30
0.0
 41
2.0
 42
2.0
 50
290.6387134554764
  0
LINE
  5
209
330
203
100
AcDbEntity
  8
作図レイヤ
  6
Continuous
 62
     4
370
    13
100
AcDbLine
 10
335.3891185379553
 20
223.0007690591377
 30
0.0
 11
291.3891185379553
 21
223.0007690591377
 31
0.0
  0
TEXT
  5
20A
330
203
100
AcDbEntity
  8
作図レイヤ
  6
Continuous
 62
     7
370
    25
100
AcDbText
 10
293.3975720194233
 20
224.5493300798311
 30
0.0
 40
2.666666666666667
  1
冷却エアー用継手(%%c6)
 41
1.024965800273598
  7
ＭＳ 明朝
 72
     1
 11
313.3891296386719
 21
224.0007629394531
 31
0.0
100
AcDbText
 73
     1
  0
ENDBLK
  5
205
330
203
100
AcDbEntity
  8
0
100
AcDbBlockEnd
  0
BLOCK
  5
393
330
392
100
AcDbEntity
  8
0
100
AcDbBlockBegin
  2
BLKF041
 70
     0
 10
0.0
 20
0.0
 30
0.0
  3
BLKF041
  1

  0
LINE
  5
396
330
392
100
AcDbEntity
  8
作図レイヤ
  6
Continuous
 62
     4
370
    13
100
AcDbLine
 10
370.9622675148743
 20
200.8689512025632
 30
0.0
 11
373.6622675148743
 21
200.8689512025632
 31
0.0
  0
LINE
  5
397
330
392
100
AcDbEntity
  8
作図レイヤ
  6
Continuous
 62
     4
370
    13
100
AcDbLine
 10
373.6622675148743
 20
200.8689512025632
 30
0.0
 11
373.9622675148743
 21
201.1689512025632
 31
0.0
  0
LINE
  5
398
330
392
100
AcDbEntity
  8
作図レイヤ
  6
Continuous
 62
     4
370
    13
100
AcDbLine
 10
373.9622675148743
 20
201.1689512025632
 30
0.0
 11
373.9622675148743
 21
206.0689512025632
 31
0.0
  0
LINE
  5
399
330
392
100
AcDbEntity
  8
作図レイヤ
  6
Continuous
 62
     4
370
    13
100
AcDbLine
 10
373.9622675148743
 20
206.0689512025632
 30
0.0
 11
373.6622675148743
 21
206.3689512025632
 31
0.0
  0
LINE
  5
39A
330
392
100
AcDbEntity
  8
作図レイヤ
  6
Continuous
 62
     4
370
    13
100
AcDbLine
 10
373.6622675148743
 20
206.3689512025632
 30
0.0
 11
370.9622675148743
 21
206.3689512025632
 31
0.0
  0
LINE
  5
39B
330
392
100
AcDbEntity
  8
作図レイヤ
  6
Continuous
 62
     4
370
    13
100
AcDbLine
 10
373.6622675148743
 20
200.8689512025632
 30
0.0
 11
373.6622675148743
 21
206.3689512025632
 31
0.0
  0
LINE
  5
39C
330
392
100
AcDbEntity
  8
作図レイヤ
  6
Continuous
 62
     4
370
    13
100
AcDbLine
 10
370.9622675148743
 20
200.8689512025632
 30
0.0
 11
370.9622675148743
 21
206.3689512025632
 31
0.0
  0
ENDBLK
  5
394
330
392
100
AcDbEntity
  8
0
100
AcDbBlockEnd
  0
BLOCK
  5
3A2
330
3A1
100
AcDbEntity
  8
0
100
AcDbBlockBegin
  2
BLKF042
 70
     0
 10
0.0
 20
0.0
 30
0.0
  3
BLKF042
  1

  0
LINE
  5
3A5
330
3A1
100
AcDbEntity
  8
作図レイヤ
  6
Continuous
 62
     4
370
    13
100
AcDbLine
 10
370.9622675148743
 20
178.3689512025632
 30
0.0
 11
373.6622675148743
 21
178.3689512025632
 31
0.0
  0
LINE
  5
3A6
330
3A1
100
AcDbEntity
  8
作図レイヤ
  6
Continuous
 62
     4
370
    13
100
AcDbLine
 10
373.6622675148743
 20
178.3689512025632
 30
0.0
 11
373.9622675148743
 21
178.0689512025632
 31
0.0
  0
LINE
  5
3A7
330
3A1
100
AcDbEntity
  8
作図レイヤ
  6
Continuous
 62
     4
370
    13
100
AcDbLine
 10
373.9622675148743
 20
178.0689512025632
 30
0.0
 11
373.9622675148743
 21
173.1689512025631
 31
0.0
  0
LINE
  5
3A8
330
3A1
100
AcDbEntity
  8
作図レイヤ
  6
Continuous
 62
     4
370
    13
100
AcDbLine
 10
373.9622675148743
 20
173.1689512025631
 30
0.0
 11
373.6622675148743
 21
172.8689512025632
 31
0.0
  0
LINE
  5
3A9
330
3A1
100
AcDbEntity
  8
作図レイヤ
  6
Continuous
 62
     4
370
    13
100
AcDbLine
 10
373.6622675148743
 20
172.8689512025632
 30
0.0
 11
370.9622675148743
 21
172.8689512025632
 31
0.0
  0
LINE
  5
3AA
330
3A1
100
AcDbEntity
  8
作図レイヤ
  6
Continuous
 62
     4
370
    13
100
AcDbLine
 10
373.6622675148743
 20
178.3689512025632
 30
0.0
 11
373.6622675148743
 21
172.8689512025632
 31
0.0
  0
LINE
  5
3AB
330
3A1
100
AcDbEntity
  8
作図レイヤ
  6
Continuous
 62
     4
370
    13
100
AcDbLine
 10
370.9622675148743
 20
178.3689512025632
 30
0.0
 11
370.9622675148743
 21
172.8689512025632
 31
0.0
  0
ENDBLK
  5
3A3
330
3A1
100
AcDbEntity
  8
0
100
AcDbBlockEnd
  0
BLOCK
  5
3E0
330
3DF
100
AcDbEntity
  8
0
100
AcDbBlockBegin
  2
BLKF043
 70
     0
 10
0.0
 20
0.0
 30
0.0
  3
BLKF043
  1

  0
CIRCLE
  5
3E3
330
3DF
100
AcDbEntity
  8
作図レイヤ
  6
Continuous
 62
     4
370
    13
100
AcDbCircle
 10
322.4622675148742
 20
189.6189512025632
 30
0.0
 40
2.5
  0
LINE
  5
3E4
330
3DF
100
AcDbEntity
  8
作図レイヤ
  6
Continuous
 62
     4
370
    13
100
AcDbLine
 10
322.8622675148742
 20
191.2189512025631
 30
0.0
 11
322.0622675148742
 21
191.2189512025631
 31
0.0
  0
LINE
  5
3E5
330
3DF
100
AcDbEntity
  8
作図レイヤ
  6
Continuous
 62
     4
370
    13
100
AcDbLine
 10
320.8622675148742
 20
190.0189512025632
 30
0.0
 11
320.8622675148742
 21
189.2189512025631
 31
0.0
  0
LINE
  5
3E6
330
3DF
100
AcDbEntity
  8
作図レイヤ
  6
Continuous
 62
     4
370
    13
100
AcDbLine
 10
322.8622675148742
 20
188.0189512025632
 30
0.0
 11
322.0622675148742
 21
188.0189512025632
 31
0.0
  0
LINE
  5
3E7
330
3DF
100
AcDbEntity
  8
作図レイヤ
  6
Continuous
 62
     4
370
    13
100
AcDbLine
 10
324.0622675148742
 20
190.0189512025632
 30
0.0
 11
324.0622675148742
 21
189.2189512025631
 31
0.0
  0
LINE
  5
3E8
330
3DF
100
AcDbEntity
  8
作図レイヤ
  6
Continuous
 62
     4
370
    13
100
AcDbLine
 10
322.0622675148742
 20
191.2189512025631
 30
0.0
 11
322.0622675148742
 21
190.4189512025632
 31
0.0
  0
LINE
  5
3E9
330
3DF
100
AcDbEntity
  8
作図レイヤ
  6
Continuous
 62
     4
370
    13
100
AcDbLine
 10
322.8622675148742
 20
191.2189512025631
 30
0.0
 11
322.8622675148742
 21
190.4189512025632
 31
0.0
  0
LINE
  5
3EA
330
3DF
100
AcDbEntity
  8
作図レイヤ
  6
Continuous
 62
     4
370
    13
100
AcDbLine
 10
322.0622675148742
 20
188.8189512025631
 30
0.0
 11
322.0622675148742
 21
188.0189512025632
 31
0.0
  0
LINE
  5
3EB
330
3DF
100
AcDbEntity
  8
作図レイヤ
  6
Continuous
 62
     4
370
    13
100
AcDbLine
 10
322.8622675148742
 20
188.8189512025631
 30
0.0
 11
322.8622675148742
 21
188.0189512025632
 31
0.0
  0
LINE
  5
3EC
330
3DF
100
AcDbEntity
  8
作図レイヤ
  6
Continuous
 62
     4
370
    13
100
AcDbLine
 10
324.0622675148742
 20
190.0189512025632
 30
0.0
 11
323.2622675148742
 21
190.0189512025632
 31
0.0
  0
LINE
  5
3ED
330
3DF
100
AcDbEntity
  8
作図レイヤ
  6
Continuous
 62
     4
370
    13
100
AcDbLine
 10
324.0622675148742
 20
189.2189512025631
 30
0.0
 11
323.2622675148742
 21
189.2189512025631
 31
0.0
  0
LINE
  5
3EE
330
3DF
100
AcDbEntity
  8
作図レイヤ
  6
Continuous
 62
     4
370
    13
100
AcDbLine
 10
321.6622675148742
 20
190.0189512025632
 30
0.0
 11
320.8622675148742
 21
190.0189512025632
 31
0.0
  0
LINE
  5
3EF
330
3DF
100
AcDbEntity
  8
作図レイヤ
  6
Continuous
 62
     4
370
    13
100
AcDbLine
 10
321.6622675148742
 20
189.2189512025631
 30
0.0
 11
320.8622675148742
 21
189.2189512025631
 31
0.0
  0
ARC
  5
3F0
330
3DF
100
AcDbEntity
  8
作図レイヤ
  6
Continuous
 62
     4
370
    13
100
AcDbCircle
 10
321.6622675148742
 20
190.4189512025632
 30
0.0
 40
0.4
100
AcDbArc
 50
270.0
 51
0.0
  0
ARC
  5
3F1
330
3DF
100
AcDbEntity
  8
作図レイヤ
  6
Continuous
 62
     4
370
    13
100
AcDbCircle
 10
323.2622675148742
 20
190.4189512025632
 30
0.0
 40
0.4
100
AcDbArc
 50
180.0
 51
270.0
  0
ARC
  5
3F2
330
3DF
100
AcDbEntity
  8
作図レイヤ
  6
Continuous
 62
     4
370
    13
100
AcDbCircle
 10
323.2622675148742
 20
188.8189512025631
 30
0.0
 40
0.4
100
AcDbArc
 50
90.0
 51
180.0
  0
ARC
  5
3F3
330
3DF
100
AcDbEntity
  8
作図レイヤ
  6
Continuous
 62
     4
370
    13
100
AcDbCircle
 10
321.6622675148742
 20
188.8189512025631
 30
0.0
 40
0.4
100
AcDbArc
 50
0.0
 51
90.0
  0
ENDBLK
  5
3E1
330
3DF
100
AcDbEntity
  8
0
100
AcDbBlockEnd
  0
BLOCK
  5
4B7
330
4B6
100
AcDbEntity
  8
0
100
AcDbBlockBegin
  2
DL45S-01-010__G___R_____J_o___SUS420J2_1
 70
     0
 10
226.6367876976274
 20
410.363432570517
 30
0.0
  3
DL45S-01-010__G___R_____J_o___SUS420J2_1
  1

  0
POINT
  5
4B8
330
4B6
100
AcDbEntity
  8
PV
 62
     7
100
AcDbPoint
 10
341.6259124923804
 20
64.39835173941401
 30
0.0
  0
POINT
  5
4B9
330
4B6
100
AcDbEntity
  8
RV
 62
     7
100
AcDbPoint
 10
307.6259124923804
 20
182.7604552588462
 30
0.0
  0
POINT
  5
4BA
330
4B6
100
AcDbEntity
  8
RV
 62
     7
100
AcDbPoint
 10
307.6259124923804
 20
137.7604552588461
 30
0.0
  0
POINT
  5
4BB
330
4B6
100
AcDbEntity
  8
RV
 62
     7
100
AcDbPoint
 10
307.6259124923804
 20
137.7604552588461
 30
0.0
  0
POINT
  5
4BC
330
4B6
100
AcDbEntity
  8
RV
 62
     7
100
AcDbPoint
 10
307.6259124923804
 20
182.7604552588462
 30
0.0
  0
POINT
  5
4BD
330
4B6
100
AcDbEntity
  8
PV
 62
     7
100
AcDbPoint
 10
341.6259124923804
 20
182.2604552588462
 30
0.0
  0
LINE
  5
4BE
330
4B6
100
AcDbEntity
  8
PV
  6
Continuous
 62
     7
100
AcDbLine
 10
341.6259124923804
 20
147.860448098134
 30
0.0
 11
341.6259124923804
 21
144.660448098134
 31
0.0
  0
LINE
  5
4BF
330
4B6
100
AcDbEntity
  8
PV
  6
Continuous
 62
     7
100
AcDbLine
 10
341.6259124923804
 20
172.6604624195584
 30
0.0
 11
341.6259124923804
 21
138.2604552588466
 31
0.0
  0
LINE
  5
4C0
330
4B6
100
AcDbEntity
  8
PV
  6
Continuous
 62
     7
100
AcDbLine
 10
341.6259124923804
 20
175.8604624195584
 30
0.0
 11
341.6259124923804
 21
172.6604624195584
 31
0.0
  0
LINE
  5
4C1
330
4B6
100
AcDbEntity
  8
1
  6
Continuous
 62
     7
100
AcDbLine
 10
307.6259124923804
 20
64.89835173941401
 30
0.0
 11
307.6259124923804
 21
19.898351739414
 31
0.0
  0
LINE
  5
4C2
330
4B6
100
AcDbEntity
  8
PV
  6
Continuous
 62
     7
100
AcDbLine
 10
341.6259124923804
 20
64.39835173941401
 30
0.0
 11
341.6259124923804
 21
20.398351739414
 31
0.0
  0
LINE
  5
4C3
330
4B6
100
AcDbEntity
  8
PV
  6
Continuous
 62
     7
100
AcDbLine
 10
341.1259124923804
 20
19.898351739414
 30
0.0
 11
318.6259124923804
 21
19.898351739414
 31
0.0
  0
LINE
  5
4C4
330
4B6
100
AcDbEntity
  8
PV
  6
Continuous
 62
     7
100
AcDbLine
 10
341.1259124923804
 20
19.898351739414
 30
0.0
 11
341.6259124923804
 21
20.398351739414
 31
0.0
  0
LINE
  5
4C5
330
4B6
100
AcDbEntity
  8
1
  6
Continuous
 62
     7
100
AcDbLine
 10
318.6259124923804
 20
19.898351739414
 30
0.0
 11
307.6259124923804
 21
19.898351739414
 31
0.0
  0
LINE
  5
4C6
330
4B6
100
AcDbEntity
  8
PV
  6
Continuous
 62
     7
100
AcDbLine
 10
341.1259124923804
 20
64.89835173941401
 30
0.0
 11
318.6259124923804
 21
64.89835173941401
 31
0.0
  0
LINE
  5
4C7
330
4B6
100
AcDbEntity
  8
PV
  6
Continuous
 62
     7
100
AcDbLine
 10
341.6259124923804
 20
64.39835173941401
 30
0.0
 11
341.1259124923804
 21
64.89835173941401
 31
0.0
  0
LINE
  5
4C8
330
4B6
100
AcDbEntity
  8
1
  6
Continuous
 62
     7
100
AcDbLine
 10
307.6259124923804
 20
64.89835173941401
 30
0.0
 11
318.6259124923804
 21
64.89835173941401
 31
0.0
  0
LINE
  5
4C9
330
4B6
100
AcDbEntity
  8
RV
  6
Continuous
 62
     7
100
AcDbLine
 10
341.1259124923804
 20
137.7604552588466
 30
0.0
 11
307.6259124923804
 21
137.7604552588461
 31
0.0
  0
LINE
  5
4CA
330
4B6
100
AcDbEntity
  8
1
  6
Continuous
 62
     7
100
AcDbLine
 10
307.6259124923804
 20
182.7604552588462
 30
0.0
 11
307.6259124923804
 21
137.7604552588461
 31
0.0
  0
LINE
  5
4CB
330
4B6
100
AcDbEntity
  8
PV
  6
Continuous
 62
     7
100
AcDbLine
 10
341.1259124923804
 20
182.7604552588462
 30
0.0
 11
307.6259124923804
 21
182.7604552588462
 31
0.0
  0
LINE
  5
4CC
330
4B6
100
AcDbEntity
  8
PV
  6
Continuous
 62
     7
100
AcDbLine
 10
341.6259124923804
 20
182.2604552588462
 30
0.0
 11
341.6259124923804
 21
175.8604624195584
 31
0.0
  0
LINE
  5
4CD
330
4B6
100
AcDbEntity
  8
PV
  6
Continuous
 62
     7
100
AcDbLine
 10
341.6259124923804
 20
182.2604552588462
 30
0.0
 11
341.1259124923804
 21
182.7604552588462
 31
0.0
  0
LINE
  5
4CE
330
4B6
100
AcDbEntity
  8
1
  6
Continuous
 62
     7
100
AcDbLine
 10
341.1259124923804
 20
137.7604552588466
 30
0.0
 11
341.6259124923804
 21
138.2604552588466
 31
0.0
  0
LINE
  5
4CF
330
4B6
100
AcDbEntity
  8
1
  6
Continuous
 62
     7
100
AcDbLine
 10
341.1259124923804
 20
64.89835173941401
 30
0.0
 11
341.1259124923804
 21
19.898351739414
 31
0.0
  0
LINE
  5
4D0
330
4B6
100
AcDbEntity
  8
1
  6
Continuous
 62
     7
100
AcDbLine
 10
341.1259124923804
 20
182.7604552588462
 30
0.0
 11
341.1259124923804
 21
137.7604552588466
 31
0.0
  0
ENDBLK
  5
4D1
330
4B6
100
AcDbEntity
  8
0
100
AcDbBlockEnd
  0
BLOCK
  5
4D4
330
4D3
100
AcDbEntity
  8
0
100
AcDbBlockBegin
  2
DL40-01-AS001-4__g__
 70
     0
 10
0.44357296231487
 20
-370.106358761777
 30
0.0
  3
DL40-01-AS001-4__g__
  1

  0
INSERT
  5
4D5
330
4D3
100
AcDbEntity
  8
0
100
AcDbBlockReference
  2
TOP
 10
486.7049700473109
 20
98.05758953905911
 30
0.0
  0
ENDBLK
  5
5D5
330
4D3
100
AcDbEntity
  8
0
100
AcDbBlockEnd
  0
BLOCK
  5
4D7
330
4D6
100
AcDbEntity
  8
0
100
AcDbBlockBegin
  2
TOP
 70
     0
 10
486.7049700473109
 20
98.05758953905911
 30
0.0
  3
TOP
  1

  0
LINE
  5
4D8
330
4D6
100
AcDbEntity
  8
PV
  6
Continuous
 62
     7
100
AcDbLine
 10
359.7509124923804
 20
169.7959552588462
 30
0.0
 11
363.1259124923804
 21
168.8916552588462
 31
0.0
  0
LINE
  5
4D9
330
4D6
100
AcDbEntity
  8
PV
  6
Continuous
 62
     7
100
AcDbLine
 10
363.1259124923804
 20
163.7959552588462
 30
0.0
 11
363.1259124923804
 21
168.8916552588462
 31
0.0
  0
LINE
  5
4DA
330
4D6
100
AcDbEntity
  8
PV
  6
Continuous
 62
     7
100
AcDbLine
 10
363.1259124923804
 20
163.7959552588462
 30
0.0
 11
363.1259124923804
 21
163.1604552588462
 31
0.0
  0
LINE
  5
4DB
330
4D6
100
AcDbEntity
  8
PV
  6
Continuous
 62
     7
100
AcDbLine
 10
344.1259124923804
 20
164.2604552588462
 30
0.0
 11
344.1259124923804
 21
167.4099552588462
 31
0.0
  0
LINE
  5
4DC
330
4D6
100
AcDbEntity
  8
PV
  6
Continuous
 62
     7
100
AcDbLine
 10
345.6259124923804
 20
168.8328552588462
 30
0.0
 11
346.9259124923804
 21
168.8734552588462
 31
0.0
  0
LINE
  5
4DD
330
4D6
100
AcDbEntity
  8
PV
  6
Continuous
 62
     7
100
AcDbLine
 10
352.1869124923803
 20
170.7239552588462
 30
0.0
 11
359.2149124923803
 21
170.7239552588462
 31
0.0
  0
LINE
  5
4DE
330
4D6
100
AcDbEntity
  8
PV
  6
Continuous
 62
     7
100
AcDbLine
 10
359.7509124923804
 20
169.7959552588462
 30
0.0
 11
359.2149124923803
 21
170.7239552588462
 31
0.0
  0
LINE
  5
4DF
330
4D6
100
AcDbEntity
  8
PV
  6
Continuous
 62
     7
100
AcDbLine
 10
351.6509124923804
 20
169.7959552588462
 30
0.0
 11
352.1869124923803
 21
170.7239552588462
 31
0.0
  0
LINE
  5
4E0
330
4D6
100
AcDbEntity
  8
PV
  6
Continuous
 62
     7
100
AcDbLine
 10
359.2149124923803
 20
167.2599552588462
 30
0.0
 11
352.1869124923803
 21
167.2599552588462
 31
0.0
  0
LINE
  5
4E1
330
4D6
100
AcDbEntity
  8
PV
  6
Continuous
 62
     7
100
AcDbLine
 10
355.9259124923804
 20
156.8677552588462
 30
0.0
 11
359.2149124923803
 21
156.8677552588462
 31
0.0
  0
LINE
  5
4E2
330
4D6
100
AcDbEntity
  8
PV
  6
Continuous
 62
     7
100
AcDbLine
 10
359.4994124923803
 20
157.3604552588462
 30
0.0
 11
359.2149124923803
 21
156.8677552588462
 31
0.0
  0
LINE
  5
4E3
330
4D6
100
AcDbEntity
  8
PV
  6
Continuous
 62
     7
100
AcDbLine
 10
359.7509124923804
 20
163.7959552588462
 30
0.0
 11
359.7509124923804
 21
163.1604552588462
 31
0.0
  0
LINE
  5
4E4
330
4D6
100
AcDbEntity
  8
PV
  6
Continuous
 62
     7
100
AcDbLine
 10
359.7509124923804
 20
163.7959552588462
 30
0.0
 11
359.7509124923804
 21
169.7959552588462
 31
0.0
  0
LINE
  5
4E5
330
4D6
100
AcDbEntity
  8
PV
  6
Continuous
 62
     7
100
AcDbLine
 10
351.6509124923804
 20
168.7959552588462
 30
0.0
 11
351.6509124923804
 21
169.7959552588462
 31
0.0
  0
LINE
  5
4E6
330
4D6
100
AcDbEntity
  8
PV
  6
Continuous
 62
     7
100
AcDbLine
 10
351.6509124923804
 20
168.7959552588462
 30
0.0
 11
351.2044124923804
 21
169.5694552588462
 31
0.0
  0
LINE
  5
4E7
330
4D6
100
AcDbEntity
  8
PV
  6
Continuous
 62
     7
100
AcDbLine
 10
351.6509124923804
 20
165.2604552588462
 30
0.0
 11
351.6509124923804
 21
168.7959552588462
 31
0.0
  0
LINE
  5
4E8
330
4D6
100
AcDbEntity
  8
PV
  6
Continuous
 62
     7
100
AcDbLine
 10
346.9259124923804
 20
168.7959552588462
 30
0.0
 11
347.3724124923804
 21
169.5694552588462
 31
0.0
  0
LINE
  5
4E9
330
4D6
100
AcDbEntity
  8
PV
  6
Continuous
 62
     7
100
AcDbLine
 10
346.9259124923804
 20
165.2604552588462
 30
0.0
 11
346.9259124923804
 21
168.7959552588462
 31
0.0
  0
LINE
  5
4EA
330
4D6
100
AcDbEntity
  8
PV
  6
Continuous
 62
     7
100
AcDbLine
 10
347.3724124923804
 20
169.5694552588462
 30
0.0
 11
351.2044124923804
 21
169.5694552588462
 31
0.0
  0
LINE
  5
4EB
330
4D6
100
AcDbEntity
  8
PV
  6
Continuous
 62
     7
100
AcDbLine
 10
351.2044124923804
 20
166.6829552588462
 30
0.0
 11
347.3724124923804
 21
166.6829552588462
 31
0.0
  0
LINE
  5
4EC
330
4D6
100
AcDbEntity
  8
PV
  6
Continuous
 62
     7
100
AcDbLine
 10
364.9259124923804
 20
145.0104552588462
 30
0.0
 11
356.9259124923804
 21
145.0104552588462
 31
0.0
  0
LINE
  5
4ED
330
4D6
100
AcDbEntity
  8
PV
  6
Continuous
 62
     7
100
AcDbLine
 10
364.9259124923804
 20
152.5104552588462
 30
0.0
 11
356.9259124923804
 21
152.5104552588462
 31
0.0
  0
LINE
  5
4EE
330
4D6
100
AcDbEntity
  8
PV
  6
Continuous
 62
     7
100
AcDbLine
 10
355.2282124923805
 20
155.1569552588462
 30
0.0
 11
356.2259124923804
 21
154.1592552588462
 31
0.0
  0
LINE
  5
4EF
330
4D6
100
AcDbEntity
  8
PV
  6
Continuous
 62
     7
100
AcDbLine
 10
355.2282124923805
 20
142.3640552588462
 30
0.0
 11
356.2259124923804
 21
143.3617552588462
 31
0.0
  0
LINE
  5
4F0
330
4D6
100
AcDbEntity
  8
PV
  6
Continuous
 62
     7
100
AcDbLine
 10
355.1246124923804
 20
155.2604552588462
 30
0.0
 11
346.0365124923803
 21
155.2604552588462
 31
0.0
  0
LINE
  5
4F1
330
4D6
100
AcDbEntity
  8
PV
  6
Continuous
 62
     7
100
AcDbLine
 10
355.1148124923803
 20
142.2604552588462
 30
0.0
 11
346.2369124923804
 21
142.2604552588462
 31
0.0
  0
LINE
  5
4F2
330
4D6
100
AcDbEntity
  8
PV
  6
Continuous
 62
     7
100
AcDbLine
 10
355.1802124923805
 20
152.7066552588462
 30
0.0
 11
346.1715124923803
 21
152.7066552588462
 31
0.0
  0
LINE
  5
4F3
330
4D6
100
AcDbEntity
  8
PV
  6
Continuous
 62
     7
100
AcDbLine
 10
355.1802124923805
 20
151.2604552588462
 30
0.0
 11
346.1715124923803
 21
151.2604552588462
 31
0.0
  0
LINE
  5
4F4
330
4D6
100
AcDbEntity
  8
PV
  6
Continuous
 62
     7
100
AcDbLine
 10
355.1802124923805
 20
146.2604552588462
 30
0.0
 11
346.1715124923803
 21
146.2604552588462
 31
0.0
  0
LINE
  5
4F5
330
4D6
100
AcDbEntity
  8
PV
  6
Continuous
 62
     7
100
AcDbLine
 10
355.1802124923805
 20
144.8143552588462
 30
0.0
 11
346.1715124923803
 21
144.8143552588462
 31
0.0
  0
LINE
  5
4F6
330
4D6
100
AcDbEntity
  8
PV
  6
Continuous
 62
     7
100
AcDbLine
 10
355.1802124923805
 20
152.7066552588462
 30
0.0
 11
355.1802124923805
 21
151.2604552588462
 31
0.0
  0
LINE
  5
4F7
330
4D6
100
AcDbEntity
  8
PV
  6
Continuous
 62
     7
100
AcDbLine
 10
355.1802124923805
 20
146.2604552588462
 30
0.0
 11
355.1802124923805
 21
144.8143552588462
 31
0.0
  0
LINE
  5
4F8
330
4D6
100
AcDbEntity
  8
PV
  6
Continuous
 62
     7
100
AcDbLine
 10
346.1715124923803
 20
152.7066552588462
 30
0.0
 11
346.1715124923803
 21
151.2604552588462
 31
0.0
  0
LINE
  5
4F9
330
4D6
100
AcDbEntity
  8
PV
  6
Continuous
 62
     7
100
AcDbLine
 10
346.1715124923803
 20
146.2604552588462
 30
0.0
 11
346.1715124923803
 21
144.8143552588462
 31
0.0
  0
LINE
  5
4FA
330
4D6
100
AcDbEntity
  8
PV
  6
Continuous
 62
     7
100
AcDbLine
 10
345.6259124923804
 20
153.9835552588462
 30
0.0
 11
345.6259124923804
 21
143.5374552588462
 31
0.0
  0
LINE
  5
4FB
330
4D6
100
AcDbEntity
  8
PV
  6
Continuous
 62
     7
100
AcDbLine
 10
345.6368124923804
 20
143.7604552588462
 30
0.0
 11
343.6150124923805
 21
143.7604552588462
 31
0.0
  0
LINE
  5
4FC
330
4D6
100
AcDbEntity
  8
PV
  6
Continuous
 62
     7
100
AcDbLine
 10
345.6259124923804
 20
153.7604552588462
 30
0.0
 11
343.6150124923805
 21
153.7604552588462
 31
0.0
  0
LINE
  5
4FD
330
4D6
100
AcDbEntity
  8
PV
  6
Continuous
 62
     7
100
AcDbLine
 10
343.0802124923804
 20
146.2604552588462
 30
0.0
 11
343.0802124923804
 21
144.8143552588462
 31
0.0
  0
LINE
  5
4FE
330
4D6
100
AcDbEntity
  8
PV
  6
Continuous
 62
     7
100
AcDbLine
 10
343.0802124923804
 20
152.7066552588462
 30
0.0
 11
343.0802124923804
 21
151.2604552588462
 31
0.0
  0
LINE
  5
4FF
330
4D6
100
AcDbEntity
  8
PV
  6
Continuous
 62
     7
100
AcDbLine
 10
343.6259124923804
 20
153.9835552588462
 30
0.0
 11
343.6259124923804
 21
143.5374552588462
 31
0.0
  0
LINE
  5
500
330
4D6
100
AcDbEntity
  8
PV
  6
Continuous
 62
     7
100
AcDbLine
 10
356.9259124923804
 20
144.4104552588462
 30
0.0
 11
356.2259124923804
 21
144.4104552588462
 31
0.0
  0
LINE
  5
501
330
4D6
100
AcDbEntity
  8
PV
  6
Continuous
 62
     7
100
AcDbLine
 10
356.9259124923804
 20
153.1104552588462
 30
0.0
 11
356.2259124923804
 21
153.1104552588462
 31
0.0
  0
LINE
  5
502
330
4D6
100
AcDbEntity
  8
PV
  6
Continuous
 62
     7
100
AcDbLine
 10
355.9259124923804
 20
156.8604552588462
 30
0.0
 11
355.2259124923804
 21
156.8604552588462
 31
0.0
  0
LINE
  5
503
330
4D6
100
AcDbEntity
  8
PV
  6
Continuous
 62
     7
100
AcDbLine
 10
355.9259124923804
 20
163.6604552588462
 30
0.0
 11
355.2259124923804
 21
163.6604552588462
 31
0.0
  0
LINE
  5
504
330
4D6
100
AcDbEntity
  8
PV
  6
Continuous
 62
     7
100
AcDbLine
 10
356.2259124923804
 20
154.1494552588462
 30
0.0
 11
356.2259124923804
 21
143.3715552588462
 31
0.0
  0
LINE
  5
505
330
4D6
100
AcDbEntity
  8
PV
  6
Continuous
 62
     7
100
AcDbLine
 10
356.9259124923804
 20
153.1104552588462
 30
0.0
 11
356.9259124923804
 21
144.4104552588462
 31
0.0
  0
LINE
  5
506
330
4D6
100
AcDbEntity
  8
PV
  6
Continuous
 62
     7
100
AcDbLine
 10
343.0802124923804
 20
152.7066552588462
 30
0.0
 11
341.6259124923804
 21
152.7066552588462
 31
0.0
  0
LINE
  5
507
330
4D6
100
AcDbEntity
  8
PV
  6
Continuous
 62
     7
100
AcDbLine
 10
343.2153124923804
 20
155.2604552588462
 30
0.0
 11
341.6259124923804
 21
155.2604552588462
 31
0.0
  0
LINE
  5
508
330
4D6
100
AcDbEntity
  8
PV
  6
Continuous
 62
     7
100
AcDbLine
 10
343.0802124923804
 20
151.2604552588462
 30
0.0
 11
341.6259124923804
 21
151.2604552588462
 31
0.0
  0
LINE
  5
509
330
4D6
100
AcDbEntity
  8
PV
  6
Continuous
 62
     7
100
AcDbLine
 10
343.0802124923804
 20
146.2604552588462
 30
0.0
 11
341.6259124923804
 21
146.2604552588462
 31
0.0
  0
LINE
  5
50A
330
4D6
100
AcDbEntity
  8
PV
  6
Continuous
 62
     7
100
AcDbLine
 10
343.0802124923804
 20
144.8143552588462
 30
0.0
 11
341.6259124923804
 21
144.8143552588462
 31
0.0
  0
LINE
  5
50B
330
4D6
100
AcDbEntity
  8
PV
  6
Continuous
 62
     7
100
AcDbLine
 10
343.0148124923803
 20
142.2604552588462
 30
0.0
 11
341.6259124923804
 21
142.2604552588462
 31
0.0
  0
LINE
  5
50C
330
4D6
100
AcDbEntity
  8
PV
  6
Continuous
 62
     7
100
AcDbLine
 10
363.9259124923804
 20
157.3604552588462
 30
0.0
 11
355.9259124923804
 21
157.3604552588462
 31
0.0
  0
LINE
  5
50D
330
4D6
100
AcDbEntity
  8
PV
  6
Continuous
 62
     7
100
AcDbLine
 10
363.9259124923804
 20
163.1604552588462
 30
0.0
 11
355.9259124923804
 21
163.1604552588462
 31
0.0
  0
LINE
  5
50E
330
4D6
100
AcDbEntity
  8
PV
  6
Continuous
 62
     7
100
AcDbLine
 10
346.0365124923803
 20
155.2604552588462
 30
0.0
 11
345.6259124923804
 21
155.6711552588462
 31
0.0
  0
LINE
  5
50F
330
4D6
100
AcDbEntity
  8
PV
  6
Continuous
 62
     7
100
AcDbLine
 10
346.0365124923803
 20
155.2604552588462
 30
0.0
 11
346.0365124923803
 21
155.7761552588462
 31
0.0
  0
LINE
  5
510
330
4D6
100
AcDbEntity
  8
PV
  6
Continuous
 62
     7
100
AcDbLine
 10
346.0365124923803
 20
165.2604552588462
 30
0.0
 11
345.6259124923804
 21
164.8498552588462
 31
0.0
  0
LINE
  5
511
330
4D6
100
AcDbEntity
  8
PV
  6
Continuous
 62
     7
100
AcDbLine
 10
346.0365124923803
 20
165.2604552588462
 30
0.0
 11
346.0365124923803
 21
164.7448552588462
 31
0.0
  0
LINE
  5
512
330
4D6
100
AcDbEntity
  8
PV
  6
Continuous
 62
     7
100
AcDbLine
 10
346.0365124923803
 20
160.7761552588462
 30
0.0
 11
346.0365124923803
 21
159.7448552588462
 31
0.0
  0
LINE
  5
513
330
4D6
100
AcDbEntity
  8
PV
  6
Continuous
 62
     7
100
AcDbLine
 10
345.6259124923804
 20
164.8498552588462
 30
0.0
 11
345.6259124923804
 21
155.6711552588462
 31
0.0
  0
LINE
  5
514
330
4D6
100
AcDbEntity
  8
PV
  6
Continuous
 62
     7
100
AcDbLine
 10
345.6259124923804
 20
156.2604552588462
 30
0.0
 11
343.6259124923804
 21
156.2604552588462
 31
0.0
  0
LINE
  5
515
330
4D6
100
AcDbEntity
  8
PV
  6
Continuous
 62
     7
100
AcDbLine
 10
345.6259124923804
 20
164.2604552588462
 30
0.0
 11
343.6259124923804
 21
164.2604552588462
 31
0.0
  0
LINE
  5
516
330
4D6
100
AcDbEntity
  8
PV
  6
Continuous
 62
     7
100
AcDbLine
 10
354.8153124923804
 20
165.2604552588462
 30
0.0
 11
346.0365124923803
 21
165.2604552588462
 31
0.0
  0
LINE
  5
517
330
4D6
100
AcDbEntity
  8
PV
  6
Continuous
 62
     7
100
AcDbLine
 10
354.5153124923804
 20
164.7448552588462
 30
0.0
 11
346.0365124923803
 21
164.7448552588462
 31
0.0
  0
LINE
  5
518
330
4D6
100
AcDbEntity
  8
PV
  6
Continuous
 62
     7
100
AcDbLine
 10
354.5153124923804
 20
160.7761552588462
 30
0.0
 11
346.0365124923803
 21
160.7761552588462
 31
0.0
  0
LINE
  5
519
330
4D6
100
AcDbEntity
  8
PV
  6
Continuous
 62
     7
100
AcDbLine
 10
354.5153124923804
 20
159.7448552588462
 30
0.0
 11
346.0365124923803
 21
159.7448552588462
 31
0.0
  0
LINE
  5
51A
330
4D6
100
AcDbEntity
  8
PV
  6
Continuous
 62
     7
100
AcDbLine
 10
354.5153124923804
 20
155.7761552588462
 30
0.0
 11
346.0365124923803
 21
155.7761552588462
 31
0.0
  0
LINE
  5
51B
330
4D6
100
AcDbEntity
  8
PV
  6
Continuous
 62
     7
100
AcDbLine
 10
354.8153124923804
 20
155.2604552588462
 30
0.0
 11
355.2259124923804
 21
155.6711552588462
 31
0.0
  0
LINE
  5
51C
330
4D6
100
AcDbEntity
  8
PV
  6
Continuous
 62
     7
100
AcDbLine
 10
354.8153124923804
 20
165.2604552588462
 30
0.0
 11
355.2259124923804
 21
164.8498552588462
 31
0.0
  0
LINE
  5
51D
330
4D6
100
AcDbEntity
  8
PV
  6
Continuous
 62
     7
100
AcDbLine
 10
354.5153124923804
 20
165.2604552588462
 30
0.0
 11
354.5153124923804
 21
164.7448552588462
 31
0.0
  0
LINE
  5
51E
330
4D6
100
AcDbEntity
  8
PV
  6
Continuous
 62
     7
100
AcDbLine
 10
354.5153124923804
 20
160.7761552588462
 30
0.0
 11
354.5153124923804
 21
159.7448552588462
 31
0.0
  0
LINE
  5
51F
330
4D6
100
AcDbEntity
  8
PV
  6
Continuous
 62
     7
100
AcDbLine
 10
354.5153124923804
 20
155.2604552588462
 30
0.0
 11
354.5153124923804
 21
155.7761552588462
 31
0.0
  0
LINE
  5
520
330
4D6
100
AcDbEntity
  8
PV
  6
Continuous
 62
     7
100
AcDbLine
 10
355.2259124923804
 20
164.8498552588462
 30
0.0
 11
355.2259124923804
 21
155.6711552588462
 31
0.0
  0
LINE
  5
521
330
4D6
100
AcDbEntity
  8
PV
  6
Continuous
 62
     7
100
AcDbLine
 10
355.9259124923804
 20
163.6604552588462
 30
0.0
 11
355.9259124923804
 21
156.8604552588462
 31
0.0
  0
LINE
  5
522
330
4D6
100
AcDbEntity
  8
PV
  6
Continuous
 62
     7
100
AcDbLine
 10
343.2153124923804
 20
155.2604552588462
 30
0.0
 11
343.6259124923804
 21
155.6711552588462
 31
0.0
  0
LINE
  5
523
330
4D6
100
AcDbEntity
  8
PV
  6
Continuous
 62
     7
100
AcDbLine
 10
343.2153124923804
 20
165.2604552588462
 30
0.0
 11
343.6259124923804
 21
164.8498552588462
 31
0.0
  0
LINE
  5
524
330
4D6
100
AcDbEntity
  8
PV
  6
Continuous
 62
     7
100
AcDbLine
 10
343.2153124923804
 20
160.7761552588462
 30
0.0
 11
343.2153124923804
 21
159.7448552588462
 31
0.0
  0
LINE
  5
525
330
4D6
100
AcDbEntity
  8
PV
  6
Continuous
 62
     7
100
AcDbLine
 10
343.2153124923804
 20
155.2604552588462
 30
0.0
 11
343.2153124923804
 21
155.7761552588462
 31
0.0
  0
LINE
  5
526
330
4D6
100
AcDbEntity
  8
PV
  6
Continuous
 62
     7
100
AcDbLine
 10
343.2153124923804
 20
165.2604552588462
 30
0.0
 11
343.2153124923804
 21
164.7448552588462
 31
0.0
  0
LINE
  5
527
330
4D6
100
AcDbEntity
  8
PV
  6
Continuous
 62
     7
100
AcDbLine
 10
343.2153124923804
 20
155.7761552588462
 30
0.0
 11
341.6259124923804
 21
155.7761552588462
 31
0.0
  0
LINE
  5
528
330
4D6
100
AcDbEntity
  8
PV
  6
Continuous
 62
     7
100
AcDbLine
 10
343.2153124923804
 20
164.7448552588462
 30
0.0
 11
341.6259124923804
 21
164.7448552588462
 31
0.0
  0
LINE
  5
529
330
4D6
100
AcDbEntity
  8
PV
  6
Continuous
 62
     7
100
AcDbLine
 10
343.2153124923804
 20
159.7448552588462
 30
0.0
 11
341.6259124923804
 21
159.7448552588462
 31
0.0
  0
LINE
  5
52A
330
4D6
100
AcDbEntity
  8
PV
  6
Continuous
 62
     7
100
AcDbLine
 10
343.2153124923804
 20
160.7761552588462
 30
0.0
 11
341.6259124923804
 21
160.7761552588462
 31
0.0
  0
LINE
  5
52B
330
4D6
100
AcDbEntity
  8
PV
  6
Continuous
 62
     7
100
AcDbLine
 10
343.6259124923804
 20
164.8498552588462
 30
0.0
 11
343.6259124923804
 21
155.6711552588462
 31
0.0
  0
LINE
  5
52C
330
4D6
100
AcDbEntity
  8
PV
  6
Continuous
 62
     7
100
AcDbLine
 10
343.2153124923804
 20
165.2604552588462
 30
0.0
 11
341.6259124923804
 21
165.2604552588462
 31
0.0
  0
LINE
  5
52D
330
4D6
100
AcDbEntity
  8
PV
  6
Continuous
 62
     7
100
AcDbLine
 10
341.6259124923804
 20
166.9599552588462
 30
0.0
 11
342.6259124923804
 21
166.9599552588462
 31
0.0
  0
LINE
  5
52E
330
4D6
100
AcDbEntity
  8
PV
  6
Continuous
 62
     7
100
AcDbLine
 10
342.6259124923804
 20
166.9599552588462
 30
0.0
 11
342.6259124923804
 21
173.3599552588462
 31
0.0
  0
LINE
  5
52F
330
4D6
100
AcDbEntity
  8
PV
  6
Continuous
 62
     7
100
AcDbLine
 10
345.3259124923803
 20
167.4099552588462
 30
0.0
 11
345.3259124923803
 21
172.9099552588462
 31
0.0
  0
LINE
  5
530
330
4D6
100
AcDbEntity
  8
PV
  6
Continuous
 62
     7
100
AcDbLine
 10
342.6259124923804
 20
167.4099552588462
 30
0.0
 11
345.3259124923803
 21
167.4099552588462
 31
0.0
  0
LINE
  5
531
330
4D6
100
AcDbEntity
  8
PV
  6
Continuous
 62
     7
100
AcDbLine
 10
345.3259124923803
 20
167.4099552588462
 30
0.0
 11
345.6259124923804
 21
167.7099552588462
 31
0.0
  0
LINE
  5
532
330
4D6
100
AcDbEntity
  8
PV
  6
Continuous
 62
     7
100
AcDbLine
 10
345.6259124923804
 20
167.7099552588462
 30
0.0
 11
345.6259124923804
 21
172.6099552588462
 31
0.0
  0
LINE
  5
533
330
4D6
100
AcDbEntity
  8
PV
  6
Continuous
 62
     7
100
AcDbLine
 10
345.6259124923804
 20
172.6099552588462
 30
0.0
 11
345.3259124923803
 21
172.9099552588462
 31
0.0
  0
LINE
  5
534
330
4D6
100
AcDbEntity
  8
PV
  6
Continuous
 62
     7
100
AcDbLine
 10
345.3259124923803
 20
172.9099552588462
 30
0.0
 11
342.6259124923804
 21
172.9099552588462
 31
0.0
  0
LINE
  5
535
330
4D6
100
AcDbEntity
  8
PV
  6
Continuous
 62
     7
100
AcDbLine
 10
341.6259124923804
 20
173.3599552588462
 30
0.0
 11
342.6259124923804
 21
173.3599552588462
 31
0.0
  0
LINE
  5
536
330
4D6
100
AcDbEntity
  8
1
  6
DASH_CENTER
 62
     2
100
AcDbLine
 10
336.9643708780142
 20
160.2604552588462
 30
0.0
 11
365.9643708780142
 21
160.2604552588462
 31
0.0
  0
LINE
  5
537
330
4D6
100
AcDbEntity
  8
1
  6
DASH_CENTER
 62
     2
100
AcDbLine
 10
336.9643708780142
 20
42.39835173941388
 30
0.0
 11
365.9643708780142
 21
42.39835173941388
 31
0.0
  0
LINE
  5
538
330
4D6
100
AcDbEntity
  8
PV
  6
Continuous
 62
     7
100
AcDbLine
 10
341.6259124923804
 20
55.49785173941389
 30
0.0
 11
342.6259124923804
 21
55.49785173941389
 31
0.0
  0
LINE
  5
539
330
4D6
100
AcDbEntity
  8
PV
  6
Continuous
 62
     7
100
AcDbLine
 10
345.3259124923803
 20
55.04785173941387
 30
0.0
 11
342.6259124923804
 21
55.04785173941387
 31
0.0
  0
LINE
  5
53A
330
4D6
100
AcDbEntity
  8
PV
  6
Continuous
 62
     7
100
AcDbLine
 10
345.6259124923804
 20
54.74785173941389
 30
0.0
 11
345.3259124923803
 21
55.04785173941387
 31
0.0
  0
LINE
  5
53B
330
4D6
100
AcDbEntity
  8
PV
  6
Continuous
 62
     7
100
AcDbLine
 10
345.6259124923804
 20
49.84785173941388
 30
0.0
 11
345.6259124923804
 21
54.74785173941389
 31
0.0
  0
LINE
  5
53C
330
4D6
100
AcDbEntity
  8
PV
  6
Continuous
 62
     7
100
AcDbLine
 10
345.3259124923803
 20
49.54785173941387
 30
0.0
 11
345.6259124923804
 21
49.84785173941388
 31
0.0
  0
LINE
  5
53D
330
4D6
100
AcDbEntity
  8
PV
  6
Continuous
 62
     7
100
AcDbLine
 10
342.6259124923804
 20
49.54785173941387
 30
0.0
 11
345.3259124923803
 21
49.54785173941387
 31
0.0
  0
LINE
  5
53E
330
4D6
100
AcDbEntity
  8
PV
  6
Continuous
 62
     7
100
AcDbLine
 10
345.3259124923803
 20
49.54785173941387
 30
0.0
 11
345.3259124923803
 21
55.04785173941387
 31
0.0
  0
LINE
  5
53F
330
4D6
100
AcDbEntity
  8
PV
  6
Continuous
 62
     7
100
AcDbLine
 10
342.6259124923804
 20
49.09785173941388
 30
0.0
 11
342.6259124923804
 21
55.49785173941389
 31
0.0
  0
LINE
  5
540
330
4D6
100
AcDbEntity
  8
PV
  6
Continuous
 62
     7
100
AcDbLine
 10
341.6259124923804
 20
49.09785173941388
 30
0.0
 11
342.6259124923804
 21
49.09785173941388
 31
0.0
  0
LINE
  5
541
330
4D6
100
AcDbEntity
  8
PV
  6
Continuous
 62
     7
100
AcDbLine
 10
343.2153124923804
 20
47.39835173941388
 30
0.0
 11
341.6259124923804
 21
47.39835173941388
 31
0.0
  0
LINE
  5
542
330
4D6
100
AcDbEntity
  8
PV
  6
Continuous
 62
     7
100
AcDbLine
 10
343.6259124923804
 20
46.98775173941387
 30
0.0
 11
343.6259124923804
 21
37.80905173941387
 31
0.0
  0
LINE
  5
543
330
4D6
100
AcDbEntity
  8
PV
  6
Continuous
 62
     7
100
AcDbLine
 10
343.2153124923804
 20
42.91405173941386
 30
0.0
 11
341.6259124923804
 21
42.91405173941386
 31
0.0
  0
LINE
  5
544
330
4D6
100
AcDbEntity
  8
PV
  6
Continuous
 62
     7
100
AcDbLine
 10
343.2153124923804
 20
41.88275173941388
 30
0.0
 11
341.6259124923804
 21
41.88275173941388
 31
0.0
  0
LINE
  5
545
330
4D6
100
AcDbEntity
  8
PV
  6
Continuous
 62
     7
100
AcDbLine
 10
343.2153124923804
 20
46.88275173941388
 30
0.0
 11
341.6259124923804
 21
46.88275173941388
 31
0.0
  0
LINE
  5
546
330
4D6
100
AcDbEntity
  8
PV
  6
Continuous
 62
     7
100
AcDbLine
 10
343.2153124923804
 20
37.91405173941386
 30
0.0
 11
341.6259124923804
 21
37.91405173941386
 31
0.0
  0
LINE
  5
547
330
4D6
100
AcDbEntity
  8
PV
  6
Continuous
 62
     7
100
AcDbLine
 10
343.2153124923804
 20
47.39835173941388
 30
0.0
 11
343.2153124923804
 21
46.88275173941388
 31
0.0
  0
LINE
  5
548
330
4D6
100
AcDbEntity
  8
PV
  6
Continuous
 62
     7
100
AcDbLine
 10
343.2153124923804
 20
37.39835173941388
 30
0.0
 11
343.2153124923804
 21
37.91405173941386
 31
0.0
  0
LINE
  5
549
330
4D6
100
AcDbEntity
  8
PV
  6
Continuous
 62
     7
100
AcDbLine
 10
343.2153124923804
 20
42.91405173941386
 30
0.0
 11
343.2153124923804
 21
41.88275173941388
 31
0.0
  0
LINE
  5
54A
330
4D6
100
AcDbEntity
  8
PV
  6
Continuous
 62
     7
100
AcDbLine
 10
343.2153124923804
 20
47.39835173941388
 30
0.0
 11
343.6259124923804
 21
46.98775173941387
 31
0.0
  0
LINE
  5
54B
330
4D6
100
AcDbEntity
  8
PV
  6
Continuous
 62
     7
100
AcDbLine
 10
343.2153124923804
 20
37.39835173941388
 30
0.0
 11
343.6259124923804
 21
37.80905173941387
 31
0.0
  0
LINE
  5
54C
330
4D6
100
AcDbEntity
  8
PV
  6
Continuous
 62
     7
100
AcDbLine
 10
355.9259124923804
 20
45.79835173941389
 30
0.0
 11
355.9259124923804
 21
38.99835173941388
 31
0.0
  0
LINE
  5
54D
330
4D6
100
AcDbEntity
  8
PV
  6
Continuous
 62
     7
100
AcDbLine
 10
355.2259124923804
 20
46.98775173941387
 30
0.0
 11
355.2259124923804
 21
37.80905173941387
 31
0.0
  0
LINE
  5
54E
330
4D6
100
AcDbEntity
  8
PV
  6
Continuous
 62
     7
100
AcDbLine
 10
354.5153124923804
 20
37.39835173941388
 30
0.0
 11
354.5153124923804
 21
37.91405173941386
 31
0.0
  0
LINE
  5
54F
330
4D6
100
AcDbEntity
  8
PV
  6
Continuous
 62
     7
100
AcDbLine
 10
354.5153124923804
 20
42.91405173941386
 30
0.0
 11
354.5153124923804
 21
41.88275173941388
 31
0.0
  0
LINE
  5
550
330
4D6
100
AcDbEntity
  8
PV
  6
Continuous
 62
     7
100
AcDbLine
 10
354.5153124923804
 20
47.39835173941388
 30
0.0
 11
354.5153124923804
 21
46.88275173941388
 31
0.0
  0
LINE
  5
551
330
4D6
100
AcDbEntity
  8
PV
  6
Continuous
 62
     7
100
AcDbLine
 10
354.8153124923804
 20
47.39835173941388
 30
0.0
 11
355.2259124923804
 21
46.98775173941387
 31
0.0
  0
LINE
  5
552
330
4D6
100
AcDbEntity
  8
PV
  6
Continuous
 62
     7
100
AcDbLine
 10
354.8153124923804
 20
37.39835173941388
 30
0.0
 11
355.2259124923804
 21
37.80905173941387
 31
0.0
  0
LINE
  5
553
330
4D6
100
AcDbEntity
  8
PV
  6
Continuous
 62
     7
100
AcDbLine
 10
354.5153124923804
 20
37.91405173941386
 30
0.0
 11
346.0365124923803
 21
37.91405173941386
 31
0.0
  0
LINE
  5
554
330
4D6
100
AcDbEntity
  8
PV
  6
Continuous
 62
     7
100
AcDbLine
 10
354.5153124923804
 20
41.88275173941388
 30
0.0
 11
346.0365124923803
 21
41.88275173941388
 31
0.0
  0
LINE
  5
555
330
4D6
100
AcDbEntity
  8
PV
  6
Continuous
 62
     7
100
AcDbLine
 10
354.5153124923804
 20
42.91405173941386
 30
0.0
 11
346.0365124923803
 21
42.91405173941386
 31
0.0
  0
LINE
  5
556
330
4D6
100
AcDbEntity
  8
PV
  6
Continuous
 62
     7
100
AcDbLine
 10
354.5153124923804
 20
46.88275173941388
 30
0.0
 11
346.0365124923803
 21
46.88275173941388
 31
0.0
  0
LINE
  5
557
330
4D6
100
AcDbEntity
  8
PV
  6
Continuous
 62
     7
100
AcDbLine
 10
354.8153124923804
 20
47.39835173941388
 30
0.0
 11
346.0365124923803
 21
47.39835173941388
 31
0.0
  0
LINE
  5
558
330
4D6
100
AcDbEntity
  8
PV
  6
Continuous
 62
     7
100
AcDbLine
 10
345.6259124923804
 20
46.39835173941388
 30
0.0
 11
343.6259124923804
 21
46.39835173941388
 31
0.0
  0
LINE
  5
559
330
4D6
100
AcDbEntity
  8
PV
  6
Continuous
 62
     7
100
AcDbLine
 10
345.6259124923804
 20
38.39835173941388
 30
0.0
 11
343.6259124923804
 21
38.39835173941388
 31
0.0
  0
LINE
  5
55A
330
4D6
100
AcDbEntity
  8
PV
  6
Continuous
 62
     7
100
AcDbLine
 10
345.6259124923804
 20
46.98775173941387
 30
0.0
 11
345.6259124923804
 21
37.80905173941387
 31
0.0
  0
LINE
  5
55B
330
4D6
100
AcDbEntity
  8
PV
  6
Continuous
 62
     7
100
AcDbLine
 10
346.0365124923803
 20
42.91405173941386
 30
0.0
 11
346.0365124923803
 21
41.88275173941388
 31
0.0
  0
LINE
  5
55C
330
4D6
100
AcDbEntity
  8
PV
  6
Continuous
 62
     7
100
AcDbLine
 10
346.0365124923803
 20
47.39835173941388
 30
0.0
 11
346.0365124923803
 21
46.88275173941388
 31
0.0
  0
LINE
  5
55D
330
4D6
100
AcDbEntity
  8
PV
  6
Continuous
 62
     7
100
AcDbLine
 10
346.0365124923803
 20
47.39835173941388
 30
0.0
 11
345.6259124923804
 21
46.98775173941387
 31
0.0
  0
LINE
  5
55E
330
4D6
100
AcDbEntity
  8
PV
  6
Continuous
 62
     7
100
AcDbLine
 10
346.0365124923803
 20
37.39835173941388
 30
0.0
 11
346.0365124923803
 21
37.91405173941386
 31
0.0
  0
LINE
  5
55F
330
4D6
100
AcDbEntity
  8
PV
  6
Continuous
 62
     7
100
AcDbLine
 10
346.0365124923803
 20
37.39835173941388
 30
0.0
 11
345.6259124923804
 21
37.80905173941387
 31
0.0
  0
LINE
  5
560
330
4D6
100
AcDbEntity
  8
PV
  6
Continuous
 62
     7
100
AcDbLine
 10
363.9259124923804
 20
45.29835173941389
 30
0.0
 11
355.9259124923804
 21
45.29835173941389
 31
0.0
  0
LINE
  5
561
330
4D6
100
AcDbEntity
  8
PV
  6
Continuous
 62
     7
100
AcDbLine
 10
363.9259124923804
 20
39.49835173941388
 30
0.0
 11
355.9259124923804
 21
39.49835173941388
 31
0.0
  0
LINE
  5
562
330
4D6
100
AcDbEntity
  8
PV
  6
Continuous
 62
     7
100
AcDbLine
 10
343.0148124923803
 20
24.39835173941388
 30
0.0
 11
341.6259124923804
 21
24.39835173941388
 31
0.0
  0
LINE
  5
563
330
4D6
100
AcDbEntity
  8
PV
  6
Continuous
 62
     7
100
AcDbLine
 10
343.0802124923804
 20
26.95225173941388
 30
0.0
 11
341.6259124923804
 21
26.95225173941388
 31
0.0
  0
LINE
  5
564
330
4D6
100
AcDbEntity
  8
PV
  6
Continuous
 62
     7
100
AcDbLine
 10
343.0802124923804
 20
28.39835173941388
 30
0.0
 11
341.6259124923804
 21
28.39835173941388
 31
0.0
  0
LINE
  5
565
330
4D6
100
AcDbEntity
  8
PV
  6
Continuous
 62
     7
100
AcDbLine
 10
343.0802124923804
 20
33.39835173941388
 30
0.0
 11
341.6259124923804
 21
33.39835173941388
 31
0.0
  0
LINE
  5
566
330
4D6
100
AcDbEntity
  8
PV
  6
Continuous
 62
     7
100
AcDbLine
 10
343.2153124923804
 20
37.39835173941388
 30
0.0
 11
341.6259124923804
 21
37.39835173941388
 31
0.0
  0
LINE
  5
567
330
4D6
100
AcDbEntity
  8
PV
  6
Continuous
 62
     7
100
AcDbLine
 10
343.0802124923804
 20
34.84455173941389
 30
0.0
 11
341.6259124923804
 21
34.84455173941389
 31
0.0
  0
LINE
  5
568
330
4D6
100
AcDbEntity
  8
PV
  6
Continuous
 62
     7
100
AcDbLine
 10
356.9259124923804
 20
35.24835173941388
 30
0.0
 11
356.9259124923804
 21
26.54835173941389
 31
0.0
  0
LINE
  5
569
330
4D6
100
AcDbEntity
  8
PV
  6
Continuous
 62
     7
100
AcDbLine
 10
356.2259124923804
 20
36.28735173941386
 30
0.0
 11
356.2259124923804
 21
25.50945173941388
 31
0.0
  0
LINE
  5
56A
330
4D6
100
AcDbEntity
  8
PV
  6
Continuous
 62
     7
100
AcDbLine
 10
355.9259124923804
 20
45.79835173941389
 30
0.0
 11
355.2259124923804
 21
45.79835173941389
 31
0.0
  0
LINE
  5
56B
330
4D6
100
AcDbEntity
  8
PV
  6
Continuous
 62
     7
100
AcDbLine
 10
355.9259124923804
 20
38.99835173941388
 30
0.0
 11
355.2259124923804
 21
38.99835173941388
 31
0.0
  0
LINE
  5
56C
330
4D6
100
AcDbEntity
  8
PV
  6
Continuous
 62
     7
100
AcDbLine
 10
356.9259124923804
 20
35.24835173941388
 30
0.0
 11
356.2259124923804
 21
35.24835173941388
 31
0.0
  0
LINE
  5
56D
330
4D6
100
AcDbEntity
  8
PV
  6
Continuous
 62
     7
100
AcDbLine
 10
356.9259124923804
 20
26.54835173941389
 30
0.0
 11
356.2259124923804
 21
26.54835173941389
 31
0.0
  0
LINE
  5
56E
330
4D6
100
AcDbEntity
  8
PV
  6
Continuous
 62
     7
100
AcDbLine
 10
343.6259124923804
 20
36.12145173941387
 30
0.0
 11
343.6259124923804
 21
25.67535173941387
 31
0.0
  0
LINE
  5
56F
330
4D6
100
AcDbEntity
  8
PV
  6
Continuous
 62
     7
100
AcDbLine
 10
343.0802124923804
 20
34.84455173941389
 30
0.0
 11
343.0802124923804
 21
33.39835173941388
 31
0.0
  0
LINE
  5
570
330
4D6
100
AcDbEntity
  8
PV
  6
Continuous
 62
     7
100
AcDbLine
 10
343.0802124923804
 20
28.39835173941388
 30
0.0
 11
343.0802124923804
 21
26.95225173941388
 31
0.0
  0
LINE
  5
571
330
4D6
100
AcDbEntity
  8
PV
  6
Continuous
 62
     7
100
AcDbLine
 10
345.6259124923804
 20
35.89835173941388
 30
0.0
 11
343.6150124923805
 21
35.89835173941388
 31
0.0
  0
LINE
  5
572
330
4D6
100
AcDbEntity
  8
PV
  6
Continuous
 62
     7
100
AcDbLine
 10
345.6368124923804
 20
25.89835173941388
 30
0.0
 11
343.6150124923805
 21
25.89835173941388
 31
0.0
  0
LINE
  5
573
330
4D6
100
AcDbEntity
  8
PV
  6
Continuous
 62
     7
100
AcDbLine
 10
345.6259124923804
 20
36.12145173941387
 30
0.0
 11
345.6259124923804
 21
25.67535173941387
 31
0.0
  0
LINE
  5
574
330
4D6
100
AcDbEntity
  8
PV
  6
Continuous
 62
     7
100
AcDbLine
 10
346.1715124923803
 20
28.39835173941388
 30
0.0
 11
346.1715124923803
 21
26.95225173941388
 31
0.0
  0
LINE
  5
575
330
4D6
100
AcDbEntity
  8
PV
  6
Continuous
 62
     7
100
AcDbLine
 10
346.1715124923803
 20
34.84455173941389
 30
0.0
 11
346.1715124923803
 21
33.39835173941388
 31
0.0
  0
LINE
  5
576
330
4D6
100
AcDbEntity
  8
PV
  6
Continuous
 62
     7
100
AcDbLine
 10
355.1802124923805
 20
28.39835173941388
 30
0.0
 11
355.1802124923805
 21
26.95225173941388
 31
0.0
  0
LINE
  5
577
330
4D6
100
AcDbEntity
  8
PV
  6
Continuous
 62
     7
100
AcDbLine
 10
355.1802124923805
 20
34.84455173941389
 30
0.0
 11
355.1802124923805
 21
33.39835173941388
 31
0.0
  0
LINE
  5
578
330
4D6
100
AcDbEntity
  8
PV
  6
Continuous
 62
     7
100
AcDbLine
 10
355.1802124923805
 20
26.95225173941388
 30
0.0
 11
346.1715124923803
 21
26.95225173941388
 31
0.0
  0
LINE
  5
579
330
4D6
100
AcDbEntity
  8
PV
  6
Continuous
 62
     7
100
AcDbLine
 10
355.1802124923805
 20
28.39835173941388
 30
0.0
 11
346.1715124923803
 21
28.39835173941388
 31
0.0
  0
LINE
  5
57A
330
4D6
100
AcDbEntity
  8
PV
  6
Continuous
 62
     7
100
AcDbLine
 10
355.1802124923805
 20
33.39835173941388
 30
0.0
 11
346.1715124923803
 21
33.39835173941388
 31
0.0
  0
LINE
  5
57B
330
4D6
100
AcDbEntity
  8
PV
  6
Continuous
 62
     7
100
AcDbLine
 10
355.1802124923805
 20
34.84455173941389
 30
0.0
 11
346.1715124923803
 21
34.84455173941389
 31
0.0
  0
LINE
  5
57C
330
4D6
100
AcDbEntity
  8
PV
  6
Continuous
 62
     7
100
AcDbLine
 10
355.1148124923803
 20
24.39835173941388
 30
0.0
 11
346.2369124923804
 21
24.39835173941388
 31
0.0
  0
LINE
  5
57D
330
4D6
100
AcDbEntity
  8
PV
  6
Continuous
 62
     7
100
AcDbLine
 10
355.1246124923804
 20
37.39835173941388
 30
0.0
 11
346.0365124923803
 21
37.39835173941388
 31
0.0
  0
LINE
  5
57E
330
4D6
100
AcDbEntity
  8
PV
  6
Continuous
 62
     7
100
AcDbLine
 10
355.2282124923805
 20
24.50195173941388
 30
0.0
 11
356.2259124923804
 21
25.49965173941386
 31
0.0
  0
LINE
  5
57F
330
4D6
100
AcDbEntity
  8
PV
  6
Continuous
 62
     7
100
AcDbLine
 10
355.2282124923805
 20
37.29485173941389
 30
0.0
 11
356.2259124923804
 21
36.29715173941388
 31
0.0
  0
LINE
  5
580
330
4D6
100
AcDbEntity
  8
PV
  6
Continuous
 62
     7
100
AcDbLine
 10
364.9259124923804
 20
34.64835173941388
 30
0.0
 11
356.9259124923804
 21
34.64835173941388
 31
0.0
  0
LINE
  5
581
330
4D6
100
AcDbEntity
  8
PV
  6
Continuous
 62
     7
100
AcDbLine
 10
364.9259124923804
 20
27.14835173941388
 30
0.0
 11
356.9259124923804
 21
27.14835173941388
 31
0.0
  0
LINE
  5
582
330
4D6
100
AcDbEntity
  8
PV
  6
Continuous
 62
     7
100
AcDbLine
 10
351.2044124923804
 20
48.82085173941387
 30
0.0
 11
347.3724124923804
 21
48.82085173941387
 31
0.0
  0
LINE
  5
583
330
4D6
100
AcDbEntity
  8
PV
  6
Continuous
 62
     7
100
AcDbLine
 10
347.3724124923804
 20
51.70735173941388
 30
0.0
 11
351.2044124923804
 21
51.70735173941388
 31
0.0
  0
LINE
  5
584
330
4D6
100
AcDbEntity
  8
PV
  6
Continuous
 62
     7
100
AcDbLine
 10
346.9259124923804
 20
47.39835173941388
 30
0.0
 11
346.9259124923804
 21
50.93385173941387
 31
0.0
  0
LINE
  5
585
330
4D6
100
AcDbEntity
  8
PV
  6
Continuous
 62
     7
100
AcDbLine
 10
346.9259124923804
 20
50.93385173941387
 30
0.0
 11
347.3724124923804
 21
51.70735173941388
 31
0.0
  0
LINE
  5
586
330
4D6
100
AcDbEntity
  8
PV
  6
Continuous
 62
     7
100
AcDbLine
 10
351.6509124923804
 20
47.39835173941388
 30
0.0
 11
351.6509124923804
 21
50.93385173941387
 31
0.0
  0
LINE
  5
587
330
4D6
100
AcDbEntity
  8
PV
  6
Continuous
 62
     7
100
AcDbLine
 10
351.6509124923804
 20
50.93385173941387
 30
0.0
 11
351.2044124923804
 21
51.70735173941388
 31
0.0
  0
LINE
  5
588
330
4D6
100
AcDbEntity
  8
PV
  6
Continuous
 62
     7
100
AcDbLine
 10
351.6509124923804
 20
50.93385173941387
 30
0.0
 11
351.6509124923804
 21
51.93385173941387
 31
0.0
  0
LINE
  5
589
330
4D6
100
AcDbEntity
  8
PV
  6
Continuous
 62
     7
100
AcDbLine
 10
359.7509124923804
 20
45.93385173941387
 30
0.0
 11
359.7509124923804
 21
51.93385173941387
 31
0.0
  0
LINE
  5
58A
330
4D6
100
AcDbEntity
  8
PV
  6
Continuous
 62
     7
100
AcDbLine
 10
359.7509124923804
 20
45.93385173941387
 30
0.0
 11
359.7509124923804
 21
45.29835173941389
 31
0.0
  0
LINE
  5
58B
330
4D6
100
AcDbEntity
  8
PV
  6
Continuous
 62
     7
100
AcDbLine
 10
359.4994124923803
 20
39.49835173941388
 30
0.0
 11
359.2149124923803
 21
39.00565173941386
 31
0.0
  0
LINE
  5
58C
330
4D6
100
AcDbEntity
  8
PV
  6
Continuous
 62
     7
100
AcDbLine
 10
355.9259124923804
 20
39.00565173941386
 30
0.0
 11
359.2149124923803
 21
39.00565173941386
 31
0.0
  0
LINE
  5
58D
330
4D6
100
AcDbEntity
  8
PV
  6
Continuous
 62
     7
100
AcDbLine
 10
359.2149124923803
 20
49.39785173941387
 30
0.0
 11
352.1869124923803
 21
49.39785173941387
 31
0.0
  0
LINE
  5
58E
330
4D6
100
AcDbEntity
  8
PV
  6
Continuous
 62
     7
100
AcDbLine
 10
351.6509124923804
 20
51.93385173941387
 30
0.0
 11
352.1869124923803
 21
52.86185173941387
 31
0.0
  0
LINE
  5
58F
330
4D6
100
AcDbEntity
  8
PV
  6
Continuous
 62
     7
100
AcDbLine
 10
359.7509124923804
 20
51.93385173941387
 30
0.0
 11
359.2149124923803
 21
52.86185173941387
 31
0.0
  0
LINE
  5
590
330
4D6
100
AcDbEntity
  8
PV
  6
Continuous
 62
     7
100
AcDbLine
 10
352.1869124923803
 20
52.86185173941387
 30
0.0
 11
359.2149124923803
 21
52.86185173941387
 31
0.0
  0
LINE
  5
591
330
4D6
100
AcDbEntity
  8
PV
  6
Continuous
 62
     7
100
AcDbLine
 10
345.6259124923804
 20
50.97075173941387
 30
0.0
 11
346.9259124923804
 21
51.01135173941388
 31
0.0
  0
LINE
  5
592
330
4D6
100
AcDbEntity
  8
PV
  6
Continuous
 62
     7
100
AcDbLine
 10
344.1259124923804
 20
46.39835173941388
 30
0.0
 11
344.1259124923804
 21
49.54785173941387
 31
0.0
  0
LINE
  5
593
330
4D6
100
AcDbEntity
  8
PV
  6
Continuous
 62
     7
100
AcDbLine
 10
363.1259124923804
 20
45.93385173941387
 30
0.0
 11
363.1259124923804
 21
45.29835173941389
 31
0.0
  0
LINE
  5
594
330
4D6
100
AcDbEntity
  8
PV
  6
Continuous
 62
     7
100
AcDbLine
 10
363.1259124923804
 20
45.93385173941387
 30
0.0
 11
363.1259124923804
 21
51.02955173941389
 31
0.0
  0
LINE
  5
595
330
4D6
100
AcDbEntity
  8
PV
  6
Continuous
 62
     7
100
AcDbLine
 10
359.7509124923804
 20
51.93385173941387
 30
0.0
 11
363.1259124923804
 21
51.02955173941389
 31
0.0
  0
ARC
  5
596
330
4D6
100
AcDbEntity
  8
PV
  6
Continuous
 62
     7
100
AcDbCircle
 10
363.1149124923804
 20
163.7959552588462
 30
0.0
 40
11.4641
100
AcDbArc
 50
162.4119999999999
 51
172.6605200000001
  0
ARC
  5
597
330
4D6
100
AcDbEntity
  8
PV
  6
Continuous
 62
     7
100
AcDbCircle
 10
348.2869124923803
 20
163.7959552588462
 30
0.0
 40
11.46410000000014
100
AcDbArc
 50
0.0
 51
17.5880000000001
  0
ARC
  5
598
330
4D6
100
AcDbEntity
  8
PV
  6
Continuous
 62
     7
100
AcDbCircle
 10
356.6839124923804
 20
158.5998552588462
 30
0.0
 40
3.066980000000059
100
AcDbArc
 50
-34.38400000000021
 51
-23.83400000000058
  0
ARC
  5
599
330
4D6
100
AcDbEntity
  8
PV
  6
Continuous
 62
     7
100
AcDbCircle
 10
348.2869124923803
 20
163.7959552588462
 30
0.0
 40
11.46410000000007
100
AcDbArc
 50
-3.17799999999999
 51
0.0
  0
ARC
  5
59A
330
4D6
100
AcDbEntity
  8
PV
  6
Continuous
 62
     7
100
AcDbCircle
 10
354.7179124923804
 20
168.9919552588462
 30
0.0
 40
3.066980000000105
100
AcDbArc
 50
145.6160000000004
 51
-145.6160000000004
  0
ARC
  5
59B
330
4D6
100
AcDbEntity
  8
PV
  6
Continuous
 62
     7
100
AcDbCircle
 10
356.6839124923804
 20
168.9919552588462
 30
0.0
 40
3.066980000000059
100
AcDbArc
 50
-34.38400000000021
 51
34.38400000000021
  0
ARC
  5
59C
330
4D6
100
AcDbEntity
  8
PV
  6
Continuous
 62
     7
100
AcDbCircle
 10
349.0949124923803
 20
168.1259552588462
 30
0.0
 40
2.555830000000152
100
AcDbArc
 50
-34.3839999999986
 51
34.38399999999807
  0
ARC
  5
59D
330
4D6
100
AcDbEntity
  8
PV
  6
Continuous
 62
     7
100
AcDbCircle
 10
342.0975124923804
 20
163.7959552588462
 30
0.0
 40
9.553399999999987
100
AcDbArc
 50
8.81799999999993
 51
17.58800000000027
  0
ARC
  5
59E
330
4D6
100
AcDbEntity
  8
PV
  6
Continuous
 62
     7
100
AcDbCircle
 10
349.4819124923804
 20
168.1259552588462
 30
0.0
 40
2.555829999999901
100
AcDbArc
 50
145.6159999999983
 51
-145.6159999999978
  0
ARC
  5
59F
330
4D6
100
AcDbEntity
  8
PV
  6
Continuous
 62
     7
100
AcDbCircle
 10
356.4794124923803
 20
163.7959552588462
 30
0.0
 40
9.553400000000005
100
AcDbArc
 50
162.4119999999998
 51
171.18191
  0
ARC
  5
5A0
330
4D6
100
AcDbEntity
  8
PV
  6
Continuous
 62
     7
100
AcDbCircle
 10
361.8893124923803
 20
158.8104552588462
 30
0.0
 40
2.500000000000072
100
AcDbArc
 50
-35.45099999999926
 51
35.45099999999926
  0
ARC
  5
5A1
330
4D6
100
AcDbEntity
  8
PV
  6
Continuous
 62
     7
100
AcDbCircle
 10
365.9624124923804
 20
161.7104552588462
 30
0.0
 40
2.500000000000034
100
AcDbArc
 50
144.5494999999995
 51
-144.549
  0
ARC
  5
5A2
330
4D6
100
AcDbEntity
  8
PV
  6
Continuous
 62
     7
100
AcDbCircle
 10
361.8893124923803
 20
161.7104552588462
 30
0.0
 40
2.500000000000072
100
AcDbArc
 50
-35.45099999999926
 51
35.45099999999926
  0
ARC
  5
5A3
330
4D6
100
AcDbEntity
  8
PV
  6
Continuous
 62
     7
100
AcDbCircle
 10
367.2677124923804
 20
150.6354552588462
 30
0.0
 40
2.999999999999941
100
AcDbArc
 50
141.3177999999992
 51
-141.3180000000021
  0
ARC
  5
5A4
330
4D6
100
AcDbEntity
  8
PV
  6
Continuous
 62
     7
100
AcDbCircle
 10
362.5840124923803
 20
146.8854552588462
 30
0.0
 40
3.000000000000179
100
AcDbArc
 50
-38.6819999999959
 51
38.6819999999959
  0
ARC
  5
5A5
330
4D6
100
AcDbEntity
  8
PV
  6
Continuous
 62
     7
100
AcDbCircle
 10
362.5840124923803
 20
150.6354552588462
 30
0.0
 40
3.000000000000179
100
AcDbArc
 50
-38.6819999999959
 51
38.68199999999717
  0
ARC
  5
5A6
330
4D6
100
AcDbEntity
  8
PV
  6
Continuous
 62
     7
100
AcDbCircle
 10
354.0261124923803
 20
153.9548552588462
 30
0.0
 40
1.699999999999984
100
AcDbArc
 50
-47.24299999999891
 51
50.17699999999591
  0
ARC
  5
5A7
330
4D6
100
AcDbEntity
  8
PV
  6
Continuous
 62
     7
100
AcDbCircle
 10
354.0261124923803
 20
143.5661552588462
 30
0.0
 40
1.700000000000056
100
AcDbArc
 50
-50.17699999999653
 51
47.24299999999891
  0
ARC
  5
5A8
330
4D6
100
AcDbEntity
  8
PV
  6
Continuous
 62
     7
100
AcDbCircle
 10
347.3256124923803
 20
153.9548552588462
 30
0.0
 40
1.700000000000001
100
AcDbArc
 50
129.8232999999983
 51
-132.7569999999969
  0
ARC
  5
5A9
330
4D6
100
AcDbEntity
  8
PV
  6
Continuous
 62
     7
100
AcDbCircle
 10
347.3256124923803
 20
143.5661552588462
 30
0.0
 40
1.699999999999869
100
AcDbArc
 50
132.7569999999969
 51
-129.8229999999976
  0
ARC
  5
5AA
330
4D6
100
AcDbEntity
  8
PV
  6
Continuous
 62
     7
100
AcDbCircle
 10
341.9261124923804
 20
143.5661552588462
 30
0.0
 40
1.699999999999984
100
AcDbArc
 50
-50.17699999999947
 51
47.24300000000034
  0
ARC
  5
5AB
330
4D6
100
AcDbEntity
  8
PV
  6
Continuous
 62
     7
100
AcDbCircle
 10
341.9261124923804
 20
153.9548552588462
 30
0.0
 40
1.699999999999946
100
AcDbArc
 50
-47.24300000000034
 51
50.17699999999884
  0
ARC
  5
5AC
330
4D6
100
AcDbEntity
  8
PV
  6
Continuous
 62
     7
100
AcDbCircle
 10
349.7259124923804
 20
148.7604552588462
 30
0.0
 40
6.000000000000005
100
AcDbArc
 50
-24.62399999999995
 51
24.62399999999995
  0
ARC
  5
5AD
330
4D6
100
AcDbEntity
  8
PV
  6
Continuous
 62
     7
100
AcDbCircle
 10
351.6259124923804
 20
148.7604552588462
 30
0.0
 40
5.999999999999976
100
AcDbArc
 50
155.3757000000001
 51
-155.3760000000001
  0
ARC
  5
5AE
330
4D6
100
AcDbEntity
  8
PV
  6
Continuous
 62
     7
100
AcDbCircle
 10
337.6259124923804
 20
148.7604552588462
 30
0.0
 40
6.000000000000005
100
AcDbArc
 50
-24.62399999999995
 51
24.62399999999995
  0
ARC
  5
5AF
330
4D6
100
AcDbEntity
  8
PV
  6
Continuous
 62
     7
100
AcDbCircle
 10
350.6259124923804
 20
157.7604552588462
 30
0.0
 40
4.999999999999996
100
AcDbArc
 50
156.6177999999996
 51
-156.6179999999998
  0
ARC
  5
5B0
330
4D6
100
AcDbEntity
  8
PV
  6
Continuous
 62
     7
100
AcDbCircle
 10
350.6259124923804
 20
162.7604552588462
 30
0.0
 40
4.999999999999996
100
AcDbArc
 50
156.6177999999996
 51
-156.6179999999998
  0
ARC
  5
5B1
330
4D6
100
AcDbEntity
  8
PV
  6
Continuous
 62
     7
100
AcDbCircle
 10
349.9259124923804
 20
162.7604552588462
 30
0.0
 40
5.00000000000006
100
AcDbArc
 50
-23.3820000000002
 51
23.3819999999999
  0
ARC
  5
5B2
330
4D6
100
AcDbEntity
  8
PV
  6
Continuous
 62
     7
100
AcDbCircle
 10
349.9259124923804
 20
157.7604552588462
 30
0.0
 40
5.00000000000006
100
AcDbArc
 50
-23.3820000000002
 51
23.3819999999999
  0
ARC
  5
5B3
330
4D6
100
AcDbEntity
  8
PV
  6
Continuous
 62
     7
100
AcDbCircle
 10
338.6259124923804
 20
157.7604552588462
 30
0.0
 40
5.00000000000006
100
AcDbArc
 50
-23.3820000000002
 51
23.3819999999999
  0
ARC
  5
5B4
330
4D6
100
AcDbEntity
  8
PV
  6
Continuous
 62
     7
100
AcDbCircle
 10
338.6259124923804
 20
162.7604552588462
 30
0.0
 40
5.00000000000006
100
AcDbArc
 50
-23.3820000000002
 51
23.3819999999999
  0
ARC
  5
5B5
330
4D6
100
AcDbEntity
  8
PV
  6
Continuous
 62
     7
100
AcDbCircle
 10
338.6259124923804
 20
44.89835173941388
 30
0.0
 40
5.00000000000006
100
AcDbArc
 50
-23.3820000000002
 51
23.38199999999982
  0
ARC
  5
5B6
330
4D6
100
AcDbEntity
  8
PV
  6
Continuous
 62
     7
100
AcDbCircle
 10
338.6259124923804
 20
39.89835173941388
 30
0.0
 40
5.00000000000006
100
AcDbArc
 50
-23.3820000000002
 51
23.38199999999982
  0
ARC
  5
5B7
330
4D6
100
AcDbEntity
  8
PV
  6
Continuous
 62
     7
100
AcDbCircle
 10
349.9259124923804
 20
39.89835173941388
 30
0.0
 40
5.00000000000006
100
AcDbArc
 50
-23.3820000000002
 51
23.38199999999982
  0
ARC
  5
5B8
330
4D6
100
AcDbEntity
  8
PV
  6
Continuous
 62
     7
100
AcDbCircle
 10
349.9259124923804
 20
44.89835173941388
 30
0.0
 40
5.00000000000006
100
AcDbArc
 50
-23.3820000000002
 51
23.38199999999982
  0
ARC
  5
5B9
330
4D6
100
AcDbEntity
  8
PV
  6
Continuous
 62
     7
100
AcDbCircle
 10
350.6259124923804
 20
44.89835173941388
 30
0.0
 40
4.999999999999996
100
AcDbArc
 50
156.6177999999996
 51
-156.6179999999998
  0
ARC
  5
5BA
330
4D6
100
AcDbEntity
  8
PV
  6
Continuous
 62
     7
100
AcDbCircle
 10
350.6259124923804
 20
39.89835173941388
 30
0.0
 40
4.999999999999996
100
AcDbArc
 50
156.6177999999996
 51
-156.6179999999998
  0
ARC
  5
5BB
330
4D6
100
AcDbEntity
  8
PV
  6
Continuous
 62
     7
100
AcDbCircle
 10
337.6259124923804
 20
30.89835173941388
 30
0.0
 40
6.000000000000004
100
AcDbArc
 50
-24.62399999999992
 51
24.62399999999998
  0
ARC
  5
5BC
330
4D6
100
AcDbEntity
  8
PV
  6
Continuous
 62
     7
100
AcDbCircle
 10
351.6259124923804
 20
30.89835173941388
 30
0.0
 40
5.99999999999998
100
AcDbArc
 50
155.3757
 51
-155.3760000000001
  0
ARC
  5
5BD
330
4D6
100
AcDbEntity
  8
PV
  6
Continuous
 62
     7
100
AcDbCircle
 10
349.7259124923804
 20
30.89835173941388
 30
0.0
 40
6.000000000000004
100
AcDbArc
 50
-24.62399999999992
 51
24.62399999999998
  0
ARC
  5
5BE
330
4D6
100
AcDbEntity
  8
PV
  6
Continuous
 62
     7
100
AcDbCircle
 10
341.9261124923804
 20
36.09275173941389
 30
0.0
 40
1.699999999999951
100
AcDbArc
 50
-47.24300000000049
 51
50.17699999999869
  0
ARC
  5
5BF
330
4D6
100
AcDbEntity
  8
PV
  6
Continuous
 62
     7
100
AcDbCircle
 10
341.9261124923804
 20
25.70405173941389
 30
0.0
 40
1.699999999999989
100
AcDbArc
 50
-50.17699999999963
 51
47.24300000000017
  0
ARC
  5
5C0
330
4D6
100
AcDbEntity
  8
PV
  6
Continuous
 62
     7
100
AcDbCircle
 10
347.3256124923803
 20
25.70405173941389
 30
0.0
 40
1.699999999999864
100
AcDbArc
 50
132.756999999997
 51
-129.8229999999974
  0
ARC
  5
5C1
330
4D6
100
AcDbEntity
  8
PV
  6
Continuous
 62
     7
100
AcDbCircle
 10
347.3256124923803
 20
36.09275173941389
 30
0.0
 40
1.699999999999996
100
AcDbArc
 50
129.8232999999984
 51
-132.7569999999967
  0
ARC
  5
5C2
330
4D6
100
AcDbEntity
  8
PV
  6
Continuous
 62
     7
100
AcDbCircle
 10
354.0261124923803
 20
25.70405173941389
 30
0.0
 40
1.700000000000062
100
AcDbArc
 50
-50.17699999999667
 51
47.24299999999877
  0
ARC
  5
5C3
330
4D6
100
AcDbEntity
  8
PV
  6
Continuous
 62
     7
100
AcDbCircle
 10
354.0261124923803
 20
36.09275173941389
 30
0.0
 40
1.69999999999999
100
AcDbArc
 50
-47.24299999999909
 51
50.17699999999576
  0
ARC
  5
5C4
330
4D6
100
AcDbEntity
  8
PV
  6
Continuous
 62
     7
100
AcDbCircle
 10
362.5840124923803
 20
32.77335173941388
 30
0.0
 40
3.000000000000176
100
AcDbArc
 50
-38.68199999999585
 51
38.68199999999717
  0
ARC
  5
5C5
330
4D6
100
AcDbEntity
  8
PV
  6
Continuous
 62
     7
100
AcDbCircle
 10
362.5840124923803
 20
29.02335173941388
 30
0.0
 40
3.000000000000175
100
AcDbArc
 50
-38.6819999999958
 51
38.681999999996
  0
ARC
  5
5C6
330
4D6
100
AcDbEntity
  8
PV
  6
Continuous
 62
     7
100
AcDbCircle
 10
367.2677124923804
 20
32.77335173941388
 30
0.0
 40
2.999999999999936
100
AcDbArc
 50
141.3177999999993
 51
-141.3180000000021
  0
ARC
  5
5C7
330
4D6
100
AcDbEntity
  8
PV
  6
Continuous
 62
     7
100
AcDbCircle
 10
361.8893124923803
 20
43.84835173941387
 30
0.0
 40
2.500000000000072
100
AcDbArc
 50
-35.45099999999926
 51
35.4509999999994
  0
ARC
  5
5C8
330
4D6
100
AcDbEntity
  8
PV
  6
Continuous
 62
     7
100
AcDbCircle
 10
365.9624124923804
 20
43.84835173941387
 30
0.0
 40
2.500000000000038
100
AcDbArc
 50
144.5494999999993
 51
-144.549
  0
ARC
  5
5C9
330
4D6
100
AcDbEntity
  8
PV
  6
Continuous
 62
     7
100
AcDbCircle
 10
361.8893124923803
 20
40.94835173941387
 30
0.0
 40
2.500000000000076
100
AcDbArc
 50
-35.4509999999994
 51
35.45099999999913
  0
ARC
  5
5CA
330
4D6
100
AcDbEntity
  8
PV
  6
Continuous
 62
     7
100
AcDbCircle
 10
356.4794124923803
 20
45.93385173941387
 30
0.0
 40
9.553400000000005
100
AcDbArc
 50
162.4119999999998
 51
171.18191
  0
ARC
  5
5CB
330
4D6
100
AcDbEntity
  8
PV
  6
Continuous
 62
     7
100
AcDbCircle
 10
349.4819124923804
 20
50.26385173941388
 30
0.0
 40
2.555829999999905
100
AcDbArc
 50
145.6159999999982
 51
-145.6159999999978
  0
ARC
  5
5CC
330
4D6
100
AcDbEntity
  8
PV
  6
Continuous
 62
     7
100
AcDbCircle
 10
342.0975124923804
 20
45.93385173941387
 30
0.0
 40
9.553399999999986
100
AcDbArc
 50
8.817999999999888
 51
17.58800000000027
  0
ARC
  5
5CD
330
4D6
100
AcDbEntity
  8
PV
  6
Continuous
 62
     7
100
AcDbCircle
 10
349.0949124923803
 20
50.26385173941388
 30
0.0
 40
2.555830000000152
100
AcDbArc
 50
-34.3839999999986
 51
34.3839999999982
  0
ARC
  5
5CE
330
4D6
100
AcDbEntity
  8
PV
  6
Continuous
 62
     7
100
AcDbCircle
 10
356.6839124923804
 20
51.12985173941387
 30
0.0
 40
3.066980000000063
100
AcDbArc
 50
-34.38400000000032
 51
34.384
  0
ARC
  5
5CF
330
4D6
100
AcDbEntity
  8
PV
  6
Continuous
 62
     7
100
AcDbCircle
 10
354.7179124923804
 20
51.12985173941387
 30
0.0
 40
3.066980000000097
100
AcDbArc
 50
145.6160000000006
 51
-145.6160000000003
  0
ARC
  5
5D0
330
4D6
100
AcDbEntity
  8
PV
  6
Continuous
 62
     7
100
AcDbCircle
 10
348.2869124923803
 20
45.93385173941387
 30
0.0
 40
11.46410000000007
100
AcDbArc
 50
-3.17799999999999
 51
0.0
  0
ARC
  5
5D1
330
4D6
100
AcDbEntity
  8
PV
  6
Continuous
 62
     7
100
AcDbCircle
 10
356.6839124923804
 20
40.73775173941387
 30
0.0
 40
3.066980000000063
100
AcDbArc
 50
-34.38400000000032
 51
-23.8340000000007
  0
ARC
  5
5D2
330
4D6
100
AcDbEntity
  8
PV
  6
Continuous
 62
     7
100
AcDbCircle
 10
348.2869124923803
 20
45.93385173941387
 30
0.0
 40
11.46410000000014
100
AcDbArc
 50
0.0
 51
17.58800000000013
  0
ARC
  5
5D3
330
4D6
100
AcDbEntity
  8
PV
  6
Continuous
 62
     7
100
AcDbCircle
 10
363.1149124923804
 20
45.93385173941387
 30
0.0
 40
11.4641
100
AcDbArc
 50
162.4119999999999
 51
172.6605200000001
  0
ENDBLK
  5
5D4
330
4D6
100
AcDbEntity
  8
0
100
AcDbBlockEnd
  0
BLOCK
  5
5DF
330
5DE
100
AcDbEntity
  8
0
100
AcDbBlockBegin
  2
*D44
 70
     1
 10
0.0
 20
0.0
 30
0.0
  3
*D44
  1

  0
LINE
  5
5E1
330
5DE
100
AcDbEntity
  8
0
 62
     0
370
    -2
100
AcDbLine
 10
369.9622675148743
 20
168.1189512025632
 30
0.0
 11
369.9622675148743
 21
137.545331731381
 31
0.0
  0
LINE
  5
5E2
330
5DE
100
AcDbEntity
  8
0
 62
     0
370
    -2
100
AcDbLine
 10
336.9622675148744
 20
168.1189512025632
 30
0.0
 11
336.9622675148744
 21
137.545331731381
 31
0.0
  0
LINE
  5
5E3
330
5DE
100
AcDbEntity
  8
0
 62
     0
370
    -2
100
AcDbLine
 10
367.9622675148743
 20
138.545331731381
 30
0.0
 11
338.9622675148744
 21
138.545331731381
 31
0.0
  0
INSERT
  5
5E4
330
5DE
100
AcDbEntity
  8
0
 62
     0
370
    -2
100
AcDbBlockReference
  2
FXTIP_ARROW_S
 10
369.9622675148743
 20
138.545331731381
 30
0.0
 41
2.0
 42
2.0
 43
2.0
  0
INSERT
  5
5E5
330
5DE
100
AcDbEntity
  8
0
 62
     0
370
    -2
100
AcDbBlockReference
  2
FXTIP_ARROW_E
 10
336.9622675148744
 20
138.545331731381
 30
0.0
 41
2.0
 42
2.0
 43
2.0
 50
180.0
  0
MTEXT
  5
5E6
330
5DE
100
AcDbEntity
  8
0
 62
     0
100
AcDbMText
 10
353.4622675148744
 20
141.545331731381
 30
0.0
 40
4.0
 41
0.0
 71
     5
 72
     1
  1
\A1;33
  7
ＭＳ 明朝
 73
     1
 44
1.0
  0
POINT
  5
5E7
330
5DE
100
AcDbEntity
  8
Defpoints
 62
     0
100
AcDbPoint
 10
369.9622675148743
 20
169.1189512025632
 30
0.0
  0
POINT
  5
5E8
330
5DE
100
AcDbEntity
  8
Defpoints
 62
     0
100
AcDbPoint
 10
336.9622675148744
 20
169.1189512025632
 30
0.0
  0
POINT
  5
5E9
330
5DE
100
AcDbEntity
  8
Defpoints
 62
     0
100
AcDbPoint
 10
336.9622675148744
 20
138.545331731381
 30
0.0
  0
ENDBLK
  5
5E0
330
5DE
100
AcDbEntity
  8
0
100
AcDbBlockEnd
  0
ENDSEC
  0
SECTION
  2
ENTITIES
  0
LINE
  5
163
330
1F
100
AcDbEntity
  8
作図レイヤ
  6
DASHDOT
 62
     4
370
    13
100
AcDbLine
 10
378.4618231420593
 20
189.6189512025632
 30
0.0
 11
163.5373991486413
 21
189.6189512025632
 31
0.0
  0
LINE
  5
164
330
1F
100
AcDbEntity
  8
作図レイヤ
  6
DASHDOT
 62
     4
370
    13
100
AcDbLine
 10
110.4275388686469
 20
189.6189512025632
 30
0.0
 11
56.42753886864688
 21
189.6189512025632
 31
0.0
  0
LINE
  5
165
330
1F
100
AcDbEntity
  8
作図レイヤ
  6
DASHDOT
 62
     4
370
    13
100
AcDbLine
 10
83.42753886864688
 20
239.4189512025632
 30
0.0
 11
83.42753886864688
 21
139.8189512025632
 31
0.0
  0
DIMENSION
  5
1B3
330
1F
100
AcDbEntity
  8
作図レイヤ
  6
Continuous
 62
     4
370
    13
100
AcDbDimension
  2
*D29
 10
105.9275388686468
 20
103.8035455586796
 30
0.0
 11
83.42755126953125
 21
104.8035430908203
 31
0.0
 70
    33
 71
     5
 42
-1.0
  3
FX_DIMINFO
100
AcDbAlignedDimension
 13
60.92753886864676
 23
154.7477596542377
 33
0.0
 14
105.9275388686468
 24
154.7477596542377
 34
0.0
1001
ACAD
1000
DSTYLE
1002
{
1070
   173
1070
     1
1070
   344
1005
7E
1070
   343
1005
78
1070
   178
1070
     7
1002
}
  0
DIMENSION
  5
1BD
330
1F
100
AcDbEntity
  8
作図レイヤ
  6
Continuous
 62
     4
370
    13
100
AcDbDimension
  2
*D30
 10
265.5410544021237
 20
212.1189512025631
 30
0.0
 11
264.5410461425781
 21
155.8280639648438
 31
0.0
 70
    32
 71
     5
 42
-1.0
  3
FX_DIMINFO
100
AcDbAlignedDimension
 13
197.3622675148744
 23
167.1189512025632
 33
0.0
 14
220.3622675148744
 24
212.1189512025631
 34
0.0
 50
90.0
100
AcDbRotatedDimension
1001
ACAD
1000
DSTYLE
1002
{
1070
   173
1070
     1
1070
   344
1005
7E
1070
   343
1005
78
1070
   178
1070
     7
1002
}
  0
DIMENSION
  5
1CA
330
1F
100
AcDbEntity
  8
作図レイヤ
  6
Continuous
 62
     4
370
    13
100
AcDbDimension
  2
*D31
 10
220.3622675148743
 20
130.8648666069059
 30
0.0
 11
208.8622741699219
 21
131.8648681640625
 31
0.0
 70
    33
 71
     5
 42
-1.0
  3
FX_DIMINFO
100
AcDbAlignedDimension
 13
197.3622675148744
 23
148.6189512025632
 33
0.0
 14
220.3622675148743
 24
148.6189512025631
 34
0.0
1001
ACAD
1000
DSTYLE
1002
{
1070
   173
1070
     1
1070
   344
1005
7E
1070
   343
1005
78
1070
   178
1070
     7
1002
}
  0
DIMENSION
  5
1D4
330
1F
100
AcDbEntity
  8
作図レイヤ
  6
Continuous
 62
     4
370
    13
100
AcDbDimension
  2
*D32
 10
369.9622675148742
 20
118.042447841785
 30
0.0
 11
295.2122802734375
 21
119.0424499511719
 31
0.0
 70
    32
 71
     5
 42
-1.0
  3
FX_DIMINFO
100
AcDbAlignedDimension
 13
220.4622675148743
 23
148.6189512025631
 33
0.0
 14
369.9622675148743
 24
167.6189512025632
 34
0.0
100
AcDbRotatedDimension
1001
ACAD
1000
DSTYLE
1002
{
1070
   173
1070
     1
1070
   344
1005
7E
1070
   343
1005
78
1070
   178
1070
     7
1002
}
  0
DIMENSION
  5
1DD
330
1F
100
AcDbEntity
  8
作図レイヤ
  6
Continuous
 62
     4
370
    13
100
AcDbDimension
  2
*D33
 10
220.4622675148744
 20
118.042447841785
 30
0.0
 11
198.2122650146484
 21
119.0424499511719
 31
0.0
 70
    32
 71
     5
 42
-1.0
  3
FX_DIMINFO
100
AcDbAlignedDimension
 13
175.9622675148743
 23
180.6189512025632
 33
0.0
 14
220.4622675148743
 24
148.6189512025631
 34
0.0
100
AcDbRotatedDimension
1001
ACAD
1000
DSTYLE
1002
{
1070
   173
1070
     1
1070
   344
1005
7E
1070
   343
1005
78
1070
   178
1070
     7
1002
}
  0
DIMENSION
  5
1E7
330
1F
100
AcDbEntity
  8
作図レイヤ
  6
Continuous
 62
     4
370
    13
100
AcDbDimension
  2
*D34
 10
369.9622675148743
 20
103.8035455586796
 30
0.0
 11
272.9622802734375
 21
104.8035430908203
 31
0.0
 70
    32
 71
     5
 42
-1.0
  3
FX_DIMINFO
100
AcDbAlignedDimension
 13
175.9622675148743
 23
180.6189512025632
 33
0.0
 14
369.9622675148743
 24
167.6189512025632
 34
0.0
100
AcDbRotatedDimension
1001
ACAD
1000
DSTYLE
1002
{
1070
   173
1070
     1
1070
   344
1005
7E
1070
   343
1005
78
1070
   178
1070
     7
1002
}
  0
LINE
  5
20B
330
1F
100
AcDbEntity
  8
作図レイヤ
  6
Continuous
 62
     7
370
    25
100
AcDbLine
 10
60.92753886864681
 20
154.7477596542381
 30
0.0
 11
60.92753886864681
 21
224.4901427508889
 31
0.0
  0
LINE
  5
20C
330
1F
100
AcDbEntity
  8
作図レイヤ
  6
Continuous
 62
     7
370
    25
100
AcDbLine
 10
105.9275388686468
 20
154.7477596542381
 30
0.0
 11
105.9275388686468
 21
224.4901427508889
 31
0.0
  0
CIRCLE
  5
20D
330
1F
100
AcDbEntity
  8
作図レイヤ
  6
DASHDOT
 62
     4
370
    13
100
AcDbCircle
 10
83.42753886864675
 20
189.6189512025635
 30
0.0
 40
32.5
  0
ARC
  5
20E
330
1F
100
AcDbEntity
  8
作図レイヤ
  6
Continuous
 62
     7
370
    25
100
AcDbCircle
 10
83.42753886864675
 20
189.6189512025635
 30
0.0
 40
41.5
100
AcDbArc
 50
237.1686076897318
 51
302.8313923102684
  0
ARC
  5
20F
330
1F
100
AcDbEntity
  8
作図レイヤ
  6
Continuous
 62
     7
370
    25
100
AcDbCircle
 10
83.42753886864675
 20
189.6189512025635
 30
0.0
 40
41.5
100
AcDbArc
 50
57.1686076897316
 51
122.8313923102682
  0
CIRCLE
  5
210
330
1F
100
AcDbEntity
  8
作図レイヤ
  6
Continuous
 62
     7
370
    25
100
AcDbCircle
 10
83.4275388686468
 20
222.1189512025635
 30
0.0
 40
5.5
  0
CIRCLE
  5
211
330
1F
100
AcDbEntity
  8
作図レイヤ
  6
Continuous
 62
     7
370
    25
100
AcDbCircle
 10
83.4275388686468
 20
157.1189512025635
 30
0.0
 40
5.5
  0
ARC
  5
212
330
1F
100
AcDbEntity
  8
作図レイヤ
  6
Continuous
 62
     7
370
    25
100
AcDbCircle
 10
83.4275388686468
 20
157.1189512025635
 30
0.0
 40
8.75
100
AcDbArc
 50
0.0
 51
180.0
  0
LINE
  5
213
330
1F
100
AcDbEntity
  8
作図レイヤ
  6
Continuous
 62
     7
370
    25
100
AcDbLine
 10
74.6775388686468
 20
149.0518771153188
 30
0.0
 11
74.6775388686468
 21
157.1189512025635
 31
0.0
  0
LINE
  5
214
330
1F
100
AcDbEntity
  8
作図レイヤ
  6
Continuous
 62
     7
370
    25
100
AcDbLine
 10
92.17753886864686
 20
149.0518771153188
 30
0.0
 11
92.17753886864686
 21
157.1189512025635
 31
0.0
  0
ARC
  5
215
330
1F
100
AcDbEntity
  8
作図レイヤ
  6
Continuous
 62
     7
370
    25
100
AcDbCircle
 10
83.4275388686468
 20
222.1189512025635
 30
0.0
 40
8.75
100
AcDbArc
 50
180.0
 51
0.0
  0
LINE
  5
216
330
1F
100
AcDbEntity
  8
作図レイヤ
  6
Continuous
 62
     7
370
    25
100
AcDbLine
 10
74.6775388686468
 20
230.1860252898082
 30
0.0
 11
74.6775388686468
 21
222.1189512025635
 31
0.0
  0
LINE
  5
217
330
1F
100
AcDbEntity
  8
作図レイヤ
  6
Continuous
 62
     7
370
    25
100
AcDbLine
 10
92.17753886864686
 20
230.1860252898082
 30
0.0
 11
92.17753886864686
 21
222.1189512025635
 31
0.0
  0
CIRCLE
  5
218
330
1F
100
AcDbEntity
  8
作図レイヤ
  6
Continuous
 62
     7
370
    25
100
AcDbCircle
 10
83.42753886864686
 20
189.6189512025635
 30
0.0
 40
22.5
  0
CIRCLE
  5
219
330
1F
100
AcDbEntity
  8
作図レイヤ
  6
Continuous
 62
     7
370
    25
100
AcDbCircle
 10
83.42753886864686
 20
189.6189512025635
 30
0.0
 40
22.2
  0
ARC
  5
21A
330
1F
100
AcDbEntity
  8
作図レイヤ
  6
Continuous
 62
     7
370
    25
100
AcDbCircle
 10
83.42753886864686
 20
189.6189512025635
 30
0.0
 40
15.0
100
AcDbArc
 50
200.9706627613461
 51
339.0293372386527
  0
ARC
  5
21B
330
1F
100
AcDbEntity
  8
作図レイヤ
  6
Continuous
 62
     7
370
    25
100
AcDbCircle
 10
83.42753886864686
 20
189.6189512025635
 30
0.0
 40
14.5
100
AcDbArc
 50
194.9918678500563
 51
345.008132149942
  0
CIRCLE
  5
21C
330
1F
100
AcDbEntity
  8
作図レイヤ
  6
Continuous
 62
     7
370
    25
100
AcDbCircle
 10
83.42753886864686
 20
189.6189512025635
 30
0.0
 40
11.0
  0
CIRCLE
  5
21D
330
1F
100
AcDbEntity
  8
作図レイヤ
  6
Continuous
 62
     7
370
    25
100
AcDbCircle
 10
83.42753886864686
 20
189.6189512025635
 30
0.0
 40
10.0
  0
CIRCLE
  5
21E
330
1F
100
AcDbEntity
  8
作図レイヤ
  6
Continuous
 62
     6
370
    13
100
AcDbCircle
 10
83.42753886864686
 20
189.6189512025635
 30
0.0
 40
9.5
  0
CIRCLE
  5
21F
330
1F
100
AcDbEntity
  8
作図レイヤ
  6
Continuous
 62
     7
370
    25
100
AcDbCircle
 10
83.42753886864686
 20
189.6189512025635
 30
0.0
 40
9.0
  0
CIRCLE
  5
220
330
1F
100
AcDbEntity
  8
作図レイヤ
  6
Continuous
 62
     7
370
    25
100
AcDbCircle
 10
83.42753886864686
 20
189.6189512025635
 30
0.0
 40
6.325000000000074
  0
CIRCLE
  5
221
330
1F
100
AcDbEntity
  8
作図レイヤ
  6
Continuous
 62
     7
370
    25
100
AcDbCircle
 10
83.42753886864686
 20
189.6189512025635
 30
0.0
 40
4.5
  0
CIRCLE
  5
222
330
1F
100
AcDbEntity
  8
作図レイヤ
  6
Continuous
 62
     7
370
    25
100
AcDbCircle
 10
83.42753886864686
 20
189.6189512025635
 30
0.0
 40
1.0
  0
LINE
  5
223
330
1F
100
AcDbEntity
  8
作図レイヤ
  6
Continuous
 62
     7
370
    25
100
AcDbLine
 10
106.9275388686468
 20
212.1189512025635
 30
0.0
 11
105.9275388686468
 21
212.1189512025635
 31
0.0
  0
LINE
  5
224
330
1F
100
AcDbEntity
  8
作図レイヤ
  6
Continuous
 62
     7
370
    25
100
AcDbLine
 10
106.9275388686468
 20
167.1189512025635
 30
0.0
 11
105.9275388686468
 21
167.1189512025635
 31
0.0
  0
LINE
  5
225
330
1F
100
AcDbEntity
  8
作図レイヤ
  6
Continuous
 62
     7
370
    25
100
AcDbLine
 10
108.9275388686468
 20
169.1189512025635
 30
0.0
 11
108.9275388686468
 21
210.1189512025635
 31
0.0
  0
LINE
  5
226
330
1F
100
AcDbEntity
  8
作図レイヤ
  6
Continuous
 62
     7
370
    25
100
AcDbLine
 10
106.9275388686468
 20
212.1189512025635
 30
0.0
 11
108.9275388686468
 21
210.1189512025635
 31
0.0
  0
LINE
  5
227
330
1F
100
AcDbEntity
  8
作図レイヤ
  6
Continuous
 62
     7
370
    25
100
AcDbLine
 10
106.9275388686468
 20
167.1189512025635
 30
0.0
 11
108.9275388686468
 21
169.1189512025635
 31
0.0
  0
LINE
  5
228
330
1F
100
AcDbEntity
  8
作図レイヤ
  6
Continuous
 62
     7
370
    25
100
AcDbLine
 10
97.43399586495211
 20
194.9872994038868
 30
0.0
 11
97.43399586495211
 21
184.2506030012401
 31
0.0
  0
LINE
  5
229
330
1F
100
AcDbEntity
  8
作図レイヤ
  6
Continuous
 62
     7
370
    25
100
AcDbLine
 10
93.42753886864692
 20
194.2015268975192
 30
0.0
 11
93.42753886864692
 21
185.0363755076077
 31
0.0
  0
LINE
  5
22A
330
1F
100
AcDbEntity
  8
作図レイヤ
  6
Continuous
 62
     7
370
    25
100
AcDbLine
 10
69.4210818723415
 20
184.2506030012404
 30
0.0
 11
69.4210818723415
 21
194.9872994038865
 31
0.0
  0
LINE
  5
22B
330
1F
100
AcDbEntity
  8
作図レイヤ
  6
Continuous
 62
     7
370
    25
100
AcDbLine
 10
73.42753886864669
 20
185.0363755076077
 30
0.0
 11
73.42753886864669
 21
194.2015268975192
 31
0.0
  0
ARC
  5
22C
330
1F
100
AcDbEntity
  8
作図レイヤ
  6
Continuous
 62
     7
370
    25
100
AcDbCircle
 10
83.42753886864686
 20
189.6189512025635
 30
0.0
 40
14.5
100
AcDbArc
 50
14.99186785005804
 51
165.0081321499437
  0
ARC
  5
22D
330
1F
100
AcDbEntity
  8
作図レイヤ
  6
Continuous
 62
     7
370
    25
100
AcDbCircle
 10
83.42753886864686
 20
189.6189512025635
 30
0.0
 40
15.0
100
AcDbArc
 50
20.97066276134729
 51
159.0293372386539
  0
ARC
  5
22E
330
1F
100
AcDbEntity
  8
作図レイヤ
  6
Continuous
 62
     7
370
    25
100
AcDbCircle
 10
83.42753886864686
 20
189.6189512025635
 30
0.0
 40
10.5
100
AcDbArc
 50
287.7527901619457
 51
342.2472098380542
  0
ARC
  5
22F
330
1F
100
AcDbEntity
  8
作図レイヤ
  6
Continuous
 62
     7
370
    25
100
AcDbCircle
 10
83.42753886864686
 20
189.6189512025635
 30
0.0
 40
10.5
100
AcDbArc
 50
107.7527901619438
 51
162.2472098380564
  0
LINE
  5
230
330
1F
100
AcDbEntity
  8
作図レイヤ
  6
Continuous
 62
     7
370
    25
100
AcDbLine
 10
108.9275388686469
 20
186.1189512025635
 30
0.0
 11
109.2275388686469
 21
186.1189512025635
 31
0.0
  0
LINE
  5
231
330
1F
100
AcDbEntity
  8
作図レイヤ
  6
Continuous
 62
     7
370
    25
100
AcDbLine
 10
123.1275388686469
 20
186.4789512025635
 30
0.0
 11
123.7275388686469
 21
186.4789512025635
 31
0.0
  0
LINE
  5
232
330
1F
100
AcDbEntity
  8
作図レイヤ
  6
Continuous
 62
     7
370
    25
100
AcDbLine
 10
125.2275388686469
 20
184.6689512025635
 30
0.0
 11
123.7275388686469
 21
184.6689512025635
 31
0.0
  0
LINE
  5
233
330
1F
100
AcDbEntity
  8
作図レイヤ
  6
Continuous
 62
     7
370
    25
100
AcDbLine
 10
123.1275388686469
 20
184.6689512025635
 30
0.0
 11
122.077538868647
 21
184.6689512025635
 31
0.0
  0
LINE
  5
234
330
1F
100
AcDbEntity
  8
作図レイヤ
  6
Continuous
 62
     7
370
    25
100
AcDbLine
 10
113.7275388686469
 20
184.6189512025635
 30
0.0
 11
122.077538868647
 21
184.6189512025635
 31
0.0
  0
LINE
  5
235
330
1F
100
AcDbEntity
  8
作図レイヤ
  6
Continuous
 62
     7
370
    25
100
AcDbLine
 10
109.2275388686469
 20
185.6189512025635
 30
0.0
 11
113.7275388686469
 21
185.6189512025635
 31
0.0
  0
LINE
  5
236
330
1F
100
AcDbEntity
  8
作図レイヤ
  6
Continuous
 62
     7
370
    25
100
AcDbLine
 10
108.9275388686469
 20
193.1189512025635
 30
0.0
 11
109.2275388686469
 21
193.1189512025635
 31
0.0
  0
LINE
  5
237
330
1F
100
AcDbEntity
  8
作図レイヤ
  6
Continuous
 62
     7
370
    25
100
AcDbLine
 10
108.9275388686469
 20
186.1189512025635
 30
0.0
 11
108.9275388686469
 21
193.1189512025635
 31
0.0
  0
LINE
  5
238
330
1F
100
AcDbEntity
  8
作図レイヤ
  6
Continuous
 62
     7
370
    25
100
AcDbLine
 10
123.1275388686469
 20
192.7589512025635
 30
0.0
 11
123.7275388686469
 21
192.7589512025635
 31
0.0
  0
LINE
  5
239
330
1F
100
AcDbEntity
  8
作図レイヤ
  6
Continuous
 62
     7
370
    25
100
AcDbLine
 10
125.2275388686469
 20
194.5689512025635
 30
0.0
 11
125.2275388686469
 21
184.6689512025635
 31
0.0
  0
LINE
  5
23A
330
1F
100
AcDbEntity
  8
作図レイヤ
  6
Continuous
 62
     7
370
    25
100
AcDbLine
 10
123.7275388686469
 20
194.5689512025635
 30
0.0
 11
123.7275388686469
 21
184.6689512025635
 31
0.0
  0
LINE
  5
23B
330
1F
100
AcDbEntity
  8
作図レイヤ
  6
Continuous
 62
     7
370
    25
100
AcDbLine
 10
125.2275388686469
 20
194.5689512025635
 30
0.0
 11
123.7275388686469
 21
194.5689512025635
 31
0.0
  0
LINE
  5
23C
330
1F
100
AcDbEntity
  8
作図レイヤ
  6
Continuous
 62
     7
370
    25
100
AcDbLine
 10
123.1275388686469
 20
194.5689512025635
 30
0.0
 11
123.1275388686469
 21
184.6689512025635
 31
0.0
  0
LINE
  5
23D
330
1F
100
AcDbEntity
  8
作図レイヤ
  6
Continuous
 62
     7
370
    25
100
AcDbLine
 10
123.1275388686469
 20
194.5689512025635
 30
0.0
 11
122.077538868647
 21
194.5689512025635
 31
0.0
  0
LINE
  5
23E
330
1F
100
AcDbEntity
  8
作図レイヤ
  6
Continuous
 62
     7
370
    25
100
AcDbLine
 10
122.077538868647
 20
184.6189512025635
 30
0.0
 11
122.077538868647
 21
194.6189512025635
 31
0.0
  0
LINE
  5
23F
330
1F
100
AcDbEntity
  8
作図レイヤ
  6
Continuous
 62
     7
370
    25
100
AcDbLine
 10
113.7275388686469
 20
184.6189512025635
 30
0.0
 11
113.7275388686469
 21
194.6189512025635
 31
0.0
  0
LINE
  5
240
330
1F
100
AcDbEntity
  8
作図レイヤ
  6
Continuous
 62
     7
370
    25
100
AcDbLine
 10
113.7275388686469
 20
194.6189512025635
 30
0.0
 11
122.077538868647
 21
194.6189512025635
 31
0.0
  0
LINE
  5
241
330
1F
100
AcDbEntity
  8
作図レイヤ
  6
Continuous
 62
     7
370
    25
100
AcDbLine
 10
109.2275388686469
 20
193.6189512025635
 30
0.0
 11
113.7275388686469
 21
193.6189512025635
 31
0.0
  0
LINE
  5
242
330
1F
100
AcDbEntity
  8
作図レイヤ
  6
Continuous
 62
     7
370
    25
100
AcDbLine
 10
109.2275388686469
 20
185.6189512025635
 30
0.0
 11
109.2275388686469
 21
193.6189512025635
 31
0.0
  0
LINE
  5
243
330
1F
100
AcDbEntity
  8
作図レイヤ
  6
Continuous
 62
     7
370
    25
100
AcDbLine
 10
125.2275388686469
 20
192.6189512025635
 30
0.0
 11
133.3441655740325
 21
192.6189512025635
 31
0.0
  0
LINE
  5
244
330
1F
100
AcDbEntity
  8
作図レイヤ
  6
Continuous
 62
     7
370
    25
100
AcDbLine
 10
125.2275388686469
 20
186.6189512025635
 30
0.0
 11
133.3441655740325
 21
186.6189512025635
 31
0.0
  0
LINE
  5
245
330
1F
100
AcDbEntity
  8
作図レイヤ
  6
DASHDOT
 62
     4
370
    13
100
AcDbLine
 10
130.8528462518138
 20
199.6189512025634
 30
0.0
 11
108.9275388686469
 21
199.6189512025635
 31
0.0
  0
LINE
  5
246
330
1F
100
AcDbEntity
  8
作図レイヤ
  6
Continuous
 62
     7
370
    25
100
AcDbLine
 10
114.3300388686473
 20
198.0767019475182
 30
0.0
 11
114.2515683645801
 21
194.6189512025635
 31
0.0
  0
LINE
  5
247
330
1F
100
AcDbEntity
  8
作図レイヤ
  6
Continuous
 62
     7
370
    25
100
AcDbLine
 10
110.927538868647
 20
194.1189512025628
 30
0.0
 11
110.9275388686469
 21
194.3289512025624
 31
0.0
  0
LINE
  5
248
330
1F
100
AcDbEntity
  8
作図レイヤ
  6
Continuous
 62
     7
370
    25
100
AcDbLine
 10
110.4275388686469
 20
193.6189512025635
 30
0.0
 11
110.927538868647
 21
194.1189512025628
 31
0.0
  0
LINE
  5
249
330
1F
100
AcDbEntity
  8
作図レイヤ
  6
Continuous
 62
     7
370
    25
100
AcDbLine
 10
110.4275388686469
 20
193.6189512025635
 30
0.0
 11
108.9275388686469
 21
193.6189512025626
 31
0.0
  0
LINE
  5
24A
330
1F
100
AcDbEntity
  8
作図レイヤ
  6
Continuous
 62
     7
370
    25
100
AcDbLine
 10
110.427538868647
 20
198.7840147120246
 30
0.0
 11
108.9275388686469
 21
198.7840147120255
 31
0.0
  0
LINE
  5
24B
330
1F
100
AcDbEntity
  8
作図レイヤ
  6
Continuous
 62
     7
370
    25
100
AcDbLine
 10
110.4275388686469
 20
199.6189512025635
 30
0.0
 11
110.427538868647
 21
198.7840147120246
 31
0.0
  0
LINE
  5
24C
330
1F
100
AcDbEntity
  8
作図レイヤ
  6
Continuous
 62
     7
370
    25
100
AcDbLine
 10
110.927538868647
 20
199.6189512025635
 30
0.0
 11
110.9275388686469
 21
194.3282646858604
 31
0.0
  0
LINE
  5
24D
330
1F
100
AcDbEntity
  8
作図レイヤ
  6
Continuous
 62
     7
370
    25
100
AcDbLine
 10
110.4275388686469
 20
193.6189512025635
 30
0.0
 11
110.4275388686469
 21
194.4538876931024
 31
0.0
  0
LINE
  5
24E
330
1F
100
AcDbEntity
  8
作図レイヤ
  6
Continuous
 62
     7
370
    25
100
AcDbLine
 10
110.4275388686469
 20
194.4538876931024
 30
0.0
 11
108.9275388686469
 21
194.4538876931024
 31
0.0
  0
LINE
  5
24F
330
1F
100
AcDbEntity
  8
作図レイヤ
  6
Continuous
 62
     7
370
    25
100
AcDbLine
 10
121.1275388686474
 20
198.7840147120246
 30
0.0
 11
114.6300388686474
 21
198.7840147120246
 31
0.0
  0
LINE
  5
250
330
1F
100
AcDbEntity
  8
作図レイヤ
  6
Continuous
 62
     7
370
    25
100
AcDbLine
 10
122.8300388686473
 20
199.6189512025635
 30
0.0
 11
122.8300388686473
 21
194.5689512025635
 31
0.0
  0
LINE
  5
251
330
1F
100
AcDbEntity
  8
作図レイヤ
  6
Continuous
 62
     7
370
    25
100
AcDbLine
 10
114.6300388686474
 20
198.7840147120246
 30
0.0
 11
114.6300388686474
 21
199.6189512025635
 31
0.0
  0
LINE
  5
252
330
1F
100
AcDbEntity
  8
作図レイヤ
  6
Continuous
 62
     7
370
    25
100
AcDbLine
 10
121.1275388686474
 20
198.7840147120246
 30
0.0
 11
121.1275388686474
 21
199.6189512025635
 31
0.0
  0
LINE
  5
253
330
1F
100
AcDbEntity
  8
作図レイヤ
  6
Continuous
 62
     7
370
    25
100
AcDbLine
 10
123.2300388686474
 20
199.6189512025635
 30
0.0
 11
123.2300388686474
 21
194.8189512025637
 31
0.0
  0
LINE
  5
254
330
1F
100
AcDbEntity
  8
作図レイヤ
  6
Continuous
 62
     7
370
    25
100
AcDbLine
 10
124.2300388686474
 20
195.0189512025636
 30
0.0
 11
123.2300388686474
 21
194.8189512025637
 31
0.0
  0
LINE
  5
255
330
1F
100
AcDbEntity
  8
作図レイヤ
  6
Continuous
 62
     7
370
    25
100
AcDbLine
 10
123.2300388686474
 20
194.8189512025637
 30
0.0
 11
122.8300388686473
 21
194.8189512025637
 31
0.0
  0
LINE
  5
256
330
1F
100
AcDbEntity
  8
作図レイヤ
  6
Continuous
 62
     7
370
    25
100
AcDbLine
 10
124.2300388686474
 20
195.0189512025636
 30
0.0
 11
124.2300388686474
 21
199.6189512025635
 31
0.0
  0
LINE
  5
257
330
1F
100
AcDbEntity
  8
作図レイヤ
  6
Continuous
 62
     7
370
    25
100
AcDbLine
 10
124.2300388686474
 20
199.6189512025635
 30
0.0
 11
124.2300388686474
 21
204.2189512025634
 31
0.0
  0
LINE
  5
258
330
1F
100
AcDbEntity
  8
作図レイヤ
  6
Continuous
 62
     7
370
    25
100
AcDbLine
 10
114.0212887243094
 20
205.1089512025635
 30
0.0
 11
114.1775388686469
 21
204.8383182025636
 31
0.0
  0
LINE
  5
259
330
1F
100
AcDbEntity
  8
作図レイヤ
  6
Continuous
 62
     7
370
    25
100
AcDbLine
 10
114.302538753177
 20
204.8383182025636
 30
0.0
 11
114.1775388686469
 21
204.8383182025636
 31
0.0
  0
LINE
  5
25A
330
1F
100
AcDbEntity
  8
作図レイヤ
  6
Continuous
 62
     7
370
    25
100
AcDbLine
 10
114.302538753177
 20
204.8383182025636
 30
0.0
 11
114.3300388686473
 21
204.8859497665638
 31
0.0
  0
LINE
  5
25B
330
1F
100
AcDbEntity
  8
作図レイヤ
  6
Continuous
 62
     7
370
    25
100
AcDbLine
 10
122.8300388686473
 20
204.4189512025634
 30
0.0
 11
123.2300388686474
 21
204.4189512025634
 31
0.0
  0
LINE
  5
25C
330
1F
100
AcDbEntity
  8
作図レイヤ
  6
Continuous
 62
     7
370
    25
100
AcDbLine
 10
123.2300388686474
 20
204.4189512025634
 30
0.0
 11
124.2300388686474
 21
204.2189512025634
 31
0.0
  0
LINE
  5
25D
330
1F
100
AcDbEntity
  8
作図レイヤ
  6
Continuous
 62
     7
370
    25
100
AcDbLine
 10
123.2300388686474
 20
204.4189512025634
 30
0.0
 11
123.2300388686474
 21
199.6189512025635
 31
0.0
  0
LINE
  5
25E
330
1F
100
AcDbEntity
  8
作図レイヤ
  6
Continuous
 62
     7
370
    25
100
AcDbLine
 10
114.3300388686473
 20
199.6189512025635
 30
0.0
 11
114.3300388686473
 21
205.3189512025635
 31
0.0
  0
LINE
  5
25F
330
1F
100
AcDbEntity
  8
作図レイヤ
  6
Continuous
 62
     7
370
    25
100
AcDbLine
 10
113.9900388109124
 20
205.1269933421862
 30
0.0
 11
113.7515683645801
 21
194.6189512025635
 31
0.0
  0
LINE
  5
260
330
1F
100
AcDbEntity
  8
作図レイヤ
  6
Continuous
 62
     7
370
    25
100
AcDbLine
 10
114.0212887243094
 20
205.1089512025635
 30
0.0
 11
114.1775388686469
 21
204.8383182025636
 31
0.0
  0
LINE
  5
261
330
1F
100
AcDbEntity
  8
作図レイヤ
  6
Continuous
 62
     7
370
    25
100
AcDbLine
 10
113.802538753177
 20
204.8383182025636
 30
0.0
 11
113.9587888975146
 21
205.1089512025635
 31
0.0
  0
LINE
  5
262
330
1F
100
AcDbEntity
  8
作図レイヤ
  6
Continuous
 62
     7
370
    25
100
AcDbLine
 10
113.802538753177
 20
204.8383182025636
 30
0.0
 11
113.677538868647
 21
204.8383182025636
 31
0.0
  0
LINE
  5
263
330
1F
100
AcDbEntity
  8
作図レイヤ
  6
Continuous
 62
     7
370
    25
100
AcDbLine
 10
113.4900388109124
 20
205.1269933421862
 30
0.0
 11
113.2400388109123
 21
194.1109090629409
 31
0.0
  0
LINE
  5
264
330
1F
100
AcDbEntity
  8
作図レイヤ
  6
Continuous
 62
     7
370
    25
100
AcDbLine
 10
113.302538753177
 20
204.8383182025636
 30
0.0
 11
113.177538868647
 21
204.8383182025636
 31
0.0
  0
LINE
  5
265
330
1F
100
AcDbEntity
  8
作図レイヤ
  6
Continuous
 62
     7
370
    25
100
AcDbLine
 10
113.302538753177
 20
204.8383182025636
 30
0.0
 11
113.4587888975146
 21
205.1089512025635
 31
0.0
  0
LINE
  5
266
330
1F
100
AcDbEntity
  8
作図レイヤ
  6
Continuous
 62
     7
370
    25
100
AcDbLine
 10
113.5212887243094
 20
205.1089512025635
 30
0.0
 11
113.677538868647
 21
204.8383182025636
 31
0.0
  0
LINE
  5
267
330
1F
100
AcDbEntity
  8
作図レイヤ
  6
Continuous
 62
     7
370
    25
100
AcDbLine
 10
111.1222712371531
 20
204.8383182025636
 30
0.0
 11
111.802538753177
 21
204.8383182025636
 31
0.0
  0
LINE
  5
268
330
1F
100
AcDbEntity
  8
作図レイヤ
  6
Continuous
 62
     7
370
    25
100
AcDbLine
 10
112.9900388109124
 20
205.1269933421862
 30
0.0
 11
112.7400388109123
 21
194.1109090629409
 31
0.0
  0
LINE
  5
269
330
1F
100
AcDbEntity
  8
作図レイヤ
  6
Continuous
 62
     7
370
    25
100
AcDbLine
 10
112.4900388109124
 20
205.1269933421862
 30
0.0
 11
112.2400388109123
 21
194.1109090629409
 31
0.0
  0
LINE
  5
26A
330
1F
100
AcDbEntity
  8
作図レイヤ
  6
Continuous
 62
     7
370
    25
100
AcDbLine
 10
111.9900388109124
 20
205.1269933421862
 30
0.0
 11
111.7400388109123
 21
194.1109090629409
 31
0.0
  0
LINE
  5
26B
330
1F
100
AcDbEntity
  8
作図レイヤ
  6
Continuous
 62
     7
370
    25
100
AcDbLine
 10
112.802538753177
 20
204.8383182025636
 30
0.0
 11
112.677538868647
 21
204.8383182025636
 31
0.0
  0
LINE
  5
26C
330
1F
100
AcDbEntity
  8
作図レイヤ
  6
Continuous
 62
     7
370
    25
100
AcDbLine
 10
113.0212887243094
 20
205.1089512025635
 30
0.0
 11
113.177538868647
 21
204.8383182025636
 31
0.0
  0
LINE
  5
26D
330
1F
100
AcDbEntity
  8
作図レイヤ
  6
Continuous
 62
     7
370
    25
100
AcDbLine
 10
112.802538753177
 20
204.8383182025636
 30
0.0
 11
112.9587888975146
 21
205.1089512025635
 31
0.0
  0
LINE
  5
26E
330
1F
100
AcDbEntity
  8
作図レイヤ
  6
Continuous
 62
     7
370
    25
100
AcDbLine
 10
112.802538753177
 20
204.8383182025636
 30
0.0
 11
112.677538868647
 21
204.8383182025636
 31
0.0
  0
LINE
  5
26F
330
1F
100
AcDbEntity
  8
作図レイヤ
  6
Continuous
 62
     7
370
    25
100
AcDbLine
 10
112.302538753177
 20
204.8383182025636
 30
0.0
 11
112.177538868647
 21
204.8383182025636
 31
0.0
  0
LINE
  5
270
330
1F
100
AcDbEntity
  8
作図レイヤ
  6
Continuous
 62
     7
370
    25
100
AcDbLine
 10
112.5212887243094
 20
205.1089512025635
 30
0.0
 11
112.677538868647
 21
204.8383182025636
 31
0.0
  0
LINE
  5
271
330
1F
100
AcDbEntity
  8
作図レイヤ
  6
Continuous
 62
     7
370
    25
100
AcDbLine
 10
112.302538753177
 20
204.8383182025636
 30
0.0
 11
112.4587888975146
 21
205.1089512025635
 31
0.0
  0
LINE
  5
272
330
1F
100
AcDbEntity
  8
作図レイヤ
  6
Continuous
 62
     7
370
    25
100
AcDbLine
 10
112.302538753177
 20
204.8383182025636
 30
0.0
 11
112.177538868647
 21
204.8383182025636
 31
0.0
  0
LINE
  5
273
330
1F
100
AcDbEntity
  8
作図レイヤ
  6
Continuous
 62
     7
370
    25
100
AcDbLine
 10
112.302538753177
 20
204.8383182025636
 30
0.0
 11
112.177538868647
 21
204.8383182025636
 31
0.0
  0
LINE
  5
274
330
1F
100
AcDbEntity
  8
作図レイヤ
  6
Continuous
 62
     7
370
    25
100
AcDbLine
 10
112.0212887243094
 20
205.1089512025635
 30
0.0
 11
112.177538868647
 21
204.8383182025636
 31
0.0
  0
LINE
  5
275
330
1F
100
AcDbEntity
  8
作図レイヤ
  6
Continuous
 62
     7
370
    25
100
AcDbLine
 10
111.802538753177
 20
204.8383182025636
 30
0.0
 11
111.9587888975146
 21
205.1089512025635
 31
0.0
  0
LINE
  5
276
330
1F
100
AcDbEntity
  8
作図レイヤ
  6
Continuous
 62
     7
370
    25
100
AcDbLine
 10
111.7087888975146
 20
194.1289512025636
 30
0.0
 11
111.552538753177
 21
194.3995842025635
 31
0.0
  0
LINE
  5
277
330
1F
100
AcDbEntity
  8
作図レイヤ
  6
Continuous
 62
     7
370
    25
100
AcDbLine
 10
111.9275388686473
 20
194.3995842025635
 30
0.0
 11
111.7712887243096
 21
194.1289512025636
 31
0.0
  0
LINE
  5
278
330
1F
100
AcDbEntity
  8
作図レイヤ
  6
Continuous
 62
     7
370
    25
100
AcDbLine
 10
111.9275388686473
 20
194.3995842025635
 30
0.0
 11
112.052538753177
 21
194.3995842025635
 31
0.0
  0
LINE
  5
279
330
1F
100
AcDbEntity
  8
作図レイヤ
  6
Continuous
 62
     7
370
    25
100
AcDbLine
 10
111.9275388686473
 20
194.3995842025635
 30
0.0
 11
112.052538753177
 21
194.3995842025635
 31
0.0
  0
LINE
  5
27A
330
1F
100
AcDbEntity
  8
作図レイヤ
  6
Continuous
 62
     7
370
    25
100
AcDbLine
 10
112.2087888975146
 20
194.1289512025636
 30
0.0
 11
112.052538753177
 21
194.3995842025635
 31
0.0
  0
LINE
  5
27B
330
1F
100
AcDbEntity
  8
作図レイヤ
  6
Continuous
 62
     7
370
    25
100
AcDbLine
 10
112.4275388686473
 20
194.3995842025635
 30
0.0
 11
112.2712887243096
 21
194.1289512025636
 31
0.0
  0
LINE
  5
27C
330
1F
100
AcDbEntity
  8
作図レイヤ
  6
Continuous
 62
     7
370
    25
100
AcDbLine
 10
111.9275388686473
 20
194.3995842025635
 30
0.0
 11
112.052538753177
 21
194.3995842025635
 31
0.0
  0
LINE
  5
27D
330
1F
100
AcDbEntity
  8
作図レイヤ
  6
Continuous
 62
     7
370
    25
100
AcDbLine
 10
112.4275388686473
 20
194.3995842025635
 30
0.0
 11
112.552538753177
 21
194.3995842025635
 31
0.0
  0
LINE
  5
27E
330
1F
100
AcDbEntity
  8
作図レイヤ
  6
Continuous
 62
     7
370
    25
100
AcDbLine
 10
112.7087888975146
 20
194.1289512025636
 30
0.0
 11
112.552538753177
 21
194.3995842025635
 31
0.0
  0
LINE
  5
27F
330
1F
100
AcDbEntity
  8
作図レイヤ
  6
Continuous
 62
     7
370
    25
100
AcDbLine
 10
112.9275388686473
 20
194.3995842025635
 30
0.0
 11
112.7712887243096
 21
194.1289512025636
 31
0.0
  0
LINE
  5
280
330
1F
100
AcDbEntity
  8
作図レイヤ
  6
Continuous
 62
     7
370
    25
100
AcDbLine
 10
112.4275388686473
 20
194.3995842025635
 30
0.0
 11
112.552538753177
 21
194.3995842025635
 31
0.0
  0
LINE
  5
281
330
1F
100
AcDbEntity
  8
作図レイヤ
  6
Continuous
 62
     7
370
    25
100
AcDbLine
 10
113.2087888975146
 20
194.1289512025636
 30
0.0
 11
113.052538753177
 21
194.3995842025635
 31
0.0
  0
LINE
  5
282
330
1F
100
AcDbEntity
  8
作図レイヤ
  6
Continuous
 62
     7
370
    25
100
AcDbLine
 10
113.4275388686473
 20
194.3995842025635
 30
0.0
 11
113.2712887243094
 21
194.1289512025636
 31
0.0
  0
LINE
  5
283
330
1F
100
AcDbEntity
  8
作図レイヤ
  6
Continuous
 62
     7
370
    25
100
AcDbLine
 10
112.9275388686473
 20
194.3995842025635
 30
0.0
 11
113.052538753177
 21
194.3995842025635
 31
0.0
  0
LINE
  5
284
330
1F
100
AcDbEntity
  8
作図レイヤ
  6
Continuous
 62
     7
370
    25
100
AcDbLine
 10
113.7087888975146
 20
194.1289512025636
 30
0.0
 11
113.552538753177
 21
194.3995842025635
 31
0.0
  0
LINE
  5
285
330
1F
100
AcDbEntity
  8
作図レイヤ
  6
Continuous
 62
     7
370
    25
100
AcDbLine
 10
113.4275388686473
 20
194.3995842025635
 30
0.0
 11
113.552538753177
 21
194.3995842025635
 31
0.0
  0
LINE
  5
286
330
1F
100
AcDbEntity
  8
作図レイヤ
  6
Continuous
 62
     7
370
    25
100
AcDbLine
 10
111.552538753177
 20
194.3995842025635
 30
0.0
 11
111.1275388686469
 21
194.3995842025635
 31
0.0
  0
LINE
  5
287
330
1F
100
AcDbEntity
  8
作図レイヤ
  6
Continuous
 62
     7
370
    25
100
AcDbLine
 10
121.1275388686474
 20
199.6189512025635
 30
0.0
 11
121.1275388686474
 21
200.4538876931024
 31
0.0
  0
LINE
  5
288
330
1F
100
AcDbEntity
  8
作図レイヤ
  6
Continuous
 62
     7
370
    25
100
AcDbLine
 10
114.6300388686474
 20
199.6189512025635
 30
0.0
 11
114.6300388686474
 21
200.4538876931024
 31
0.0
  0
LINE
  5
289
330
1F
100
AcDbEntity
  8
作図レイヤ
  6
Continuous
 62
     7
370
    25
100
AcDbLine
 10
121.1275388686474
 20
205.6189512025635
 30
0.0
 11
120.1275388686474
 21
205.6189512025635
 31
0.0
  0
LINE
  5
28A
330
1F
100
AcDbEntity
  8
作図レイヤ
  6
Continuous
 62
     7
370
    25
100
AcDbLine
 10
114.6300388686474
 20
205.6189512025635
 30
0.0
 11
114.3300388686473
 21
205.3189512025635
 31
0.0
  0
LINE
  5
28B
330
1F
100
AcDbEntity
  8
作図レイヤ
  6
Continuous
 62
     7
370
    25
100
AcDbLine
 10
114.6300388686474
 20
205.6189512025635
 30
0.0
 11
115.6300388686474
 21
205.6189512025635
 31
0.0
  0
LINE
  5
28C
330
1F
100
AcDbEntity
  8
作図レイヤ
  6
Continuous
 62
     7
370
    25
100
AcDbLine
 10
122.8300388686473
 20
204.8391831738107
 30
0.0
 11
121.1275388686474
 21
205.6189512025635
 31
0.0
  0
LINE
  5
28D
330
1F
100
AcDbEntity
  8
作図レイヤ
  6
Continuous
 62
     7
370
    25
100
AcDbLine
 10
122.8300388686473
 20
204.8391831738107
 30
0.0
 11
122.8300388686473
 21
199.6189512025635
 31
0.0
  0
LINE
  5
28E
330
1F
100
AcDbEntity
  8
作図レイヤ
  6
Continuous
 62
     7
370
    25
100
AcDbLine
 10
114.6300388686474
 20
200.4538876931024
 30
0.0
 11
121.1275388686474
 21
200.4538876931024
 31
0.0
  0
LINE
  5
28F
330
1F
100
AcDbEntity
  8
作図レイヤ
  6
Continuous
 62
     7
370
    25
100
AcDbLine
 10
114.6300388686474
 20
204.7840147120245
 30
0.0
 11
121.1275388686474
 21
204.7840147120245
 31
0.0
  0
LINE
  5
290
330
1F
100
AcDbEntity
  8
作図レイヤ
  6
Continuous
 62
     7
370
    25
100
AcDbLine
 10
121.1275388686474
 20
204.7840147120245
 30
0.0
 11
121.1275388686474
 21
205.6189512025635
 31
0.0
  0
LINE
  5
291
330
1F
100
AcDbEntity
  8
作図レイヤ
  6
Continuous
 62
     7
370
    25
100
AcDbLine
 10
121.1275388686474
 20
205.6189512025635
 30
0.0
 11
114.6300388686474
 21
205.6189512025635
 31
0.0
  0
LINE
  5
292
330
1F
100
AcDbEntity
  8
作図レイヤ
  6
Continuous
 62
     7
370
    25
100
AcDbLine
 10
114.6300388686474
 20
204.7840147120245
 30
0.0
 11
114.6300388686474
 21
205.6189512025635
 31
0.0
  0
LINE
  5
293
330
1F
100
AcDbEntity
  8
作図レイヤ
  6
Continuous
 62
     7
370
    25
100
AcDbLine
 10
108.9275388686469
 20
204.7840147120246
 30
0.0
 11
110.4275388686469
 21
204.7840147120246
 31
0.0
  0
LINE
  5
294
330
1F
100
AcDbEntity
  8
作図レイヤ
  6
Continuous
 62
     7
370
    25
100
AcDbLine
 10
110.4275388686469
 20
204.7840147120246
 30
0.0
 11
110.4275388686469
 21
205.6189512025635
 31
0.0
  0
LINE
  5
295
330
1F
100
AcDbEntity
  8
作図レイヤ
  6
Continuous
 62
     7
370
    25
100
AcDbLine
 10
110.9275388686469
 20
204.9096377192666
 30
0.0
 11
110.927538868647
 21
199.6189512025635
 31
0.0
  0
LINE
  5
296
330
1F
100
AcDbEntity
  8
作図レイヤ
  6
Continuous
 62
     7
370
    25
100
AcDbLine
 10
110.427538868647
 20
200.4538876931024
 30
0.0
 11
110.4275388686469
 21
199.6189512025635
 31
0.0
  0
LINE
  5
297
330
1F
100
AcDbEntity
  8
作図レイヤ
  6
Continuous
 62
     7
370
    25
100
AcDbLine
 10
108.9275388686469
 20
200.4538876931016
 30
0.0
 11
110.427538868647
 21
200.4538876931024
 31
0.0
  0
LINE
  5
298
330
1F
100
AcDbEntity
  8
作図レイヤ
  6
Continuous
 62
     7
370
    25
100
AcDbLine
 10
108.9275388686469
 20
205.6189512025644
 30
0.0
 11
110.4275388686469
 21
205.6189512025635
 31
0.0
  0
LINE
  5
299
330
1F
100
AcDbEntity
  8
作図レイヤ
  6
Continuous
 62
     7
370
    25
100
AcDbLine
 10
110.927538868647
 20
205.1189512025643
 30
0.0
 11
110.4275388686469
 21
205.6189512025635
 31
0.0
  0
LINE
  5
29A
330
1F
100
AcDbEntity
  8
作図レイヤ
  6
Continuous
 62
     7
370
    25
100
AcDbLine
 10
110.9275388686469
 20
204.9089512025646
 30
0.0
 11
110.927538868647
 21
205.1189512025643
 31
0.0
  0
ARC
  5
29B
330
1F
100
AcDbEntity
  8
作図レイヤ
  6
Continuous
 62
     7
370
    25
100
AcDbCircle
 10
111.1275388686469
 20
205.0383182025638
 30
0.0
 40
0.2000000000001947
100
AcDbArc
 50
180.0
 51
270.0
  0
ARC
  5
29C
330
1F
100
AcDbEntity
  8
作図レイヤ
  6
Continuous
 62
     7
370
    25
100
AcDbCircle
 10
111.1275388686469
 20
194.1995842025632
 30
0.0
 40
0.2000000000000028
100
AcDbArc
 50
90.0
 51
180.0
  0
ARC
  5
29D
330
1F
100
AcDbEntity
  8
作図レイヤ
  6
Continuous
 62
     7
370
    25
100
AcDbCircle
 10
105.9900388686569
 20
196.6189512025644
 30
0.0
 40
4.937499999990713
100
AcDbArc
 50
333.992176114294
 51
26.00782388568655
  0
ARC
  5
29E
330
1F
100
AcDbEntity
  8
作図レイヤ
  6
Continuous
 62
     7
370
    25
100
AcDbCircle
 10
116.6900388686472
 20
196.6189512025635
 30
0.0
 40
4.937500000000183
100
AcDbArc
 50
336.1049066505253
 51
26.00782388564472
  0
ARC
  5
29F
330
1F
100
AcDbEntity
  8
作図レイヤ
  6
Continuous
 62
     7
370
    25
100
AcDbCircle
 10
122.2925388686467
 20
196.6189512025635
 30
0.0
 40
7.962499999999305
100
AcDbArc
 50
164.2221938995031
 51
194.5471952319514
  0
ARC
  5
2A0
330
1F
100
AcDbEntity
  8
作図レイヤ
  6
Continuous
 62
     7
370
    25
100
AcDbCircle
 10
113.990038810912
 20
205.0909090440726
 30
0.0
 40
0.03608429811366
100
AcDbArc
 50
30.0000172970576
 51
149.9999827029424
  0
ARC
  5
2A1
330
1F
100
AcDbEntity
  8
作図レイヤ
  6
Continuous
 62
     7
370
    25
100
AcDbCircle
 10
113.490038810912
 20
205.0909090440726
 30
0.0
 40
0.03608429811366
100
AcDbArc
 50
30.0000172970576
 51
149.9999827029424
  0
ARC
  5
2A2
330
1F
100
AcDbEntity
  8
作図レイヤ
  6
Continuous
 62
     7
370
    25
100
AcDbCircle
 10
112.990038810912
 20
205.0909090440726
 30
0.0
 40
0.03608429811366
100
AcDbArc
 50
30.0000172970576
 51
149.9999827029424
  0
ARC
  5
2A3
330
1F
100
AcDbEntity
  8
作図レイヤ
  6
Continuous
 62
     7
370
    25
100
AcDbCircle
 10
112.490038810912
 20
205.0909090440726
 30
0.0
 40
0.03608429811366
100
AcDbArc
 50
30.0000172970576
 51
149.9999827029424
  0
ARC
  5
2A4
330
1F
100
AcDbEntity
  8
作図レイヤ
  6
Continuous
 62
     7
370
    25
100
AcDbCircle
 10
111.990038810912
 20
205.0909090440726
 30
0.0
 40
0.03608429811366
100
AcDbArc
 50
30.0000172970576
 51
149.9999827029424
  0
ARC
  5
2A5
330
1F
100
AcDbEntity
  8
作図レイヤ
  6
Continuous
 62
     7
370
    25
100
AcDbCircle
 10
111.740038810912
 20
194.1469933610545
 30
0.0
 40
0.0360842981138385
100
AcDbArc
 50
210.0000172970507
 51
329.9999827031115
  0
ARC
  5
2A6
330
1F
100
AcDbEntity
  8
作図レイヤ
  6
Continuous
 62
     7
370
    25
100
AcDbCircle
 10
112.240038810912
 20
194.1469933610545
 30
0.0
 40
0.0360842981138385
100
AcDbArc
 50
210.0000172970507
 51
329.9999827031115
  0
ARC
  5
2A7
330
1F
100
AcDbEntity
  8
作図レイヤ
  6
Continuous
 62
     7
370
    25
100
AcDbCircle
 10
112.740038810912
 20
194.1469933610545
 30
0.0
 40
0.0360842981138385
100
AcDbArc
 50
210.0000172970507
 51
329.9999827031115
  0
ARC
  5
2A8
330
1F
100
AcDbEntity
  8
作図レイヤ
  6
Continuous
 62
     7
370
    25
100
AcDbCircle
 10
113.240038810912
 20
194.1469933610545
 30
0.0
 40
0.0360842981136662
100
AcDbArc
 50
210.0000172970967
 51
329.9999827029034
  0
ARC
  5
2A9
330
1F
100
AcDbEntity
  8
作図レイヤ
  6
Continuous
 62
     7
370
    25
100
AcDbCircle
 10
113.740038810912
 20
194.1469933610545
 30
0.0
 40
0.0360842981136662
100
AcDbArc
 50
210.0000172970967
 51
249.7321417215465
  0
ARC
  5
2AA
330
1F
100
AcDbEntity
  8
作図レイヤ
  6
Continuous
 62
     7
370
    25
100
AcDbCircle
 10
122.2925388686467
 20
202.6189512025635
 30
0.0
 40
7.962499999999332
100
AcDbArc
 50
164.2221938995038
 51
195.7778061004969
  0
ARC
  5
2AB
330
1F
100
AcDbEntity
  8
作図レイヤ
  6
Continuous
 62
     7
370
    25
100
AcDbCircle
 10
116.6900388686472
 20
202.6189512025635
 30
0.0
 40
4.937500000000137
100
AcDbArc
 50
333.9921761143553
 51
26.00782388564349
  0
ARC
  5
2AC
330
1F
100
AcDbEntity
  8
作図レイヤ
  6
Continuous
 62
     7
370
    25
100
AcDbCircle
 10
105.9900388686569
 20
202.6189512025626
 30
0.0
 40
4.937499999991412
100
AcDbArc
 50
333.9921761143132
 51
26.00782388570609
  0
LINE
  5
2AD
330
1F
100
AcDbEntity
  8
作図レイヤ
  6
DASHDOT
 62
     4
370
    13
100
AcDbLine
 10
130.8528462518138
 20
179.6189512025634
 30
0.0
 11
108.9275388686469
 21
179.6189512025635
 31
0.0
  0
LINE
  5
2AE
330
1F
100
AcDbEntity
  8
作図レイヤ
  6
Continuous
 62
     7
370
    25
100
AcDbLine
 10
114.327538868648
 20
178.2769117429474
 30
0.0
 11
114.2395560999279
 21
175.1109101328285
 31
0.0
  0
LINE
  5
2AF
330
1F
100
AcDbEntity
  8
作図レイヤ
  6
Continuous
 62
     7
370
    25
100
AcDbLine
 10
114.327538868648
 20
175.2263792425637
 30
0.0
 11
114.2712887243099
 21
175.1289512025635
 31
0.0
  0
LINE
  5
2B0
330
1F
100
AcDbEntity
  8
作図レイヤ
  6
Continuous
 62
     7
370
    25
100
AcDbLine
 10
110.427538868647
 20
174.6189512025635
 30
0.0
 11
108.927538868647
 21
174.6189512025635
 31
0.0
  0
LINE
  5
2B1
330
1F
100
AcDbEntity
  8
作図レイヤ
  6
Continuous
 62
     7
370
    25
100
AcDbLine
 10
110.427538868647
 20
174.6189512025635
 30
0.0
 11
110.927538868647
 21
175.1189512025635
 31
0.0
  0
LINE
  5
2B2
330
1F
100
AcDbEntity
  8
作図レイヤ
  6
Continuous
 62
     7
370
    25
100
AcDbLine
 10
110.927538868647
 20
175.1189512025635
 30
0.0
 11
110.927538868647
 21
175.3289512025633
 31
0.0
  0
LINE
  5
2B3
330
1F
100
AcDbEntity
  8
作図レイヤ
  6
Continuous
 62
     7
370
    25
100
AcDbLine
 10
110.927538868647
 20
179.6189512025635
 30
0.0
 11
110.927538868647
 21
175.3282646858618
 31
0.0
  0
LINE
  5
2B4
330
1F
100
AcDbEntity
  8
作図レイヤ
  6
Continuous
 62
     7
370
    25
100
AcDbLine
 10
110.427538868647
 20
179.1032646858617
 30
0.0
 11
108.927538868647
 21
179.1032646858617
 31
0.0
  0
LINE
  5
2B5
330
1F
100
AcDbEntity
  8
作図レイヤ
  6
Continuous
 62
     7
370
    25
100
AcDbLine
 10
110.427538868647
 20
179.6189512025635
 30
0.0
 11
110.427538868647
 21
179.1032646858617
 31
0.0
  0
LINE
  5
2B6
330
1F
100
AcDbEntity
  8
作図レイヤ
  6
Continuous
 62
     7
370
    25
100
AcDbLine
 10
110.427538868647
 20
175.1346377192663
 30
0.0
 11
108.927538868647
 21
175.1346377192663
 31
0.0
  0
LINE
  5
2B7
330
1F
100
AcDbEntity
  8
作図レイヤ
  6
Continuous
 62
     7
370
    25
100
AcDbLine
 10
110.427538868647
 20
174.6189512025635
 30
0.0
 11
110.427538868647
 21
175.1346377192663
 31
0.0
  0
LINE
  5
2B8
330
1F
100
AcDbEntity
  8
作図レイヤ
  6
Continuous
 62
     7
370
    25
100
AcDbLine
 10
121.1275388686479
 20
179.103264685862
 30
0.0
 11
121.1275388686479
 21
179.6189512025635
 31
0.0
  0
LINE
  5
2B9
330
1F
100
AcDbEntity
  8
作図レイヤ
  6
Continuous
 62
     7
370
    25
100
AcDbLine
 10
114.6275388686479
 20
179.103264685862
 30
0.0
 11
114.6275388686479
 21
179.6189512025635
 31
0.0
  0
LINE
  5
2BA
330
1F
100
AcDbEntity
  8
作図レイヤ
  6
Continuous
 62
     7
370
    25
100
AcDbLine
 10
120.1275388686479
 20
174.6189512025635
 30
0.0
 11
121.1275388686479
 21
174.6189512025635
 31
0.0
  0
LINE
  5
2BB
330
1F
100
AcDbEntity
  8
作図レイヤ
  6
Continuous
 62
     7
370
    25
100
AcDbLine
 10
114.327538868648
 20
174.9189512025634
 30
0.0
 11
114.6275388686479
 21
174.6189512025635
 31
0.0
  0
LINE
  5
2BC
330
1F
100
AcDbEntity
  8
作図レイヤ
  6
Continuous
 62
     7
370
    25
100
AcDbLine
 10
114.327538868648
 20
179.6189512025635
 30
0.0
 11
114.327538868648
 21
174.9189512025634
 31
0.0
  0
LINE
  5
2BD
330
1F
100
AcDbEntity
  8
作図レイヤ
  6
Continuous
 62
     7
370
    25
100
AcDbLine
 10
114.6275388686479
 20
174.6189512025635
 30
0.0
 11
114.827538868648
 21
174.6189512025635
 31
0.0
  0
LINE
  5
2BE
330
1F
100
AcDbEntity
  8
作図レイヤ
  6
Continuous
 62
     7
370
    25
100
AcDbLine
 10
121.1275388686479
 20
174.6189512025635
 30
0.0
 11
122.8300388686479
 21
175.3987192313162
 31
0.0
  0
LINE
  5
2BF
330
1F
100
AcDbEntity
  8
作図レイヤ
  6
Continuous
 62
     7
370
    25
100
AcDbLine
 10
122.8300388686479
 20
179.6189512025635
 30
0.0
 11
122.8300388686479
 21
175.3987192313162
 31
0.0
  0
LINE
  5
2C0
330
1F
100
AcDbEntity
  8
作図レイヤ
  6
Continuous
 62
     7
370
    25
100
AcDbLine
 10
121.1275388686479
 20
179.103264685862
 30
0.0
 11
114.6275388686479
 21
179.103264685862
 31
0.0
  0
LINE
  5
2C1
330
1F
100
AcDbEntity
  8
作図レイヤ
  6
Continuous
 62
     7
370
    25
100
AcDbLine
 10
121.1275388686479
 20
175.1346377192652
 30
0.0
 11
114.6275388686479
 21
175.1346377192652
 31
0.0
  0
LINE
  5
2C2
330
1F
100
AcDbEntity
  8
作図レイヤ
  6
Continuous
 62
     7
370
    25
100
AcDbLine
 10
121.1275388686479
 20
174.6189512025635
 30
0.0
 11
121.1275388686479
 21
175.1346377192652
 31
0.0
  0
LINE
  5
2C3
330
1F
100
AcDbEntity
  8
作図レイヤ
  6
Continuous
 62
     7
370
    25
100
AcDbLine
 10
114.6275388686479
 20
174.6189512025635
 30
0.0
 11
121.1275388686479
 21
174.6189512025635
 31
0.0
  0
LINE
  5
2C4
330
1F
100
AcDbEntity
  8
作図レイヤ
  6
Continuous
 62
     7
370
    25
100
AcDbLine
 10
114.6275388686479
 20
174.6189512025635
 30
0.0
 11
114.6275388686479
 21
175.1346377192652
 31
0.0
  0
LINE
  5
2C5
330
1F
100
AcDbEntity
  8
作図レイヤ
  6
Continuous
 62
     7
370
    25
100
AcDbLine
 10
114.827538868648
 20
174.6189512025635
 30
0.0
 11
114.6275388686479
 21
174.6189512025635
 31
0.0
  0
LINE
  5
2C6
330
1F
100
AcDbEntity
  8
作図レイヤ
  6
Continuous
 62
     7
370
    25
100
AcDbLine
 10
124.230038868648
 20
176.0189512025635
 30
0.0
 11
123.230038868648
 21
175.8189512025637
 31
0.0
  0
LINE
  5
2C7
330
1F
100
AcDbEntity
  8
作図レイヤ
  6
Continuous
 62
     7
370
    25
100
AcDbLine
 10
123.230038868648
 20
179.6189512025635
 30
0.0
 11
123.230038868648
 21
175.8189512025637
 31
0.0
  0
LINE
  5
2C8
330
1F
100
AcDbEntity
  8
作図レイヤ
  6
Continuous
 62
     7
370
    25
100
AcDbLine
 10
123.230038868648
 20
175.8189512025637
 30
0.0
 11
122.8300388686479
 21
175.8189512025635
 31
0.0
  0
LINE
  5
2C9
330
1F
100
AcDbEntity
  8
作図レイヤ
  6
Continuous
 62
     7
370
    25
100
AcDbLine
 10
124.230038868648
 20
176.0189512025635
 30
0.0
 11
124.230038868648
 21
179.6189512025635
 31
0.0
  0
LINE
  5
2CA
330
1F
100
AcDbEntity
  8
作図レイヤ
  6
Continuous
 62
     7
370
    25
100
AcDbLine
 10
124.230038868648
 20
179.6189512025635
 30
0.0
 11
124.230038868648
 21
183.2189512025635
 31
0.0
  0
LINE
  5
2CB
330
1F
100
AcDbEntity
  8
作図レイヤ
  6
Continuous
 62
     7
370
    25
100
AcDbLine
 10
114.302538753177
 20
183.8383182025636
 30
0.0
 11
114.327538868648
 21
183.8816196425656
 31
0.0
  0
LINE
  5
2CC
330
1F
100
AcDbEntity
  8
作図レイヤ
  6
Continuous
 62
     7
370
    25
100
AcDbLine
 10
114.302538753177
 20
183.8383182025636
 30
0.0
 11
114.177538868647
 21
183.8383182025636
 31
0.0
  0
LINE
  5
2CD
330
1F
100
AcDbEntity
  8
作図レイヤ
  6
Continuous
 62
     7
370
    25
100
AcDbLine
 10
114.302538753177
 20
183.8383182025636
 30
0.0
 11
114.177538868647
 21
183.8383182025636
 31
0.0
  0
LINE
  5
2CE
330
1F
100
AcDbEntity
  8
作図レイヤ
  6
Continuous
 62
     7
370
    25
100
AcDbLine
 10
114.0212887243099
 20
184.1089512025635
 30
0.0
 11
114.177538868647
 21
183.8383182025636
 31
0.0
  0
LINE
  5
2CF
330
1F
100
AcDbEntity
  8
作図レイヤ
  6
Continuous
 62
     7
370
    25
100
AcDbLine
 10
122.8300388686479
 20
183.4189512025634
 30
0.0
 11
123.230038868648
 21
183.4189512025633
 31
0.0
  0
LINE
  5
2D0
330
1F
100
AcDbEntity
  8
作図レイヤ
  6
Continuous
 62
     7
370
    25
100
AcDbLine
 10
123.230038868648
 20
183.4189512025633
 30
0.0
 11
123.230038868648
 21
179.6189512025635
 31
0.0
  0
LINE
  5
2D1
330
1F
100
AcDbEntity
  8
作図レイヤ
  6
Continuous
 62
     7
370
    25
100
AcDbLine
 10
123.230038868648
 20
183.4189512025633
 30
0.0
 11
124.230038868648
 21
183.2189512025635
 31
0.0
  0
LINE
  5
2D2
330
1F
100
AcDbEntity
  8
作図レイヤ
  6
Continuous
 62
     7
370
    25
100
AcDbLine
 10
114.327538868648
 20
184.1166318867367
 30
0.0
 11
114.3288779271989
 21
184.1189512025635
 31
0.0
  0
LINE
  5
2D3
330
1F
100
AcDbEntity
  8
作図レイヤ
  6
Continuous
 62
     7
370
    25
100
AcDbLine
 10
114.6275388686479
 20
184.6189512025635
 30
0.0
 11
114.827538868648
 21
184.6189512025635
 31
0.0
  0
LINE
  5
2D4
330
1F
100
AcDbEntity
  8
作図レイヤ
  6
Continuous
 62
     7
370
    25
100
AcDbLine
 10
114.6275388686479
 20
184.1032646858617
 30
0.0
 11
114.6275388686479
 21
184.6189512025635
 31
0.0
  0
LINE
  5
2D5
330
1F
100
AcDbEntity
  8
作図レイヤ
  6
Continuous
 62
     7
370
    25
100
AcDbLine
 10
121.1275388686479
 20
184.6189512025635
 30
0.0
 11
114.6275388686479
 21
184.6189512025635
 31
0.0
  0
LINE
  5
2D6
330
1F
100
AcDbEntity
  8
作図レイヤ
  6
Continuous
 62
     7
370
    25
100
AcDbLine
 10
121.1275388686479
 20
184.1032646858617
 30
0.0
 11
121.1275388686479
 21
184.6189512025635
 31
0.0
  0
LINE
  5
2D7
330
1F
100
AcDbEntity
  8
作図レイヤ
  6
Continuous
 62
     7
370
    25
100
AcDbLine
 10
114.6275388686479
 20
184.1032646858617
 30
0.0
 11
121.1275388686479
 21
184.1032646858617
 31
0.0
  0
LINE
  5
2D8
330
1F
100
AcDbEntity
  8
作図レイヤ
  6
Continuous
 62
     7
370
    25
100
AcDbLine
 10
114.6275388686479
 20
180.134637719265
 30
0.0
 11
121.1275388686479
 21
180.134637719265
 31
0.0
  0
LINE
  5
2D9
330
1F
100
AcDbEntity
  8
作図レイヤ
  6
Continuous
 62
     7
370
    25
100
AcDbLine
 10
122.8300388686479
 20
183.8391831738107
 30
0.0
 11
122.8300388686479
 21
179.6189512025635
 31
0.0
  0
LINE
  5
2DA
330
1F
100
AcDbEntity
  8
作図レイヤ
  6
Continuous
 62
     7
370
    25
100
AcDbLine
 10
122.8300388686479
 20
183.8391831738107
 30
0.0
 11
121.1275388686479
 21
184.6189512025635
 31
0.0
  0
LINE
  5
2DB
330
1F
100
AcDbEntity
  8
作図レイヤ
  6
Continuous
 62
     7
370
    25
100
AcDbLine
 10
114.827538868648
 20
184.6189512025635
 30
0.0
 11
114.6275388686479
 21
184.6189512025635
 31
0.0
  0
LINE
  5
2DC
330
1F
100
AcDbEntity
  8
作図レイヤ
  6
Continuous
 62
     7
370
    25
100
AcDbLine
 10
114.327538868648
 20
184.3189512025635
 30
0.0
 11
114.327538868648
 21
179.6189512025635
 31
0.0
  0
LINE
  5
2DD
330
1F
100
AcDbEntity
  8
作図レイヤ
  6
Continuous
 62
     7
370
    25
100
AcDbLine
 10
114.6275388686479
 20
184.6189512025635
 30
0.0
 11
114.327538868648
 21
184.3189512025635
 31
0.0
  0
LINE
  5
2DE
330
1F
100
AcDbEntity
  8
作図レイヤ
  6
Continuous
 62
     7
370
    25
100
AcDbLine
 10
121.1275388686479
 20
184.6189512025635
 30
0.0
 11
120.1275388686479
 21
184.6189512025635
 31
0.0
  0
LINE
  5
2DF
330
1F
100
AcDbEntity
  8
作図レイヤ
  6
Continuous
 62
     7
370
    25
100
AcDbLine
 10
114.6275388686479
 20
179.6189512025635
 30
0.0
 11
114.6275388686479
 21
180.134637719265
 31
0.0
  0
LINE
  5
2E0
330
1F
100
AcDbEntity
  8
作図レイヤ
  6
Continuous
 62
     7
370
    25
100
AcDbLine
 10
121.1275388686479
 20
179.6189512025635
 30
0.0
 11
121.1275388686479
 21
180.134637719265
 31
0.0
  0
LINE
  5
2E1
330
1F
100
AcDbEntity
  8
作図レイヤ
  6
Continuous
 62
     7
370
    25
100
AcDbLine
 10
113.990316679866
 20
184.1269922722985
 30
0.0
 11
113.739760941958
 21
175.1109101328285
 31
0.0
  0
LINE
  5
2E2
330
1F
100
AcDbEntity
  8
作図レイヤ
  6
Continuous
 62
     7
370
    25
100
AcDbLine
 10
113.490038810912
 20
184.1269933421863
 30
0.0
 11
113.239760941958
 21
175.1109101328284
 31
0.0
  0
LINE
  5
2E3
330
1F
100
AcDbEntity
  8
作図レイヤ
  6
Continuous
 62
     7
370
    25
100
AcDbLine
 10
112.990038810912
 20
184.1269933421863
 30
0.0
 11
112.739760941958
 21
175.1109101328284
 31
0.0
  0
LINE
  5
2E4
330
1F
100
AcDbEntity
  8
作図レイヤ
  6
Continuous
 62
     7
370
    25
100
AcDbLine
 10
112.490038810912
 20
184.1269933421862
 30
0.0
 11
112.239760941958
 21
175.1109101328285
 31
0.0
  0
LINE
  5
2E5
330
1F
100
AcDbEntity
  8
作図レイヤ
  6
Continuous
 62
     7
370
    25
100
AcDbLine
 10
111.990038810912
 20
184.1269933421862
 30
0.0
 11
111.739760941958
 21
175.1109101328285
 31
0.0
  0
LINE
  5
2E6
330
1F
100
AcDbEntity
  8
作図レイヤ
  6
Continuous
 62
     7
370
    25
100
AcDbLine
 10
113.802538753177
 20
183.8383182025636
 30
0.0
 11
113.958788897515
 21
184.1089512025635
 31
0.0
  0
LINE
  5
2E7
330
1F
100
AcDbEntity
  8
作図レイヤ
  6
Continuous
 62
     7
370
    25
100
AcDbLine
 10
113.802538753177
 20
183.8383182025636
 30
0.0
 11
113.677538868647
 21
183.8383182025636
 31
0.0
  0
LINE
  5
2E8
330
1F
100
AcDbEntity
  8
作図レイヤ
  6
Continuous
 62
     7
370
    25
100
AcDbLine
 10
113.802538753177
 20
183.8383182025636
 30
0.0
 11
113.677538868647
 21
183.8383182025636
 31
0.0
  0
LINE
  5
2E9
330
1F
100
AcDbEntity
  8
作図レイヤ
  6
Continuous
 62
     7
370
    25
100
AcDbLine
 10
113.802538753177
 20
183.8383182025636
 30
0.0
 11
113.958788897515
 21
184.1089512025635
 31
0.0
  0
LINE
  5
2EA
330
1F
100
AcDbEntity
  8
作図レイヤ
  6
Continuous
 62
     7
370
    25
100
AcDbLine
 10
113.0212887243099
 20
184.1089512025635
 30
0.0
 11
113.177538868647
 21
183.8383182025636
 31
0.0
  0
LINE
  5
2EB
330
1F
100
AcDbEntity
  8
作図レイヤ
  6
Continuous
 62
     7
370
    25
100
AcDbLine
 10
113.302538753177
 20
183.8383182025636
 30
0.0
 11
113.177538868647
 21
183.8383182025636
 31
0.0
  0
LINE
  5
2EC
330
1F
100
AcDbEntity
  8
作図レイヤ
  6
Continuous
 62
     7
370
    25
100
AcDbLine
 10
113.302538753177
 20
183.8383182025636
 30
0.0
 11
113.177538868647
 21
183.8383182025636
 31
0.0
  0
LINE
  5
2ED
330
1F
100
AcDbEntity
  8
作図レイヤ
  6
Continuous
 62
     7
370
    25
100
AcDbLine
 10
113.302538753177
 20
183.8383182025636
 30
0.0
 11
113.458788897515
 21
184.1089512025635
 31
0.0
  0
LINE
  5
2EE
330
1F
100
AcDbEntity
  8
作図レイヤ
  6
Continuous
 62
     7
370
    25
100
AcDbLine
 10
113.5212887243099
 20
184.1089512025635
 30
0.0
 11
113.677538868647
 21
183.8383182025636
 31
0.0
  0
LINE
  5
2EF
330
1F
100
AcDbEntity
  8
作図レイヤ
  6
Continuous
 62
     7
370
    25
100
AcDbLine
 10
112.802538753177
 20
183.8383182025636
 30
0.0
 11
112.677538868647
 21
183.8383182025636
 31
0.0
  0
LINE
  5
2F0
330
1F
100
AcDbEntity
  8
作図レイヤ
  6
Continuous
 62
     7
370
    25
100
AcDbLine
 10
113.0212887243099
 20
184.1089512025635
 30
0.0
 11
113.177538868647
 21
183.8383182025636
 31
0.0
  0
LINE
  5
2F1
330
1F
100
AcDbEntity
  8
作図レイヤ
  6
Continuous
 62
     7
370
    25
100
AcDbLine
 10
112.802538753177
 20
183.8383182025636
 30
0.0
 11
112.958788897515
 21
184.1089512025635
 31
0.0
  0
LINE
  5
2F2
330
1F
100
AcDbEntity
  8
作図レイヤ
  6
Continuous
 62
     7
370
    25
100
AcDbLine
 10
112.802538753177
 20
183.8383182025636
 30
0.0
 11
112.677538868647
 21
183.8383182025636
 31
0.0
  0
LINE
  5
2F3
330
1F
100
AcDbEntity
  8
作図レイヤ
  6
Continuous
 62
     7
370
    25
100
AcDbLine
 10
112.302538753177
 20
183.8383182025636
 30
0.0
 11
112.177538868647
 21
183.8383182025636
 31
0.0
  0
LINE
  5
2F4
330
1F
100
AcDbEntity
  8
作図レイヤ
  6
Continuous
 62
     7
370
    25
100
AcDbLine
 10
112.5212887243099
 20
184.1089512025635
 30
0.0
 11
112.677538868647
 21
183.8383182025636
 31
0.0
  0
LINE
  5
2F5
330
1F
100
AcDbEntity
  8
作図レイヤ
  6
Continuous
 62
     7
370
    25
100
AcDbLine
 10
112.302538753177
 20
183.8383182025636
 30
0.0
 11
112.458788897515
 21
184.1089512025635
 31
0.0
  0
LINE
  5
2F6
330
1F
100
AcDbEntity
  8
作図レイヤ
  6
Continuous
 62
     7
370
    25
100
AcDbLine
 10
112.302538753177
 20
183.8383182025636
 30
0.0
 11
112.177538868647
 21
183.8383182025636
 31
0.0
  0
LINE
  5
2F7
330
1F
100
AcDbEntity
  8
作図レイヤ
  6
Continuous
 62
     7
370
    25
100
AcDbLine
 10
112.302538753177
 20
183.8383182025636
 30
0.0
 11
112.177538868647
 21
183.8383182025636
 31
0.0
  0
LINE
  5
2F8
330
1F
100
AcDbEntity
  8
作図レイヤ
  6
Continuous
 62
     7
370
    25
100
AcDbLine
 10
112.0212887243099
 20
184.1089512025635
 30
0.0
 11
112.177538868647
 21
183.8383182025636
 31
0.0
  0
LINE
  5
2F9
330
1F
100
AcDbEntity
  8
作図レイヤ
  6
Continuous
 62
     7
370
    25
100
AcDbLine
 10
111.802538753177
 20
183.8383182025636
 30
0.0
 11
111.958788897515
 21
184.1089512025635
 31
0.0
  0
LINE
  5
2FA
330
1F
100
AcDbEntity
  8
作図レイヤ
  6
Continuous
 62
     7
370
    25
100
AcDbLine
 10
111.7087888975159
 20
175.1289512025635
 30
0.0
 11
111.552538753178
 21
175.3995842025635
 31
0.0
  0
LINE
  5
2FB
330
1F
100
AcDbEntity
  8
作図レイヤ
  6
Continuous
 62
     7
370
    25
100
AcDbLine
 10
111.9275388686479
 20
175.3995842025635
 30
0.0
 11
111.7712887243099
 21
175.1289512025635
 31
0.0
  0
LINE
  5
2FC
330
1F
100
AcDbEntity
  8
作図レイヤ
  6
Continuous
 62
     7
370
    25
100
AcDbLine
 10
111.9275388686479
 20
175.3995842025635
 30
0.0
 11
112.052538753178
 21
175.3995842025635
 31
0.0
  0
LINE
  5
2FD
330
1F
100
AcDbEntity
  8
作図レイヤ
  6
Continuous
 62
     7
370
    25
100
AcDbLine
 10
111.9275388686479
 20
175.3995842025635
 30
0.0
 11
112.052538753178
 21
175.3995842025635
 31
0.0
  0
LINE
  5
2FE
330
1F
100
AcDbEntity
  8
作図レイヤ
  6
Continuous
 62
     7
370
    25
100
AcDbLine
 10
112.2087888975159
 20
175.1289512025635
 30
0.0
 11
112.052538753178
 21
175.3995842025635
 31
0.0
  0
LINE
  5
2FF
330
1F
100
AcDbEntity
  8
作図レイヤ
  6
Continuous
 62
     7
370
    25
100
AcDbLine
 10
112.4275388686479
 20
175.3995842025635
 30
0.0
 11
112.2712887243099
 21
175.1289512025635
 31
0.0
  0
LINE
  5
300
330
1F
100
AcDbEntity
  8
作図レイヤ
  6
Continuous
 62
     7
370
    25
100
AcDbLine
 10
111.9275388686479
 20
175.3995842025635
 30
0.0
 11
112.052538753178
 21
175.3995842025635
 31
0.0
  0
LINE
  5
301
330
1F
100
AcDbEntity
  8
作図レイヤ
  6
Continuous
 62
     7
370
    25
100
AcDbLine
 10
112.4275388686479
 20
175.3995842025635
 30
0.0
 11
112.552538753178
 21
175.3995842025635
 31
0.0
  0
LINE
  5
302
330
1F
100
AcDbEntity
  8
作図レイヤ
  6
Continuous
 62
     7
370
    25
100
AcDbLine
 10
112.7087888975159
 20
175.1289512025635
 30
0.0
 11
112.552538753178
 21
175.3995842025635
 31
0.0
  0
LINE
  5
303
330
1F
100
AcDbEntity
  8
作図レイヤ
  6
Continuous
 62
     7
370
    25
100
AcDbLine
 10
112.9275388686479
 20
175.3995842025635
 30
0.0
 11
112.7712887243099
 21
175.1289512025635
 31
0.0
  0
LINE
  5
304
330
1F
100
AcDbEntity
  8
作図レイヤ
  6
Continuous
 62
     7
370
    25
100
AcDbLine
 10
112.4275388686479
 20
175.3995842025635
 30
0.0
 11
112.552538753178
 21
175.3995842025635
 31
0.0
  0
LINE
  5
305
330
1F
100
AcDbEntity
  8
作図レイヤ
  6
Continuous
 62
     7
370
    25
100
AcDbLine
 10
113.2087888975159
 20
175.1289512025635
 30
0.0
 11
113.052538753178
 21
175.3995842025635
 31
0.0
  0
LINE
  5
306
330
1F
100
AcDbEntity
  8
作図レイヤ
  6
Continuous
 62
     7
370
    25
100
AcDbLine
 10
113.4275388686479
 20
175.3995842025635
 30
0.0
 11
113.2712887243099
 21
175.1289512025635
 31
0.0
  0
LINE
  5
307
330
1F
100
AcDbEntity
  8
作図レイヤ
  6
Continuous
 62
     7
370
    25
100
AcDbLine
 10
112.9275388686479
 20
175.3995842025635
 30
0.0
 11
113.052538753178
 21
175.3995842025635
 31
0.0
  0
LINE
  5
308
330
1F
100
AcDbEntity
  8
作図レイヤ
  6
Continuous
 62
     7
370
    25
100
AcDbLine
 10
113.7087888975159
 20
175.1289512025635
 30
0.0
 11
113.552538753178
 21
175.3995842025635
 31
0.0
  0
LINE
  5
309
330
1F
100
AcDbEntity
  8
作図レイヤ
  6
Continuous
 62
     7
370
    25
100
AcDbLine
 10
113.9275388686479
 20
175.3995842025635
 30
0.0
 11
113.7712887243099
 21
175.1289512025635
 31
0.0
  0
LINE
  5
30A
330
1F
100
AcDbEntity
  8
作図レイヤ
  6
Continuous
 62
     7
370
    25
100
AcDbLine
 10
113.4275388686479
 20
175.3995842025635
 30
0.0
 11
113.552538753178
 21
175.3995842025635
 31
0.0
  0
LINE
  5
30B
330
1F
100
AcDbEntity
  8
作図レイヤ
  6
Continuous
 62
     7
370
    25
100
AcDbLine
 10
114.2087888975159
 20
175.1289512025635
 30
0.0
 11
114.052538753178
 21
175.3995842025635
 31
0.0
  0
LINE
  5
30C
330
1F
100
AcDbEntity
  8
作図レイヤ
  6
Continuous
 62
     7
370
    25
100
AcDbLine
 10
113.9275388686479
 20
175.3995842025635
 30
0.0
 11
114.052538753178
 21
175.3995842025635
 31
0.0
  0
LINE
  5
30D
330
1F
100
AcDbEntity
  8
作図レイヤ
  6
Continuous
 62
     7
370
    25
100
AcDbLine
 10
110.427538868647
 20
184.1032646858607
 30
0.0
 11
110.427538868647
 21
184.6189512025635
 31
0.0
  0
LINE
  5
30E
330
1F
100
AcDbEntity
  8
作図レイヤ
  6
Continuous
 62
     7
370
    25
100
AcDbLine
 10
108.927538868647
 20
184.1032646858607
 30
0.0
 11
110.427538868647
 21
184.1032646858607
 31
0.0
  0
LINE
  5
30F
330
1F
100
AcDbEntity
  8
作図レイヤ
  6
Continuous
 62
     7
370
    25
100
AcDbLine
 10
110.427538868647
 20
180.1346377192652
 30
0.0
 11
110.427538868647
 21
179.6189512025635
 31
0.0
  0
LINE
  5
310
330
1F
100
AcDbEntity
  8
作図レイヤ
  6
Continuous
 62
     7
370
    25
100
AcDbLine
 10
108.927538868647
 20
180.1346377192652
 30
0.0
 11
110.427538868647
 21
180.1346377192652
 31
0.0
  0
LINE
  5
311
330
1F
100
AcDbEntity
  8
作図レイヤ
  6
Continuous
 62
     7
370
    25
100
AcDbLine
 10
110.927538868647
 20
183.9096377192652
 30
0.0
 11
110.927538868647
 21
179.6189512025635
 31
0.0
  0
LINE
  5
312
330
1F
100
AcDbEntity
  8
作図レイヤ
  6
Continuous
 62
     7
370
    25
100
AcDbLine
 10
110.927538868647
 20
183.9089512025637
 30
0.0
 11
110.927538868647
 21
184.1189512025635
 31
0.0
  0
LINE
  5
313
330
1F
100
AcDbEntity
  8
作図レイヤ
  6
Continuous
 62
     7
370
    25
100
AcDbLine
 10
110.927538868647
 20
184.1189512025635
 30
0.0
 11
110.427538868647
 21
184.6189512025635
 31
0.0
  0
LINE
  5
314
330
1F
100
AcDbEntity
  8
作図レイヤ
  6
Continuous
 62
     7
370
    25
100
AcDbLine
 10
111.1275388686479
 20
183.8383182025653
 30
0.0
 11
111.802538753177
 21
183.8383182025636
 31
0.0
  0
LINE
  5
315
330
1F
100
AcDbEntity
  8
作図レイヤ
  6
Continuous
 62
     7
370
    25
100
AcDbLine
 10
108.927538868647
 20
184.6189512025635
 30
0.0
 11
110.427538868647
 21
184.6189512025635
 31
0.0
  0
LINE
  5
316
330
1F
100
AcDbEntity
  8
作図レイヤ
  6
Continuous
 62
     7
370
    25
100
AcDbLine
 10
110.927538868647
 20
175.1189512025635
 30
0.0
 11
110.927538868647
 21
175.1995842025636
 31
0.0
  0
LINE
  5
317
330
1F
100
AcDbEntity
  8
作図レイヤ
  6
Continuous
 62
     7
370
    25
100
AcDbLine
 10
111.552538753178
 20
175.3995842025635
 30
0.0
 11
111.1275388686479
 21
175.3995842025625
 31
0.0
  0
ARC
  5
318
330
1F
100
AcDbEntity
  8
作図レイヤ
  6
Continuous
 62
     7
370
    25
100
AcDbCircle
 10
111.1275388686479
 20
184.0383182025644
 30
0.0
 40
0.1999999999991076
100
AcDbArc
 50
180.0
 51
270.0
  0
ARC
  5
319
330
1F
100
AcDbEntity
  8
作図レイヤ
  6
Continuous
 62
     7
370
    25
100
AcDbCircle
 10
111.1275388686479
 20
175.1995842025636
 30
0.0
 40
0.2000000000009976
100
AcDbArc
 50
90.0
 51
180.0
  0
ARC
  5
31A
330
1F
100
AcDbEntity
  8
作図レイヤ
  6
Continuous
 62
     7
370
    25
100
AcDbCircle
 10
106.740038853748
 20
177.1189512025635
 30
0.0
 40
4.187500013119898
100
AcDbArc
 50
331.7144651302515
 51
28.28553486976041
  0
ARC
  5
31B
330
1F
100
AcDbEntity
  8
作図レイヤ
  6
Continuous
 62
     7
370
    25
100
AcDbCircle
 10
117.4400388686479
 20
177.1189512025635
 30
0.0
 40
4.187500000000024
100
AcDbArc
 50
331.7144650336373
 51
28.28553496636454
  0
ARC
  5
31C
330
1F
100
AcDbEntity
  8
作図レイヤ
  6
Continuous
 62
     7
370
    25
100
AcDbCircle
 10
121.040038868648
 20
177.1189512025635
 30
0.0
 40
6.712499999999968
100
AcDbArc
 50
162.8056005751344
 51
197.1943994248641
  0
ARC
  5
31D
330
1F
100
AcDbEntity
  8
作図レイヤ
  6
Continuous
 62
     7
370
    25
100
AcDbCircle
 10
113.990038810912
 20
184.0909090440726
 30
0.0
 40
0.0360842981133216
100
AcDbArc
 50
30.00001729663454
 51
149.9999827025874
  0
ARC
  5
31E
330
1F
100
AcDbEntity
  8
作図レイヤ
  6
Continuous
 62
     7
370
    25
100
AcDbCircle
 10
121.040038868648
 20
182.1189512025635
 30
0.0
 40
6.712500000000027
100
AcDbArc
 50
162.8056005751369
 51
197.1943994248657
  0
ARC
  5
31F
330
1F
100
AcDbEntity
  8
作図レイヤ
  6
Continuous
 62
     7
370
    25
100
AcDbCircle
 10
117.4400388686479
 20
182.1189512025635
 30
0.0
 40
4.187499999999882
100
AcDbArc
 50
331.7144650336354
 51
28.28553496636113
  0
ARC
  5
320
330
1F
100
AcDbEntity
  8
作図レイヤ
  6
Continuous
 62
     7
370
    25
100
AcDbCircle
 10
113.490038810912
 20
184.0909090440726
 30
0.0
 40
0.0360842981133216
100
AcDbArc
 50
30.00001729663454
 51
149.9999827025874
  0
ARC
  5
321
330
1F
100
AcDbEntity
  8
作図レイヤ
  6
Continuous
 62
     7
370
    25
100
AcDbCircle
 10
112.990038810912
 20
184.0909090440726
 30
0.0
 40
0.0360842981133216
100
AcDbArc
 50
30.00001729663454
 51
149.9999827025874
  0
ARC
  5
322
330
1F
100
AcDbEntity
  8
作図レイヤ
  6
Continuous
 62
     7
370
    25
100
AcDbCircle
 10
112.490038810912
 20
184.0909090440726
 30
0.0
 40
0.0360842981133216
100
AcDbArc
 50
30.00001729663454
 51
149.9999827025874
  0
ARC
  5
323
330
1F
100
AcDbEntity
  8
作図レイヤ
  6
Continuous
 62
     7
370
    25
100
AcDbCircle
 10
111.990038810912
 20
184.0909090440726
 30
0.0
 40
0.0360842981133216
100
AcDbArc
 50
30.00001729663454
 51
149.9999827025874
  0
ARC
  5
324
330
1F
100
AcDbEntity
  8
作図レイヤ
  6
Continuous
 62
     7
370
    25
100
AcDbCircle
 10
111.7400388109129
 20
175.1469933610543
 30
0.0
 40
0.0360842981132718
100
AcDbArc
 50
210.0000172972562
 51
329.9999827027439
  0
ARC
  5
325
330
1F
100
AcDbEntity
  8
作図レイヤ
  6
Continuous
 62
     7
370
    25
100
AcDbCircle
 10
112.2400388109129
 20
175.1469933610543
 30
0.0
 40
0.0360842981132718
100
AcDbArc
 50
210.0000172972562
 51
329.9999827027439
  0
ARC
  5
326
330
1F
100
AcDbEntity
  8
作図レイヤ
  6
Continuous
 62
     7
370
    25
100
AcDbCircle
 10
112.7400388109129
 20
175.1469933610543
 30
0.0
 40
0.0360842981132718
100
AcDbArc
 50
210.0000172972562
 51
329.9999827027439
  0
ARC
  5
327
330
1F
100
AcDbEntity
  8
作図レイヤ
  6
Continuous
 62
     7
370
    25
100
AcDbCircle
 10
113.2400388109129
 20
175.1469933610543
 30
0.0
 40
0.0360842981132718
100
AcDbArc
 50
210.0000172972562
 51
329.9999827027439
  0
ARC
  5
328
330
1F
100
AcDbEntity
  8
作図レイヤ
  6
Continuous
 62
     7
370
    25
100
AcDbCircle
 10
113.7400388109129
 20
175.1469933610543
 30
0.0
 40
0.0360842981132718
100
AcDbArc
 50
210.0000172972562
 51
329.9999827027439
  0
ARC
  5
329
330
1F
100
AcDbEntity
  8
作図レイヤ
  6
Continuous
 62
     7
370
    25
100
AcDbCircle
 10
114.2400388109129
 20
175.1469933610543
 30
0.0
 40
0.0360842981132718
100
AcDbArc
 50
210.0000172972562
 51
329.9999827027439
  0
ARC
  5
32A
330
1F
100
AcDbEntity
  8
作図レイヤ
  6
Continuous
 62
     7
370
    25
100
AcDbCircle
 10
106.740038853748
 20
182.1189512025635
 30
0.0
 40
4.187500013119426
100
AcDbArc
 50
331.7144651302384
 51
28.2855348697484
  0
LINE
  5
32B
330
1F
100
AcDbEntity
  8
作図レイヤ
  6
Continuous
 62
     7
370
    25
100
AcDbLine
 10
124.2300388686474
 20
203.6189512025634
 30
0.0
 11
130.8528462518138
 21
203.6189512025634
 31
0.0
  0
LINE
  5
32C
330
1F
100
AcDbEntity
  8
作図レイヤ
  6
Continuous
 62
     7
370
    25
100
AcDbLine
 10
124.2300388686474
 20
195.6189512025634
 30
0.0
 11
130.8528462518138
 21
195.6189512025634
 31
0.0
  0
LINE
  5
32D
330
1F
100
AcDbEntity
  8
作図レイヤ
  6
Continuous
 62
     7
370
    25
100
AcDbLine
 10
124.2300388686479
 20
182.5189512025635
 30
0.0
 11
130.8528462518138
 21
182.5189512025635
 31
0.0
  0
LINE
  5
32E
330
1F
100
AcDbEntity
  8
作図レイヤ
  6
Continuous
 62
     7
370
    25
100
AcDbLine
 10
124.2300388686479
 20
176.7189512025635
 30
0.0
 11
130.8528462518138
 21
176.7189512025635
 31
0.0
  0
LINE
  5
32F
330
1F
100
AcDbEntity
  8
作図レイヤ
  6
Continuous
 62
     7
370
    25
100
AcDbLine
 10
114.3300388686473
 20
194.6189512025635
 30
0.0
 11
114.3300388686473
 21
199.6189512025635
 31
0.0
  0
LINE
  5
330
330
1F
100
AcDbEntity
  8
作図レイヤ
  6
DASHDOT
 62
     4
370
    13
100
AcDbLine
 10
108.3275388686468
 20
232.7470163110285
 30
0.0
 11
58.52753886864683
 21
146.4908860940984
 31
0.0
  0
CIRCLE
  5
331
330
1F
100
AcDbEntity
  8
作図レイヤ
  6
Continuous
 62
     7
370
    25
100
AcDbCircle
 10
99.67753886864686
 20
217.7647768255578
 30
0.0
 40
2.0
  0
CIRCLE
  5
332
330
1F
100
AcDbEntity
  8
作図レイヤ
  6
Continuous
 62
     7
370
    25
100
AcDbCircle
 10
67.17753886864686
 20
161.4731255795693
 30
0.0
 40
2.0
  0
LINE
  5
333
330
1F
100
AcDbEntity
  8
作図レイヤ
  6
Continuous
 62
     7
370
    25
100
AcDbLine
 10
88.01011456360253
 20
179.6189512025634
 30
0.0
 11
78.84496317369103
 21
179.6189512025634
 31
0.0
  0
LINE
  5
334
330
1F
100
AcDbEntity
  8
作図レイヤ
  6
Continuous
 62
     7
370
    25
100
AcDbLine
 10
78.84496317369103
 20
199.6189512025636
 30
0.0
 11
88.01011456360253
 21
199.6189512025636
 31
0.0
  0
ARC
  5
335
330
1F
100
AcDbEntity
  8
作図レイヤ
  6
Continuous
 62
     7
370
    25
100
AcDbCircle
 10
83.42753886864686
 20
189.6189512025635
 30
0.0
 40
10.5
100
AcDbArc
 50
17.7527901619457
 51
72.24720983805626
  0
ARC
  5
336
330
1F
100
AcDbEntity
  8
作図レイヤ
  6
Continuous
 62
     7
370
    25
100
AcDbCircle
 10
83.42753886864686
 20
189.6189512025635
 30
0.0
 40
10.5
100
AcDbArc
 50
197.7527901619436
 51
252.2472098380543
  0
LINE
  5
337
330
1F
100
AcDbEntity
  8
作図レイヤ
  6
Continuous
 62
     7
370
    25
100
AcDbLine
 10
325.9622675148744
 20
212.1189512025632
 30
0.0
 11
325.9622675148743
 21
189.6189512025632
 31
0.0
  0
LINE
  5
338
330
1F
100
AcDbEntity
  8
作図レイヤ
  6
Continuous
 62
     7
370
    25
100
AcDbLine
 10
194.3622675148743
 20
212.1189512025631
 30
0.0
 11
196.2622675148744
 21
212.1189512025631
 31
0.0
  0
LINE
  5
339
330
1F
100
AcDbEntity
  8
作図レイヤ
  6
Continuous
 62
     7
370
    25
100
AcDbLine
 10
369.4622675148743
 20
167.1189512025632
 30
0.0
 11
220.4622675148744
 21
167.1189512025632
 31
0.0
  0
LINE
  5
33A
330
1F
100
AcDbEntity
  8
作図レイヤ
  6
Continuous
 62
     7
370
    25
100
AcDbLine
 10
325.9622675148744
 20
167.1189512025632
 30
0.0
 11
325.9622675148744
 21
189.6189512025632
 31
0.0
  0
LINE
  5
33B
330
1F
100
AcDbEntity
  8
作図レイヤ
  6
Continuous
 62
     7
370
    25
100
AcDbLine
 10
369.9622675148743
 20
211.6189512025632
 30
0.0
 11
369.9622675148743
 21
167.6189512025632
 31
0.0
  0
LINE
  5
33C
330
1F
100
AcDbEntity
  8
作図レイヤ
  6
Continuous
 62
     7
370
    25
100
AcDbLine
 10
369.9622675148743
 20
167.6189512025632
 30
0.0
 11
369.4622675148743
 21
167.1189512025632
 31
0.0
  0
LINE
  5
33D
330
1F
100
AcDbEntity
  8
作図レイヤ
  6
DASHDOT
 62
     4
370
    13
100
AcDbLine
 10
375.7963043098272
 20
203.6189512025632
 30
0.0
 11
369.9622675148743
 21
203.6189512025632
 31
0.0
  0
LINE
  5
33E
330
1F
100
AcDbEntity
  8
作図レイヤ
  6
Continuous
 62
     7
370
    25
100
AcDbLine
 10
370.9622675148743
 20
206.8189512025632
 30
0.0
 11
369.9622675148743
 21
206.8189512025632
 31
0.0
  0
LINE
  5
33F
330
1F
100
AcDbEntity
  8
作図レイヤ
  6
Continuous
 62
     7
370
    25
100
AcDbLine
 10
370.9622675148743
 20
206.8189512025632
 30
0.0
 11
370.9622675148743
 21
200.4189512025631
 31
0.0
  0
LINE
  5
340
330
1F
100
AcDbEntity
  8
作図レイヤ
  6
Continuous
 62
     7
370
    25
100
AcDbLine
 10
370.9622675148743
 20
200.4189512025632
 30
0.0
 11
369.9622675148743
 21
200.4189512025631
 31
0.0
  0
LINE
  5
341
330
1F
100
AcDbEntity
  8
作図レイヤ
  6
Continuous
 62
     7
370
    25
100
AcDbLine
 10
192.0622675148742
 20
189.6189512025632
 30
0.0
 11
192.0622675148742
 21
204.1189512025632
 31
0.0
  0
LINE
  5
342
330
1F
100
AcDbEntity
  8
作図レイヤ
  6
Continuous
 62
     7
370
    50
100
AcDbLine
 10
175.9622675148743
 20
180.6189512025632
 30
0.0
 11
176.9622675148743
 21
179.6189512025632
 31
0.0
  0
LINE
  5
343
330
1F
100
AcDbEntity
  8
作図レイヤ
  6
Continuous
 62
     7
370
    50
100
AcDbLine
 10
176.9622675148743
 20
179.6189512025632
 30
0.0
 11
186.9622675148743
 21
179.6189512025632
 31
0.0
  0
LINE
  5
344
330
1F
100
AcDbEntity
  8
作図レイヤ
  6
Continuous
 62
     6
370
    13
100
AcDbLine
 10
184.9622675148743
 20
189.6189512025632
 30
0.0
 11
184.9622675148743
 21
199.6189512025632
 31
0.0
  0
LINE
  5
345
330
1F
100
AcDbEntity
  8
作図レイヤ
  6
Continuous
 62
     6
370
    13
100
AcDbLine
 10
184.9622675148743
 20
199.1189512025632
 30
0.0
 11
185.8282925148742
 21
199.6189512025632
 31
0.0
  0
LINE
  5
346
330
1F
100
AcDbEntity
  8
作図レイヤ
  6
Continuous
 62
     6
370
    13
100
AcDbLine
 10
184.9622675148743
 20
199.1189512025632
 30
0.0
 11
176.4622675148743
 21
199.1189512025632
 31
0.0
  0
LINE
  5
347
330
1F
100
AcDbEntity
  8
作図レイヤ
  6
Continuous
 62
     7
370
    50
100
AcDbLine
 10
176.9622675148743
 20
199.6189512025632
 30
0.0
 11
186.9622675148743
 21
199.6189512025632
 31
0.0
  0
LINE
  5
348
330
1F
100
AcDbEntity
  8
作図レイヤ
  6
Continuous
 62
     7
370
    50
100
AcDbLine
 10
176.9622675148743
 20
199.6189512025632
 30
0.0
 11
175.9622675148743
 21
198.6189512025632
 31
0.0
  0
LINE
  5
349
330
1F
100
AcDbEntity
  8
作図レイヤ
  6
Continuous
 62
     7
370
    50
100
AcDbLine
 10
175.9622675148743
 20
198.6189512025632
 30
0.0
 11
175.9622675148743
 21
180.6189512025632
 31
0.0
  0
LINE
  5
34A
330
1F
100
AcDbEntity
  8
作図レイヤ
  6
Continuous
 62
     6
370
    13
100
AcDbLine
 10
184.9622675148743
 20
189.6189512025632
 30
0.0
 11
184.9622675148743
 21
179.6189512025632
 31
0.0
  0
LINE
  5
34B
330
1F
100
AcDbEntity
  8
作図レイヤ
  6
Continuous
 62
     6
370
    13
100
AcDbLine
 10
184.9622675148743
 20
180.1189512025632
 30
0.0
 11
185.8282925148742
 21
179.6189512025632
 31
0.0
  0
LINE
  5
34C
330
1F
100
AcDbEntity
  8
作図レイヤ
  6
Continuous
 62
     6
370
    13
100
AcDbLine
 10
184.9622675148743
 20
180.1189512025632
 30
0.0
 11
176.4622675148743
 21
180.1189512025632
 31
0.0
  0
LINE
  5
34D
330
1F
100
AcDbEntity
  8
作図レイヤ
  6
Continuous
 62
     3
370
    13
100
AcDbLine
 10
169.6622675148744
 20
202.1189512025632
 30
0.0
 11
169.6622675148744
 21
177.1189512025632
 31
0.0
  0
LINE
  5
34E
330
1F
100
AcDbEntity
  8
作図レイヤ
  6
Continuous
 62
     3
370
    13
100
AcDbLine
 10
175.0865315148744
 20
176.6189512025632
 30
0.0
 11
170.1622675148744
 21
176.6189512025632
 31
0.0
  0
LINE
  5
34F
330
1F
100
AcDbEntity
  8
作図レイヤ
  6
Continuous
 62
     3
370
    13
100
AcDbLine
 10
177.2509425148743
 20
189.6189512025632
 30
0.0
 11
177.2509425148743
 21
176.9189512025631
 31
0.0
  0
LINE
  5
350
330
1F
100
AcDbEntity
  8
作図レイヤ
  6
Continuous
 62
     3
370
    13
100
AcDbLine
 10
176.9622675148743
 20
189.6189512025632
 30
0.0
 11
176.9622675148743
 21
177.4189512025631
 31
0.0
  0
LINE
  5
351
330
1F
100
AcDbEntity
  8
作図レイヤ
  6
Continuous
 62
     3
370
    13
100
AcDbLine
 10
175.6743995148743
 20
177.2068192025631
 30
0.0
 11
175.6743995148743
 21
189.6189512025632
 31
0.0
  0
LINE
  5
352
330
1F
100
AcDbEntity
  8
作図レイヤ
  6
Continuous
 62
     3
370
    13
100
AcDbLine
 10
175.0865315148744
 20
176.6189512025632
 30
0.0
 11
175.0865315148744
 21
189.6189512025632
 31
0.0
  0
LINE
  5
353
330
1F
100
AcDbEntity
  8
作図レイヤ
  6
Continuous
 62
     3
370
    13
100
AcDbLine
 10
181.4622675148743
 20
176.9189512025631
 30
0.0
 11
181.4622675148743
 21
187.6189512025632
 31
0.0
  0
LINE
  5
354
330
1F
100
AcDbEntity
  8
作図レイヤ
  6
Continuous
 62
     3
370
    13
100
AcDbLine
 10
181.9622675148743
 20
189.6189512025632
 30
0.0
 11
181.9622675148743
 21
177.4189512025631
 31
0.0
  0
LINE
  5
355
330
1F
100
AcDbEntity
  8
作図レイヤ
  6
Continuous
 62
     3
370
    13
100
AcDbLine
 10
177.2509425148743
 20
176.9189512025631
 30
0.0
 11
181.4622675148743
 21
176.9189512025631
 31
0.0
  0
LINE
  5
356
330
1F
100
AcDbEntity
  8
作図レイヤ
  6
Continuous
 62
     3
370
    13
100
AcDbLine
 10
181.9622675148743
 20
177.4189512025631
 30
0.0
 11
181.4622675148743
 21
176.9189512025631
 31
0.0
  0
LINE
  5
357
330
1F
100
AcDbEntity
  8
作図レイヤ
  6
Continuous
 62
     3
370
    13
100
AcDbLine
 10
175.6743995148743
 20
177.2068192025631
 30
0.0
 11
175.0865315148744
 21
176.6189512025632
 31
0.0
  0
LINE
  5
358
330
1F
100
AcDbEntity
  8
作図レイヤ
  6
Continuous
 62
     3
370
    13
100
AcDbLine
 10
176.9622675148743
 20
177.4189512025631
 30
0.0
 11
177.2509425148743
 21
176.9189512025631
 31
0.0
  0
LINE
  5
359
330
1F
100
AcDbEntity
  8
作図レイヤ
  6
Continuous
 62
     3
370
    13
100
AcDbLine
 10
176.9622675148743
 20
177.4189512025631
 30
0.0
 11
175.6743995148743
 21
177.4189512025631
 31
0.0
  0
LINE
  5
35A
330
1F
100
AcDbEntity
  8
作図レイヤ
  6
Continuous
 62
     3
370
    13
100
AcDbLine
 10
179.2509425148743
 20
187.6189512025632
 30
0.0
 11
181.9622675148743
 21
187.6189512025632
 31
0.0
  0
ARC
  5
35B
330
1F
100
AcDbEntity
  8
作図レイヤ
  6
Continuous
 62
     3
370
    13
100
AcDbCircle
 10
179.2509425148743
 20
189.6189512025632
 30
0.0
 40
2.0
100
AcDbArc
 50
180.0
 51
270.0
  0
ARC
  5
35C
330
1F
100
AcDbEntity
  8
作図レイヤ
  6
Continuous
 62
     3
370
    13
100
AcDbCircle
 10
170.1622675148744
 20
177.1189512025632
 30
0.0
 40
0.5
100
AcDbArc
 50
180.0
 51
270.0
  0
LINE
  5
35D
330
1F
100
AcDbEntity
  8
作図レイヤ
  6
Continuous
 62
     7
370
    25
100
AcDbLine
 10
192.0622675148743
 20
200.6189512025632
 30
0.0
 11
187.4622675148743
 21
200.6189512025632
 31
0.0
  0
LINE
  5
35E
330
1F
100
AcDbEntity
  8
作図レイヤ
  6
Continuous
 62
     7
370
    25
100
AcDbLine
 10
186.9622675148743
 20
189.6189512025632
 30
0.0
 11
186.9622675148743
 21
200.1189512025632
 31
0.0
  0
LINE
  5
35F
330
1F
100
AcDbEntity
  8
作図レイヤ
  6
Continuous
 62
     7
370
    25
100
AcDbLine
 10
194.0622675148743
 20
189.6189512025632
 30
0.0
 11
194.0622675148743
 21
211.8189512025631
 31
0.0
  0
LINE
  5
360
330
1F
100
AcDbEntity
  8
作図レイヤ
  6
Continuous
 62
     7
370
    25
100
AcDbLine
 10
194.0622675148743
 20
204.6189512025632
 30
0.0
 11
192.5622675148742
 21
204.6189512025632
 31
0.0
  0
LINE
  5
361
330
1F
100
AcDbEntity
  8
作図レイヤ
  6
Continuous
 62
     7
370
    25
100
AcDbLine
 10
197.4622675148745
 20
189.6189512025632
 30
0.0
 11
197.4622675148744
 21
230.6189512025632
 31
0.0
  0
LINE
  5
362
330
1F
100
AcDbEntity
  8
作図レイヤ
  6
Continuous
 62
     7
370
    25
100
AcDbLine
 10
196.2622675148757
 20
189.6189512025632
 30
0.0
 11
196.2622675148744
 21
212.1189512025631
 31
0.0
  0
LINE
  5
363
330
1F
100
AcDbEntity
  8
作図レイヤ
  6
Continuous
 62
     7
370
    25
100
AcDbLine
 10
220.4622675148744
 20
212.1189512025631
 30
0.0
 11
369.4622675148743
 21
212.1189512025632
 31
0.0
  0
LINE
  5
364
330
1F
100
AcDbEntity
  8
作図レイヤ
  6
Continuous
 62
     7
370
    25
100
AcDbLine
 10
196.4622675148744
 20
210.9189512025631
 30
0.0
 11
196.2622675148745
 21
210.9189512025631
 31
0.0
  0
LINE
  5
365
330
1F
100
AcDbEntity
  8
作図レイヤ
  6
Continuous
 62
     7
370
    25
100
AcDbLine
 10
336.9622675148744
 20
189.6189512025632
 30
0.0
 11
336.9622675148744
 21
212.1189512025631
 31
0.0
  0
LINE
  5
366
330
1F
100
AcDbEntity
  8
作図レイヤ
  6
Continuous
 62
     7
370
    25
100
AcDbLine
 10
369.9622675148743
 20
210.1189512025632
 30
0.0
 11
336.9622675148744
 21
210.1189512025631
 31
0.0
  0
LINE
  5
367
330
1F
100
AcDbEntity
  8
作図レイヤ
  6
DASHDOT
 62
     4
370
    13
100
AcDbLine
 10
359.9622675148742
 20
207.6167508634626
 30
0.0
 11
359.962267514874
 21
171.0171521348061
 31
0.0
  0
LINE
  5
368
330
1F
100
AcDbEntity
  8
作図レイヤ
  6
DASHDOT
 62
     4
370
    13
100
AcDbLine
 10
347.9622675148742
 20
196.913635176365
 30
0.0
 11
347.9622675148742
 21
182.278161645413
 31
0.0
  0
LINE
  5
369
330
1F
100
AcDbEntity
  8
作図レイヤ
  6
Continuous
 62
     7
370
    25
100
AcDbLine
 10
194.3622675148743
 20
167.1189512025633
 30
0.0
 11
196.2622675148744
 21
167.1189512025633
 31
0.0
  0
LINE
  5
36A
330
1F
100
AcDbEntity
  8
作図レイヤ
  6
Continuous
 62
     7
370
    25
100
AcDbLine
 10
192.0622675148742
 20
189.6189512025632
 30
0.0
 11
192.0622675148742
 21
175.1189512025632
 31
0.0
  0
LINE
  5
36B
330
1F
100
AcDbEntity
  8
作図レイヤ
  6
Continuous
 62
     7
370
    25
100
AcDbLine
 10
192.0622675148743
 20
178.6189512025632
 30
0.0
 11
187.4622675148743
 21
178.6189512025632
 31
0.0
  0
LINE
  5
36C
330
1F
100
AcDbEntity
  8
作図レイヤ
  6
Continuous
 62
     7
370
    25
100
AcDbLine
 10
186.9622675148743
 20
189.6189512025632
 30
0.0
 11
186.9622675148743
 21
179.1189512025632
 31
0.0
  0
LINE
  5
36D
330
1F
100
AcDbEntity
  8
作図レイヤ
  6
Continuous
 62
     7
370
    25
100
AcDbLine
 10
194.0622675148743
 20
189.6189512025632
 30
0.0
 11
194.0622675148743
 21
167.4189512025633
 31
0.0
  0
LINE
  5
36E
330
1F
100
AcDbEntity
  8
作図レイヤ
  6
Continuous
 62
     7
370
    25
100
AcDbLine
 10
194.0622675148743
 20
174.6189512025632
 30
0.0
 11
192.5622675148742
 21
174.6189512025632
 31
0.0
  0
LINE
  5
36F
330
1F
100
AcDbEntity
  8
作図レイヤ
  6
Continuous
 62
     7
370
    25
100
AcDbLine
 10
196.2622675148757
 20
189.6189512025632
 30
0.0
 11
196.2622675148744
 21
167.1189512025632
 31
0.0
  0
LINE
  5
370
330
1F
100
AcDbEntity
  8
作図レイヤ
  6
Continuous
 62
     7
370
    25
100
AcDbLine
 10
196.4622675148744
 20
168.3189512025633
 30
0.0
 11
196.2622675148745
 21
168.3189512025633
 31
0.0
  0
LINE
  5
371
330
1F
100
AcDbEntity
  8
作図レイヤ
  6
Continuous
 62
     3
370
    13
100
AcDbLine
 10
175.0865315148744
 20
202.6189512025632
 30
0.0
 11
170.1622675148744
 21
202.6189512025632
 31
0.0
  0
LINE
  5
372
330
1F
100
AcDbEntity
  8
作図レイヤ
  6
Continuous
 62
     3
370
    13
100
AcDbLine
 10
177.2509425148743
 20
189.6189512025632
 30
0.0
 11
177.2509425148743
 21
202.3189512025632
 31
0.0
  0
LINE
  5
373
330
1F
100
AcDbEntity
  8
作図レイヤ
  6
Continuous
 62
     3
370
    13
100
AcDbLine
 10
176.9622675148743
 20
189.6189512025632
 30
0.0
 11
176.9622675148743
 21
201.8189512025632
 31
0.0
  0
LINE
  5
374
330
1F
100
AcDbEntity
  8
作図レイヤ
  6
Continuous
 62
     3
370
    13
100
AcDbLine
 10
175.6743995148743
 20
202.0310832025632
 30
0.0
 11
175.6743995148743
 21
189.6189512025632
 31
0.0
  0
LINE
  5
375
330
1F
100
AcDbEntity
  8
作図レイヤ
  6
Continuous
 62
     3
370
    13
100
AcDbLine
 10
175.0865315148744
 20
202.6189512025632
 30
0.0
 11
175.0865315148744
 21
189.6189512025632
 31
0.0
  0
LINE
  5
376
330
1F
100
AcDbEntity
  8
作図レイヤ
  6
Continuous
 62
     3
370
    13
100
AcDbLine
 10
181.4622675148743
 20
202.3189512025632
 30
0.0
 11
181.4622675148743
 21
191.6189512025632
 31
0.0
  0
LINE
  5
377
330
1F
100
AcDbEntity
  8
作図レイヤ
  6
Continuous
 62
     3
370
    13
100
AcDbLine
 10
181.9622675148743
 20
189.6189512025632
 30
0.0
 11
181.9622675148743
 21
201.8189512025632
 31
0.0
  0
LINE
  5
378
330
1F
100
AcDbEntity
  8
作図レイヤ
  6
Continuous
 62
     3
370
    13
100
AcDbLine
 10
177.2509425148743
 20
202.3189512025632
 30
0.0
 11
181.4622675148743
 21
202.3189512025632
 31
0.0
  0
LINE
  5
379
330
1F
100
AcDbEntity
  8
作図レイヤ
  6
Continuous
 62
     3
370
    13
100
AcDbLine
 10
181.9622675148743
 20
201.8189512025632
 30
0.0
 11
181.4622675148743
 21
202.3189512025632
 31
0.0
  0
LINE
  5
37A
330
1F
100
AcDbEntity
  8
作図レイヤ
  6
Continuous
 62
     3
370
    13
100
AcDbLine
 10
175.6743995148743
 20
202.0310832025632
 30
0.0
 11
175.0865315148744
 21
202.6189512025632
 31
0.0
  0
LINE
  5
37B
330
1F
100
AcDbEntity
  8
作図レイヤ
  6
Continuous
 62
     3
370
    13
100
AcDbLine
 10
176.9622675148743
 20
201.8189512025632
 30
0.0
 11
177.2509425148743
 21
202.3189512025632
 31
0.0
  0
LINE
  5
37C
330
1F
100
AcDbEntity
  8
作図レイヤ
  6
Continuous
 62
     3
370
    13
100
AcDbLine
 10
176.9622675148743
 20
201.8189512025632
 30
0.0
 11
175.6743995148743
 21
201.8189512025632
 31
0.0
  0
LINE
  5
37D
330
1F
100
AcDbEntity
  8
作図レイヤ
  6
Continuous
 62
     3
370
    13
100
AcDbLine
 10
179.2509425148743
 20
191.6189512025632
 30
0.0
 11
181.9622675148743
 21
191.6189512025632
 31
0.0
  0
ARC
  5
37E
330
1F
100
AcDbEntity
  8
作図レイヤ
  6
Continuous
 62
     3
370
    13
100
AcDbCircle
 10
179.2509425148743
 20
189.6189512025632
 30
0.0
 40
2.0
100
AcDbArc
 50
90.0
 51
180.0
  0
ARC
  5
37F
330
1F
100
AcDbEntity
  8
作図レイヤ
  6
Continuous
 62
     3
370
    13
100
AcDbCircle
 10
170.1622675148744
 20
202.1189512025632
 30
0.0
 40
0.5
100
AcDbArc
 50
90.0
 51
180.0
  0
LINE
  5
380
330
1F
100
AcDbEntity
  8
作図レイヤ
  6
Continuous
 62
     7
370
    25
100
AcDbLine
 10
194.0622675148742
 20
194.7989199672624
 30
0.0
 11
192.0622675148742
 21
194.7989199672624
 31
0.0
  0
LINE
  5
381
330
1F
100
AcDbEntity
  8
作図レイヤ
  6
Continuous
 62
     7
370
    25
100
AcDbLine
 10
194.0622675148742
 20
184.4389824378639
 30
0.0
 11
192.0622675148742
 21
184.4389824378639
 31
0.0
  0
LINE
  5
382
330
1F
100
AcDbEntity
  8
作図レイヤ
  6
Continuous
 62
     8
370
    13
100
AcDbLine
 10
192.0622675148742
 20
194.7989199672624
 30
0.0
 11
194.0622675148743
 21
184.4389824378639
 31
0.0
  0
LINE
  5
383
330
1F
100
AcDbEntity
  8
作図レイヤ
  6
Continuous
 62
     8
370
    13
100
AcDbLine
 10
192.0622675148742
 20
184.4389824378639
 30
0.0
 11
194.0622675148743
 21
194.7989199672624
 31
0.0
  0
LINE
  5
384
330
1F
100
AcDbEntity
  8
作図レイヤ
  6
Continuous
 62
     7
370
    25
100
AcDbLine
 10
187.4622675148743
 20
194.201526897519
 30
0.0
 11
187.4622675148743
 21
200.6189512025632
 31
0.0
  0
LINE
  5
385
330
1F
100
AcDbEntity
  8
作図レイヤ
  6
Continuous
 62
     7
370
    25
100
AcDbLine
 10
187.4622675148743
 20
178.6189512025632
 30
0.0
 11
187.4622675148743
 21
185.0363755076074
 31
0.0
  0
LINE
  5
386
330
1F
100
AcDbEntity
  8
作図レイヤ
  6
Continuous
 62
     7
370
    25
100
AcDbLine
 10
186.9622675148743
 20
200.1189512025632
 30
0.0
 11
187.4622675148743
 21
200.6189512025632
 31
0.0
  0
LINE
  5
387
330
1F
100
AcDbEntity
  8
作図レイヤ
  6
Continuous
 62
     7
370
    25
100
AcDbLine
 10
187.4622675148743
 20
178.6189512025632
 30
0.0
 11
186.9622675148743
 21
179.1189512025632
 31
0.0
  0
LINE
  5
388
330
1F
100
AcDbEntity
  8
作図レイヤ
  6
Continuous
 62
     7
370
    25
100
AcDbLine
 10
192.0622675148743
 20
194.201526897519
 30
0.0
 11
186.9622675148743
 21
194.201526897519
 31
0.0
  0
LINE
  5
389
330
1F
100
AcDbEntity
  8
作図レイヤ
  6
Continuous
 62
     7
370
    25
100
AcDbLine
 10
192.0622675148743
 20
185.0363755076073
 30
0.0
 11
186.9622675148743
 21
185.0363755076073
 31
0.0
  0
LINE
  5
38A
330
1F
100
AcDbEntity
  8
作図レイヤ
  6
Continuous
 62
     8
370
    13
100
AcDbLine
 10
186.9622675148742
 20
194.201526897519
 30
0.0
 11
192.0622675148742
 21
185.0363755076074
 31
0.0
  0
LINE
  5
38B
330
1F
100
AcDbEntity
  8
作図レイヤ
  6
Continuous
 62
     8
370
    13
100
AcDbLine
 10
186.9622675148743
 20
185.0363755076073
 30
0.0
 11
192.0622675148742
 21
194.201526897519
 31
0.0
  0
LINE
  5
38C
330
1F
100
AcDbEntity
  8
作図レイヤ
  6
Continuous
 62
     7
370
    25
100
AcDbLine
 10
194.3622675148755
 20
189.6189512025632
 30
0.0
 11
194.3622675148742
 21
212.1189512025631
 31
0.0
  0
LINE
  5
38D
330
1F
100
AcDbEntity
  8
作図レイヤ
  6
Continuous
 62
     7
370
    25
100
AcDbLine
 10
194.3622675148755
 20
189.6189512025632
 30
0.0
 11
194.3622675148742
 21
167.1189512025632
 31
0.0
  0
LINE
  5
38E
330
1F
100
AcDbEntity
  8
作図レイヤ
  6
Continuous
 62
     7
370
    25
100
AcDbLine
 10
192.5622675148742
 20
184.4389824378639
 30
0.0
 11
192.5622675148742
 21
174.6189512025632
 31
0.0
  0
LINE
  5
38F
330
1F
100
AcDbEntity
  8
作図レイヤ
  6
Continuous
 62
     7
370
    25
100
AcDbLine
 10
192.5622675148742
 20
204.6189512025632
 30
0.0
 11
192.0622675148742
 21
204.1189512025632
 31
0.0
  0
LINE
  5
390
330
1F
100
AcDbEntity
  8
作図レイヤ
  6
Continuous
 62
     7
370
    25
100
AcDbLine
 10
192.0622675148742
 20
175.1189512025632
 30
0.0
 11
192.5622675148742
 21
174.6189512025632
 31
0.0
  0
LINE
  5
391
330
1F
100
AcDbEntity
  8
作図レイヤ
  6
Continuous
 62
     7
370
    25
100
AcDbLine
 10
192.5622675148742
 20
194.7989199672624
 30
0.0
 11
192.5622675148742
 21
204.6189512025632
 31
0.0
  0
INSERT
  5
395
330
1F
100
AcDbEntity
  8
作図レイヤ
  6
Continuous
 62
     4
370
    13
100
AcDbBlockReference
  2
BLKF041
 10
0.0
 20
0.0
 30
0.0
  0
LINE
  5
39D
330
1F
100
AcDbEntity
  8
作図レイヤ
  6
DASHDOT
 62
     4
370
    13
100
AcDbLine
 10
375.7963043098272
 20
175.6189512025632
 30
0.0
 11
369.9622675148743
 21
175.6189512025632
 31
0.0
  0
LINE
  5
39E
330
1F
100
AcDbEntity
  8
作図レイヤ
  6
Continuous
 62
     7
370
    25
100
AcDbLine
 10
370.9622675148743
 20
172.4189512025632
 30
0.0
 11
369.9622675148743
 21
172.4189512025632
 31
0.0
  0
LINE
  5
39F
330
1F
100
AcDbEntity
  8
作図レイヤ
  6
Continuous
 62
     7
370
    25
100
AcDbLine
 10
370.9622675148743
 20
172.4189512025632
 30
0.0
 11
370.9622675148743
 21
178.8189512025632
 31
0.0
  0
LINE
  5
3A0
330
1F
100
AcDbEntity
  8
作図レイヤ
  6
Continuous
 62
     7
370
    25
100
AcDbLine
 10
370.9622675148743
 20
178.8189512025632
 30
0.0
 11
369.9622675148743
 21
178.8189512025632
 31
0.0
  0
INSERT
  5
3A4
330
1F
100
AcDbEntity
  8
作図レイヤ
  6
Continuous
 62
     4
370
    13
100
AcDbBlockReference
  2
BLKF042
 10
0.0
 20
0.0
 30
0.0
  0
LINE
  5
3AC
330
1F
100
AcDbEntity
  8
作図レイヤ
  6
Continuous
 62
     7
370
    25
100
AcDbLine
 10
336.9622675148744
 20
189.6189512025632
 30
0.0
 11
336.9622675148744
 21
167.1189512025632
 31
0.0
  0
LINE
  5
3AD
330
1F
100
AcDbEntity
  8
作図レイヤ
  6
Continuous
 62
     7
370
    25
100
AcDbLine
 10
369.9622675148743
 20
169.1189512025632
 30
0.0
 11
336.9622675148744
 21
169.1189512025632
 31
0.0
  0
CIRCLE
  5
3AE
330
1F
100
AcDbEntity
  8
作図レイヤ
  6
Continuous
 62
     7
370
    25
100
AcDbCircle
 10
347.9622675148742
 20
189.6189512025632
 30
0.0
 40
4.95
  0
CIRCLE
  5
3AF
330
1F
100
AcDbEntity
  8
作図レイヤ
  6
Continuous
 62
     7
370
    25
100
AcDbCircle
 10
347.9622675148742
 20
189.6189512025632
 30
0.0
 40
3.1
  0
CIRCLE
  5
3B0
330
1F
100
AcDbEntity
  8
作図レイヤ
  6
Continuous
 62
     7
370
    25
100
AcDbCircle
 10
347.9622675148742
 20
189.6189512025632
 30
0.0
 40
1.25
  0
CIRCLE
  5
3B1
330
1F
100
AcDbEntity
  8
作図レイヤ
  6
Continuous
 62
     7
370
    25
100
AcDbCircle
 10
347.9622675148742
 20
189.6189512025632
 30
0.0
 40
5.0
  0
LINE
  5
3B2
330
1F
100
AcDbEntity
  8
作図レイヤ
  6
Continuous
 62
     7
370
    25
100
AcDbLine
 10
346.7122675148742
 20
188.8989512025632
 30
0.0
 11
347.9622675148742
 21
188.1789512025632
 31
0.0
  0
LINE
  5
3B3
330
1F
100
AcDbEntity
  8
作図レイヤ
  6
Continuous
 62
     7
370
    25
100
AcDbLine
 10
346.7122675148742
 20
190.3389512025632
 30
0.0
 11
347.9622675148742
 21
191.0589512025632
 31
0.0
  0
LINE
  5
3B4
330
1F
100
AcDbEntity
  8
作図レイヤ
  6
Continuous
 62
     7
370
    25
100
AcDbLine
 10
346.7122675148742
 20
190.3389512025632
 30
0.0
 11
346.7122675148742
 21
188.8989512025632
 31
0.0
  0
LINE
  5
3B5
330
1F
100
AcDbEntity
  8
作図レイヤ
  6
Continuous
 62
     7
370
    25
100
AcDbLine
 10
349.2122675148742
 20
188.8989512025632
 30
0.0
 11
347.9622675148742
 21
188.1789512025632
 31
0.0
  0
LINE
  5
3B6
330
1F
100
AcDbEntity
  8
作図レイヤ
  6
Continuous
 62
     7
370
    25
100
AcDbLine
 10
349.2122675148742
 20
190.3389512025632
 30
0.0
 11
347.9622675148742
 21
191.0589512025632
 31
0.0
  0
LINE
  5
3B7
330
1F
100
AcDbEntity
  8
作図レイヤ
  6
Continuous
 62
     7
370
    25
100
AcDbLine
 10
349.2122675148742
 20
190.3389512025632
 30
0.0
 11
349.2122675148742
 21
188.8989512025632
 31
0.0
  0
LINE
  5
3B8
330
1F
100
AcDbEntity
  8
作図レイヤ
  6
DASHDOT
 62
     4
370
    13
100
AcDbLine
 10
367.9507239395848
 20
179.6189512025632
 30
0.0
 11
351.5236149949454
 21
179.6189512025632
 31
0.0
  0
LINE
  5
3B9
330
1F
100
AcDbEntity
  8
作図レイヤ
  6
DASHDOT
 62
     4
370
    13
100
AcDbLine
 10
367.9507239395848
 20
199.6189512025632
 30
0.0
 11
351.5236149949454
 21
199.6189512025632
 31
0.0
  0
LINE
  5
3BA
330
1F
100
AcDbEntity
  8
作図レイヤ
  6
Continuous
 62
     7
370
    25
100
AcDbLine
 10
362.4622675148741
 20
193.6189512025632
 30
0.0
 11
357.4622675148741
 21
193.6189512025632
 31
0.0
  0
LINE
  5
3BB
330
1F
100
AcDbEntity
  8
作図レイヤ
  6
Continuous
 62
     7
370
    25
100
AcDbLine
 10
356.0161150921676
 20
194.4538876931021
 30
0.0
 11
353.5161150921676
 21
198.7840147120243
 31
0.0
  0
LINE
  5
3BC
330
1F
100
AcDbEntity
  8
作図レイヤ
  6
Continuous
 62
     7
370
    25
100
AcDbLine
 10
353.5161150921676
 20
200.4538876931021
 30
0.0
 11
356.0161150921676
 21
204.7840147120243
 31
0.0
  0
LINE
  5
3BD
330
1F
100
AcDbEntity
  8
作図レイヤ
  6
Continuous
 62
     7
370
    25
100
AcDbLine
 10
357.4622675148741
 20
205.6189512025632
 30
0.0
 11
362.4622675148741
 21
205.6189512025632
 31
0.0
  0
LINE
  5
3BE
330
1F
100
AcDbEntity
  8
作図レイヤ
  6
Continuous
 62
     7
370
    25
100
AcDbLine
 10
363.9084199375807
 20
204.7840147120243
 30
0.0
 11
366.4084199375807
 21
200.4538876931021
 31
0.0
  0
LINE
  5
3BF
330
1F
100
AcDbEntity
  8
作図レイヤ
  6
Continuous
 62
     7
370
    25
100
AcDbLine
 10
366.4084199375807
 20
198.7840147120243
 30
0.0
 11
363.9084199375807
 21
194.4538876931021
 31
0.0
  0
ARC
  5
3C0
330
1F
100
AcDbEntity
  8
作図レイヤ
  6
Continuous
 62
     7
370
    25
100
AcDbCircle
 10
359.9622675148741
 20
199.6189512025632
 30
0.0
 40
6.499999999999916
100
AcDbArc
 50
232.6198649480417
 51
247.3801350519598
  0
ARC
  5
3C1
330
1F
100
AcDbEntity
  8
作図レイヤ
  6
Continuous
 62
     7
370
    25
100
AcDbCircle
 10
359.9622675148741
 20
199.6189512025632
 30
0.0
 40
6.499999999999901
100
AcDbArc
 50
180.0
 51
187.3801350519597
  0
ARC
  5
3C2
330
1F
100
AcDbEntity
  8
作図レイヤ
  6
Continuous
 62
     7
370
    25
100
AcDbCircle
 10
359.9622675148741
 20
199.6189512025632
 30
0.0
 40
6.5
100
AcDbArc
 50
112.6198649480404
 51
127.3801350519584
  0
ARC
  5
3C3
330
1F
100
AcDbEntity
  8
作図レイヤ
  6
Continuous
 62
     7
370
    25
100
AcDbCircle
 10
359.9622675148741
 20
199.6189512025632
 30
0.0
 40
6.499999999999991
100
AcDbArc
 50
52.61986494804103
 51
67.38013505195957
  0
ARC
  5
3C4
330
1F
100
AcDbEntity
  8
作図レイヤ
  6
Continuous
 62
     7
370
    25
100
AcDbCircle
 10
359.9622675148741
 20
199.6189512025632
 30
0.0
 40
6.500000000000007
100
AcDbArc
 50
0.0
 51
7.380135051959491
  0
ARC
  5
3C5
330
1F
100
AcDbEntity
  8
作図レイヤ
  6
Continuous
 62
     7
370
    25
100
AcDbCircle
 10
359.9622675148741
 20
199.6189512025632
 30
0.0
 40
6.5
100
AcDbArc
 50
292.6198649480405
 51
307.3801350519595
  0
ARC
  5
3C6
330
1F
100
AcDbEntity
  8
作図レイヤ
  6
Continuous
 62
     7
370
    25
100
AcDbCircle
 10
359.9622675148741
 20
199.6189512025632
 30
0.0
 40
6.499999999999971
100
AcDbArc
 50
352.6198649480405
 51
0.0
  0
ARC
  5
3C7
330
1F
100
AcDbEntity
  8
作図レイヤ
  6
Continuous
 62
     7
370
    25
100
AcDbCircle
 10
359.9622675148741
 20
199.6189512025632
 30
0.0
 40
6.499999999999859
100
AcDbArc
 50
172.6198649480401
 51
180.0
  0
CIRCLE
  5
3C8
330
1F
100
AcDbEntity
  8
作図レイヤ
  6
Continuous
 62
     7
370
    25
100
AcDbCircle
 10
359.9622675148741
 20
199.6189512025632
 30
0.0
 40
5.220231971247301
  0
CIRCLE
  5
3C9
330
1F
100
AcDbEntity
  8
作図レイヤ
  6
Continuous
 62
     7
370
    25
100
AcDbCircle
 10
359.9622675148741
 20
199.6189512025632
 30
0.0
 40
4.799999999999798
  0
CIRCLE
  5
3CA
330
1F
100
AcDbEntity
  8
作図レイヤ
  6
Continuous
 62
     7
370
    25
100
AcDbCircle
 10
359.9622675148741
 20
199.6189512025632
 30
0.0
 40
4.599999999999895
  0
CIRCLE
  5
3CB
330
1F
100
AcDbEntity
  8
作図レイヤ
  6
Continuous
 62
     7
370
    25
100
AcDbCircle
 10
359.9622675148741
 20
199.6189512025632
 30
0.0
 40
4.099999999999895
  0
LINE
  5
3CC
330
1F
100
AcDbEntity
  8
作図レイヤ
  6
Continuous
 62
     7
370
    25
100
AcDbLine
 10
356.7777844196902
 20
184.1032646858616
 30
0.0
 11
354.4864965722122
 21
180.1346377192647
 31
0.0
  0
LINE
  5
3CD
330
1F
100
AcDbEntity
  8
作図レイヤ
  6
Continuous
 62
     7
370
    25
100
AcDbLine
 10
362.2535553623512
 20
184.6189512025632
 30
0.0
 11
357.6709796673962
 21
184.6189512025632
 31
0.0
  0
LINE
  5
3CE
330
1F
100
AcDbEntity
  8
作図レイヤ
  6
Continuous
 62
     7
370
    25
100
AcDbLine
 10
363.1467506100572
 20
184.1032646858616
 30
0.0
 11
365.4380384575352
 21
180.1346377192647
 31
0.0
  0
LINE
  5
3CF
330
1F
100
AcDbEntity
  8
作図レイヤ
  6
Continuous
 62
     7
370
    25
100
AcDbLine
 10
357.6709796673962
 20
174.6189512025632
 30
0.0
 11
362.2535553623512
 21
174.6189512025632
 31
0.0
  0
LINE
  5
3D0
330
1F
100
AcDbEntity
  8
作図レイヤ
  6
Continuous
 62
     7
370
    25
100
AcDbLine
 10
354.4864965722122
 20
179.1032646858616
 30
0.0
 11
356.7777844196902
 21
175.1346377192647
 31
0.0
  0
LINE
  5
3D1
330
1F
100
AcDbEntity
  8
作図レイヤ
  6
Continuous
 62
     7
370
    25
100
AcDbLine
 10
363.1467506100572
 20
175.1346377192647
 30
0.0
 11
365.4380384575352
 21
179.1032646858616
 31
0.0
  0
ARC
  5
3D2
330
1F
100
AcDbEntity
  8
作図レイヤ
  6
Continuous
 62
     7
370
    25
100
AcDbCircle
 10
359.9622675148742
 20
179.6189512025632
 30
0.0
 40
5.50000000000087
100
AcDbArc
 50
174.6199773286574
 51
180.0
  0
ARC
  5
3D3
330
1F
100
AcDbEntity
  8
作図レイヤ
  6
Continuous
 62
     7
370
    25
100
AcDbCircle
 10
359.9622675148742
 20
179.6189512025632
 30
0.0
 40
5.499999999999824
100
AcDbArc
 50
354.6199773286564
 51
0.0
  0
ARC
  5
3D4
330
1F
100
AcDbEntity
  8
作図レイヤ
  6
Continuous
 62
     7
370
    25
100
AcDbCircle
 10
359.9622675148742
 20
179.6189512025632
 30
0.0
 40
5.499999999999823
100
AcDbArc
 50
54.61997732865815
 51
65.38002267135187
  0
ARC
  5
3D5
330
1F
100
AcDbEntity
  8
作図レイヤ
  6
Continuous
 62
     7
370
    25
100
AcDbCircle
 10
359.9622675148742
 20
179.6189512025632
 30
0.0
 40
5.500000000000035
100
AcDbArc
 50
114.6199773286576
 51
125.3800226713492
  0
ARC
  5
3D6
330
1F
100
AcDbEntity
  8
作図レイヤ
  6
Continuous
 62
     7
370
    25
100
AcDbCircle
 10
359.9622675148742
 20
179.6189512025632
 30
0.0
 40
5.5
100
AcDbArc
 50
180.0
 51
185.3800226713425
  0
ARC
  5
3D7
330
1F
100
AcDbEntity
  8
作図レイヤ
  6
Continuous
 62
     7
370
    25
100
AcDbCircle
 10
359.9622675148742
 20
179.6189512025632
 30
0.0
 40
5.500000000000427
100
AcDbArc
 50
234.6199773286508
 51
245.3800226713423
  0
ARC
  5
3D8
330
1F
100
AcDbEntity
  8
作図レイヤ
  6
Continuous
 62
     7
370
    25
100
AcDbCircle
 10
359.9622675148742
 20
179.6189512025632
 30
0.0
 40
5.499999999999608
100
AcDbArc
 50
294.6199773286485
 51
305.3800226713412
  0
ARC
  5
3D9
330
1F
100
AcDbEntity
  8
作図レイヤ
  6
Continuous
 62
     7
370
    25
100
AcDbCircle
 10
359.9622675148742
 20
179.6189512025632
 30
0.0
 40
5.5
100
AcDbArc
 50
0.0
 51
5.380022671343421
  0
CIRCLE
  5
3DA
330
1F
100
AcDbEntity
  8
作図レイヤ
  6
Continuous
 62
     7
370
    25
100
AcDbCircle
 10
359.9622675148742
 20
179.6189512025632
 30
0.0
 40
4.220231971248012
  0
CIRCLE
  5
3DB
330
1F
100
AcDbEntity
  8
作図レイヤ
  6
Continuous
 62
     7
370
    25
100
AcDbCircle
 10
359.9622675148742
 20
179.6189512025632
 30
0.0
 40
3.800000000000011
  0
CIRCLE
  5
3DC
330
1F
100
AcDbEntity
  8
作図レイヤ
  6
Continuous
 62
     7
370
    25
100
AcDbCircle
 10
359.9622675148742
 20
179.6189512025632
 30
0.0
 40
3.600000000000023
  0
CIRCLE
  5
3DD
330
1F
100
AcDbEntity
  8
作図レイヤ
  6
Continuous
 62
     7
370
    25
100
AcDbCircle
 10
359.9622675148742
 20
179.6189512025632
 30
0.0
 40
3.100000000000023
  0
LINE
  5
3DE
330
1F
100
AcDbEntity
  8
作図レイヤ
  6
DASHDOT
 62
     4
370
    13
100
AcDbLine
 10
322.4622675148742
 20
194.7252299842245
 30
0.0
 11
322.4622675148742
 21
184.480398512558
 31
0.0
  0
INSERT
  5
3E2
330
1F
100
AcDbEntity
  8
作図レイヤ
  6
Continuous
 62
     4
370
    13
100
AcDbBlockReference
  2
BLKF043
 10
0.0
 20
0.0
 30
0.0
  0
CIRCLE
  5
3F4
330
1F
100
AcDbEntity
  8
作図レイヤ
  6
Continuous
 62
     7
370
    25
100
AcDbCircle
 10
322.4622675148742
 20
189.6189512025632
 30
0.0
 40
2.6
  0
LINE
  5
3F5
330
1F
100
AcDbEntity
  8
作図レイヤ
  6
Continuous
 62
     7
370
    25
100
AcDbLine
 10
219.9622675148743
 20
231.1189512025632
 30
0.0
 11
197.9622675148744
 21
231.1189512025632
 31
0.0
  0
LINE
  5
3F6
330
1F
100
AcDbEntity
  8
作図レイヤ
  6
Continuous
 62
     7
370
    25
100
AcDbLine
 10
220.4622675148745
 20
189.6189512025632
 30
0.0
 11
220.4622675148743
 21
230.6189512025632
 31
0.0
  0
LINE
  5
3F7
330
1F
100
AcDbEntity
  8
作図レイヤ
  6
Continuous
 62
     7
370
    25
100
AcDbLine
 10
219.9622675148743
 20
231.1189512025632
 30
0.0
 11
220.4622675148743
 21
230.6189512025632
 31
0.0
  0
LINE
  5
3F8
330
1F
100
AcDbEntity
  8
作図レイヤ
  6
Continuous
 62
     7
370
    25
100
AcDbLine
 10
197.9622675148744
 20
231.1189512025632
 30
0.0
 11
197.4622675148744
 21
230.6189512025632
 31
0.0
  0
LINE
  5
3FE
330
1F
100
AcDbEntity
  8
作図レイヤ
  6
Continuous
 62
     7
370
    25
100
AcDbLine
 10
197.4622675148745
 20
189.6189512025632
 30
0.0
 11
197.4622675148744
 21
148.6189512025632
 31
0.0
  0
LINE
  5
3FF
330
1F
100
AcDbEntity
  8
作図レイヤ
  6
Continuous
 62
     7
370
    25
100
AcDbLine
 10
219.9622675148743
 20
148.1189512025631
 30
0.0
 11
197.9622675148744
 21
148.1189512025632
 31
0.0
  0
LINE
  5
400
330
1F
100
AcDbEntity
  8
作図レイヤ
  6
Continuous
 62
     7
370
    25
100
AcDbLine
 10
220.4622675148745
 20
189.6189512025631
 30
0.0
 11
220.4622675148743
 21
148.6189512025631
 31
0.0
  0
LINE
  5
401
330
1F
100
AcDbEntity
  8
作図レイヤ
  6
Continuous
 62
     7
370
    25
100
AcDbLine
 10
219.9622675148743
 20
148.1189512025631
 30
0.0
 11
220.4622675148743
 21
148.6189512025631
 31
0.0
  0
LINE
  5
402
330
1F
100
AcDbEntity
  8
作図レイヤ
  6
Continuous
 62
     7
370
    25
100
AcDbLine
 10
197.9622675148744
 20
148.1189512025632
 30
0.0
 11
197.4622675148744
 21
148.6189512025632
 31
0.0
  0
LINE
  5
409
330
1F
100
AcDbEntity
  8
作図レイヤ
  6
Continuous
 62
     7
370
    25
100
AcDbLine
 10
197.4622675148744
 20
230.1860252898079
 30
0.0
 11
220.4622675148743
 21
230.1860252898079
 31
0.0
  0
LINE
  5
40A
330
1F
100
AcDbEntity
  8
作図レイヤ
  6
Continuous
 62
     7
370
    25
100
AcDbLine
 10
197.4622675148744
 20
154.7477596542378
 30
0.0
 11
220.4622675148743
 21
154.7477596542378
 31
0.0
  0
LINE
  5
40B
330
1F
100
AcDbEntity
  8
作図レイヤ
  6
Continuous
 62
     7
370
    25
100
AcDbLine
 10
197.4622675148744
 20
149.0518771153185
 30
0.0
 11
220.4622675148743
 21
149.0518771153185
 31
0.0
  0
LINE
  5
40C
330
1F
100
AcDbEntity
  8
作図レイヤ
  6
Continuous
 62
     7
370
    25
100
AcDbLine
 10
369.4622675148743
 20
212.1189512025632
 30
0.0
 11
369.9622675148743
 21
211.6189512025632
 31
0.0
  0
LINE
  5
40D
330
1F
100
AcDbEntity
  8
作図レイヤ
  6
Continuous
 62
     7
370
    25
100
AcDbLine
 10
194.3622675148743
 20
212.1189512025631
 30
0.0
 11
194.0622675148743
 21
211.8189512025631
 31
0.0
  0
LINE
  5
40E
330
1F
100
AcDbEntity
  8
作図レイヤ
  6
Continuous
 62
     7
370
    25
100
AcDbLine
 10
194.0622675148743
 20
167.4189512025633
 30
0.0
 11
194.3622675148743
 21
167.1189512025633
 31
0.0
  0
LINE
  5
40F
330
1F
100
AcDbEntity
  8
作図レイヤ
  6
Continuous
 62
     7
370
    25
100
AcDbLine
 10
196.4622675148757
 20
189.6189512025632
 30
0.0
 11
196.4622675148744
 21
212.1189512025631
 31
0.0
  0
LINE
  5
410
330
1F
100
AcDbEntity
  8
作図レイヤ
  6
Continuous
 62
     7
370
    25
100
AcDbLine
 10
196.4622675148757
 20
189.6189512025632
 30
0.0
 11
196.4622675148744
 21
167.1189512025632
 31
0.0
  0
LINE
  5
411
330
1F
100
AcDbEntity
  8
作図レイヤ
  6
Continuous
 62
     7
370
    25
100
AcDbLine
 10
196.4622675148744
 20
212.1189512025631
 30
0.0
 11
197.4622675148744
 21
212.1189512025631
 31
0.0
  0
LINE
  5
412
330
1F
100
AcDbEntity
  8
作図レイヤ
  6
Continuous
 62
     7
370
    25
100
AcDbLine
 10
196.4622675148744
 20
167.1189512025633
 30
0.0
 11
197.4622675148744
 21
167.1189512025633
 31
0.0
  0
DIMENSION
  5
5DB
330
1F
100
AcDbEntity
  8
0
100
AcDbDimension
  2
*D44
 10
336.9622675148744
 20
138.545331731381
 30
0.0
 11
353.4622675148744
 21
141.545331731381
 31
0.0
 70
    33
 71
     5
 42
32.99999999999994
  3
FX_DIMINFO
100
AcDbAlignedDimension
 13
369.9622675148743
 23
169.1189512025632
 33
0.0
 14
336.9622675148744
 24
169.1189512025632
 34
0.0
  0
ENDSEC
  0
SECTION
  2
OBJECTS
  0
DICTIONARY
  5
C
330
0
100
AcDbDictionary
281
     1
  3
ACAD_DETAILVIEWSTYLE
350
49E
  3
ACAD_GROUP
350
D
  3
ACAD_LAYOUT
350
1A
  3
ACAD_MLINESTYLE
350
17
  3
ACAD_PLOTSETTINGS
350
19
  3
ACAD_PLOTSTYLENAME
350
E
  3
ACAD_SCALELIST
350
47
  3
ACAD_SECTIONVIEWSTYLE
350
49F
  3
AcDbVariableDictionary
350
44F
  3
APPDATA
350
495
  3
DWGPROPS
350
627
  0
DICTIONARY
  5
49E
102
{ACAD_REACTORS
330
C
102
}
330
C
100
AcDbDictionary
281
     1
  0
DICTIONARY
  5
D
102
{ACAD_REACTORS
330
C
102
}
330
C
100
AcDbDictionary
281
     1
  0
DICTIONARY
  5
1A
102
{ACAD_REACTORS
330
C
102
}
330
C
100
AcDbDictionary
281
     1
  3
Layout1
350
1E
  3
Layout2
350
26
  3
Model
350
22
  0
DICTIONARY
  5
17
102
{ACAD_REACTORS
330
C
102
}
330
C
100
AcDbDictionary
281
     1
  3
Standard
350
18
  0
DICTIONARY
  5
19
102
{ACAD_REACTORS
330
C
102
}
330
C
100
AcDbDictionary
281
     1
  0
ACDBDICTIONARYWDFLT
  5
E
102
{ACAD_REACTORS
330
C
102
}
330
C
100
AcDbDictionary
281
     1
  3
Normal
350
F
100
AcDbDictionaryWithDefault
340
F
  0
DICTIONARY
  5
47
102
{ACAD_REACTORS
330
C
102
}
330
C
100
AcDbDictionary
281
     1
  3
A0
350
48
  3
A1
350
49
  3
A2
350
4A
  3
A3
350
4B
  3
A4
350
4C
  3
A5
350
4D
  3
A6
350
4E
  3
A7
350
4F
  3
A8
350
50
  3
A9
350
51
  3
B0
350
52
  3
B1
350
53
  3
B2
350
54
  3
B3
350
55
  3
B4
350
56
  3
B5
350
57
  3
B6
350
58
  3
B7
350
59
  3
B8
350
5A
  3
B9
350
5B
  3
C0
350
5C
  3
C1
350
5D
  3
C2
350
5E
  3
C3
350
5F
  3
C4
350
60
  3
C5
350
61
  3
C6
350
62
  3
C7
350
63
  3
C8
350
64
  3
C9
350
65
  3
D0
350
66
  3
D1
350
67
  3
D2
350
68
  0
DICTIONARY
  5
49F
102
{ACAD_REACTORS
330
C
102
}
330
C
100
AcDbDictionary
281
     1
  0
DICTIONARY
  5
44F
102
{ACAD_REACTORS
330
C
102
}
330
C
100
AcDbDictionary
281
     1
  3
DIMASSOC
350
456
  3
HIDETEXT
350
457
  0
DICTIONARY
  5
495
102
{ACAD_REACTORS
330
C
102
}
330
C
100
AcDbDictionary
281
     1
  0
XRECORD
  5
627
102
{ACAD_REACTORS
330
C
102
}
330
C
100
AcDbXrecord
280
     1
  1
DWGPROPS COOKIE
  2

  3

  4

  6

  7

  8
lexus
  9

300
=
301
=
302
=
303
=
304
=
305
=
306
=
307
=
308
=
309
=
 40
0.0
 41
2458388.086360116
 42
2459209.06136022
  1

 90
        0
  0
LAYOUT
  5
1E
102
{ACAD_REACTORS
330
1A
102
}
330
1A
100
AcDbPlotSettings
  1

  2
none_device
  4

  6

 40
0.0
 41
0.0
 42
0.0
 43
0.0
 44
0.0
 45
0.0
 46
0.0
 47
0.0
 48
0.0
 49
0.0
140
0.0
141
0.0
142
1.0
143
1.0
 70
   688
 72
     1
 73
     0
 74
     5
  7

 75
    16
147
1.0
148
0.0
149
0.0
100
AcDbLayout
  1
Layout1
 70
     1
 71
     1
 10
0.0
 20
0.0
 11
420.0
 21
297.0
 12
0.0
 22
0.0
 32
0.0
 14
1.000000000000000E+20
 24
1.000000000000000E+20
 34
1.000000000000000E+20
 15
-1.000000000000000E+20
 25
-1.000000000000000E+20
 35
-1.000000000000000E+20
146
0.0
 13
0.0
 23
0.0
 33
0.0
 16
1.0
 26
0.0
 36
0.0
 17
0.0
 27
1.0
 37
0.0
 76
     0
330
1B
  0
LAYOUT
  5
26
102
{ACAD_REACTORS
330
1A
102
}
330
1A
100
AcDbPlotSettings
  1

  2
none_device
  4

  6

 40
0.0
 41
0.0
 42
0.0
 43
0.0
 44
0.0
 45
0.0
 46
0.0
 47
0.0
 48
0.0
 49
0.0
140
0.0
141
0.0
142
1.0
143
1.0
 70
   688
 72
     1
 73
     0
 74
     5
  7

 75
    16
147
1.0
148
0.0
149
0.0
100
AcDbLayout
  1
Layout2
 70
     1
 71
     2
 10
0.0
 20
0.0
 11
0.0
 21
0.0
 12
0.0
 22
0.0
 32
0.0
 14
0.0
 24
0.0
 34
0.0
 15
0.0
 25
0.0
 35
0.0
146
0.0
 13
0.0
 23
0.0
 33
0.0
 16
1.0
 26
0.0
 36
0.0
 17
0.0
 27
1.0
 37
0.0
 76
     0
330
23
  0
LAYOUT
  5
22
102
{ACAD_REACTORS
330
1A
102
}
330
1A
100
AcDbPlotSettings
  1

  2
PDF reDirect v2
  4
A4
  6

 40
0.0
 41
0.0400000000000205
 42
0.0
 43
0.0
 44
210.0
 45
297.0
 46
1.117755365916767
 47
-0.0000000000000275
 48
5.95792981740027
 49
4.517854116571527
140
415.5106184243908
141
291.0564626053774
142
1.0
143
1.379151025750911
 70
  1716
 72
     1
 73
     1
 74
     4
  7
monochrome.ctb
 75
     0
147
0.7250837517635363
148
-254.159611011232
149
-143.4943420465562
100
AcDbLayout
  1
Model
 70
     1
 71
     0
 10
0.0
 20
0.0
 11
420.0
 21
297.0
 12
0.0
 22
0.0
 32
0.0
 14
50.92753886864676
 24
102.8035455586796
 34
0.0
 15
378.4618231420593
 25
239.4189512025632
 35
0.0
146
0.0
 13
0.0
 23
0.0
 33
0.0
 16
1.0
 26
0.0
 36
0.0
 17
0.0
 27
1.0
 37
0.0
 76
     0
330
1F
331
29
1001
PLOTTRANSPARENCY
1071
        0
  0
MLINESTYLE
  5
18
102
{ACAD_REACTORS
330
17
102
}
330
17
100
AcDbMlineStyle
  2
Standard
 70
     0
  3

 62
   256
 51
90.0
 52
90.0
 71
     2
 49
0.5
 62
   256
  6
BYLAYER
 49
-0.5
 62
   256
  6
BYLAYER
  0
ACDBPLACEHOLDER
  5
F
102
{ACAD_REACTORS
330
E
102
}
330
E
  0
SCALE
  5
48
102
{ACAD_REACTORS
330
47
102
}
330
47
100
AcDbScale
 70
     0
300
1:1
140
1.0
141
1.0
290
     1
  0
SCALE
  5
49
102
{ACAD_REACTORS
330
47
102
}
330
47
100
AcDbScale
 70
     0
300
1:2
140
1.0
141
2.0
290
     0
  0
SCALE
  5
4A
102
{ACAD_REACTORS
330
47
102
}
330
47
100
AcDbScale
 70
     0
300
1:4
140
1.0
141
4.0
290
     0
  0
SCALE
  5
4B
102
{ACAD_REACTORS
330
47
102
}
330
47
100
AcDbScale
 70
     0
300
1:5
140
1.0
141
5.0
290
     0
  0
SCALE
  5
4C
102
{ACAD_REACTORS
330
47
102
}
330
47
100
AcDbScale
 70
     0
300
1:8
140
1.0
141
8.0
290
     0
  0
SCALE
  5
4D
102
{ACAD_REACTORS
330
47
102
}
330
47
100
AcDbScale
 70
     0
300
1:10
140
1.0
141
10.0
290
     0
  0
SCALE
  5
4E
102
{ACAD_REACTORS
330
47
102
}
330
47
100
AcDbScale
 70
     0
300
1:16
140
1.0
141
16.0
290
     0
  0
SCALE
  5
4F
102
{ACAD_REACTORS
330
47
102
}
330
47
100
AcDbScale
 70
     0
300
1:20
140
1.0
141
20.0
290
     0
  0
SCALE
  5
50
102
{ACAD_REACTORS
330
47
102
}
330
47
100
AcDbScale
 70
     0
300
1:30
140
1.0
141
30.0
290
     0
  0
SCALE
  5
51
102
{ACAD_REACTORS
330
47
102
}
330
47
100
AcDbScale
 70
     0
300
1:40
140
1.0
141
40.0
290
     0
  0
SCALE
  5
52
102
{ACAD_REACTORS
330
47
102
}
330
47
100
AcDbScale
 70
     0
300
1:50
140
1.0
141
50.0
290
     0
  0
SCALE
  5
53
102
{ACAD_REACTORS
330
47
102
}
330
47
100
AcDbScale
 70
     0
300
1:100
140
1.0
141
100.0
290
     0
  0
SCALE
  5
54
102
{ACAD_REACTORS
330
47
102
}
330
47
100
AcDbScale
 70
     0
300
2:1
140
2.0
141
1.0
290
     0
  0
SCALE
  5
55
102
{ACAD_REACTORS
330
47
102
}
330
47
100
AcDbScale
 70
     0
300
4:1
140
4.0
141
1.0
290
     0
  0
SCALE
  5
56
102
{ACAD_REACTORS
330
47
102
}
330
47
100
AcDbScale
 70
     0
300
8:1
140
8.0
141
1.0
290
     0
  0
SCALE
  5
57
102
{ACAD_REACTORS
330
47
102
}
330
47
100
AcDbScale
 70
     0
300
10:1
140
10.0
141
1.0
290
     0
  0
SCALE
  5
58
102
{ACAD_REACTORS
330
47
102
}
330
47
100
AcDbScale
 70
     0
300
100:1
140
100.0
141
1.0
290
     0
  0
SCALE
  5
59
102
{ACAD_REACTORS
330
47
102
}
330
47
100
AcDbScale
 70
     0
300
1/128" = 1'-0"
140
0.0078125
141
12.0
290
     0
  0
SCALE
  5
5A
102
{ACAD_REACTORS
330
47
102
}
330
47
100
AcDbScale
 70
     0
300
1/64" = 1'-0"
140
0.015625
141
12.0
290
     0
  0
SCALE
  5
5B
102
{ACAD_REACTORS
330
47
102
}
330
47
100
AcDbScale
 70
     0
300
1/32" = 1'-0"
140
0.03125
141
12.0
290
     0
  0
SCALE
  5
5C
102
{ACAD_REACTORS
330
47
102
}
330
47
100
AcDbScale
 70
     0
300
1/16" = 1'-0"
140
0.0625
141
12.0
290
     0
  0
SCALE
  5
5D
102
{ACAD_REACTORS
330
47
102
}
330
47
100
AcDbScale
 70
     0
300
3/32" = 1'-0"
140
0.09375
141
12.0
290
     0
  0
SCALE
  5
5E
102
{ACAD_REACTORS
330
47
102
}
330
47
100
AcDbScale
 70
     0
300
1/8" = 1'-0"
140
0.125
141
12.0
290
     0
  0
SCALE
  5
5F
102
{ACAD_REACTORS
330
47
102
}
330
47
100
AcDbScale
 70
     0
300
3/16" = 1'-0"
140
0.1875
141
12.0
290
     0
  0
SCALE
  5
60
102
{ACAD_REACTORS
330
47
102
}
330
47
100
AcDbScale
 70
     0
300
1/4" = 1'-0"
140
0.25
141
12.0
290
     0
  0
SCALE
  5
61
102
{ACAD_REACTORS
330
47
102
}
330
47
100
AcDbScale
 70
     0
300
3/8" = 1'-0"
140
0.375
141
12.0
290
     0
  0
SCALE
  5
62
102
{ACAD_REACTORS
330
47
102
}
330
47
100
AcDbScale
 70
     0
300
1/2" = 1'-0"
140
0.5
141
12.0
290
     0
  0
SCALE
  5
63
102
{ACAD_REACTORS
330
47
102
}
330
47
100
AcDbScale
 70
     0
300
3/4" = 1'-0"
140
0.75
141
12.0
290
     0
  0
SCALE
  5
64
102
{ACAD_REACTORS
330
47
102
}
330
47
100
AcDbScale
 70
     0
300
1" = 1'-0"
140
1.0
141
12.0
290
     0
  0
SCALE
  5
65
102
{ACAD_REACTORS
330
47
102
}
330
47
100
AcDbScale
 70
     0
300
1-1/2" = 1'-0"
140
1.5
141
12.0
290
     0
  0
SCALE
  5
66
102
{ACAD_REACTORS
330
47
102
}
330
47
100
AcDbScale
 70
     0
300
3" = 1'-0"
140
3.0
141
12.0
290
     0
  0
SCALE
  5
67
102
{ACAD_REACTORS
330
47
102
}
330
47
100
AcDbScale
 70
     0
300
6" = 1'-0"
140
6.0
141
12.0
290
     0
  0
SCALE
  5
68
102
{ACAD_REACTORS
330
47
102
}
330
47
100
AcDbScale
 70
     0
300
1'-0" = 1'-0"
140
12.0
141
12.0
290
     0
  0
DICTIONARYVAR
  5
456
102
{ACAD_REACTORS
330
44F
102
}
330
44F
100
DictionaryVariables
280
     0
  1
2
  0
DICTIONARYVAR
  5
457
102
{ACAD_REACTORS
330
44F
102
}
330
44F
100
DictionaryVariables
280
     0
  1
1
  0
ENDSEC
  0
EOF
