  0
SECTION
  2
HEADER
  9
$ACADVER
  1
AC1015
  9
$ACADMAINTVER
 70
    20
  9
$DWGCODEPAGE
  3
ANSI_932
  9
$INSBASE
 10
0.0
 20
0.0
 30
0.0
  9
$EXTMIN
 10
-399.4893685089447
 20
7.965972049108472
 30
0.0
  9
$EXTMAX
 10
407.5437348118811
 20
284.9659720491086
 30
0.0
  9
$LIMMIN
 10
0.0
 20
0.0
  9
$LIMMAX
 10
420.0
 20
297.0
  9
$ORTHOMODE
 70
     0
  9
$REGENMODE
 70
     1
  9
$FILLMODE
 70
     1
  9
$QTEXTMODE
 70
     0
  9
$MIRRTEXT
 70
     1
  9
$LTSCALE
 40
1.0
  9
$ATTMODE
 70
     1
  9
$TEXTSIZE
 40
2.5
  9
$TRACEWID
 40
1.0
  9
$TEXTSTYLE
  7
ＭＳ 明朝
  9
$CLAYER
  8
0
  9
$CELTYPE
  6
ByLayer
  9
$CECOLOR
 62
   256
  9
$CELTSCALE
 40
1.0
  9
$DISPSILH
 70
     0
  9
$DIMSCALE
 40
1.0
  9
$DIMASZ
 40
2.0
  9
$DIMEXO
 40
1.0
  9
$DIMDLI
 40
9.0
  9
$DIMRND
 40
0.0
  9
$DIMDLE
 40
6.0
  9
$DIMEXE
 40
1.0
  9
$DIMTP
 40
0.0
  9
$DIMTM
 40
0.0
  9
$DIMTXT
 40
4.0
  9
$DIMCEN
 40
2.5
  9
$DIMTSZ
 40
0.0
  9
$DIMTOL
 70
     0
  9
$DIMLIM
 70
     0
  9
$DIMTIH
 70
     0
  9
$DIMTOH
 70
     0
  9
$DIMSE1
 70
     0
  9
$DIMSE2
 70
     0
  9
$DIMTAD
 70
     1
  9
$DIMZIN
 70
     8
  9
$DIMBLK
  1

  9
$DIMASO
 70
     1
  9
$DIMSHO
 70
     1
  9
$DIMPOST
  1

  9
$DIMAPOST
  1

  9
$DIMALT
 70
     0
  9
$DIMALTD
 70
     3
  9
$DIMALTF
 40
0.03937
  9
$DIMLFAC
 40
1.0
  9
$DIMTOFL
 70
     1
  9
$DIMTVP
 40
0.0
  9
$DIMTIX
 70
     0
  9
$DIMSOXD
 70
     0
  9
$DIMSAH
 70
     1
  9
$DIMBLK1
  1
FXTIP_ARROW_S
  9
$DIMBLK2
  1
FXTIP_ARROW_E
  9
$DIMSTYLE
  2
FX_DIMINFO
  9
$DIMCLRD
 70
     4
  9
$DIMCLRE
 70
     4
  9
$DIMCLRT
 70
     7
  9
$DIMTFAC
 40
1.0
  9
$DIMGAP
 40
1.0
  9
$DIMJUST
 70
     0
  9
$DIMSD1
 70
     0
  9
$DIMSD2
 70
     0
  9
$DIMTOLJ
 70
     1
  9
$DIMTZIN
 70
     8
  9
$DIMALTZ
 70
     0
  9
$DIMALTTZ
 70
     0
  9
$DIMUPT
 70
     0
  9
$DIMDEC
 70
     2
  9
$DIMTDEC
 70
     2
  9
$DIMALTU
 70
     2
  9
$DIMALTTD
 70
     3
  9
$DIMTXSTY
  7
ＭＳ 明朝
  9
$DIMAUNIT
 70
     0
  9
$DIMADEC
 70
     2
  9
$DIMALTRND
 40
0.0
  9
$DIMAZIN
 70
     2
  9
$DIMDSEP
 70
    46
  9
$DIMATFIT
 70
     3
  9
$DIMFRAC
 70
     0
  9
$DIMLDRBLK
  1
FXTIP_ARROW_S
  9
$DIMLUNIT
 70
     2
  9
$DIMLWD
 70
    -2
  9
$DIMLWE
 70
    -2
  9
$DIMTMOVE
 70
     0
  9
$LUNITS
 70
     2
  9
$LUPREC
 70
     2
  9
$SKETCHINC
 40
1.0
  9
$FILLETRAD
 40
10.0
  9
$AUNITS
 70
     0
  9
$AUPREC
 70
     0
  9
$MENU
  1
.
  9
$ELEVATION
 40
0.0
  9
$PELEVATION
 40
0.0
  9
$THICKNESS
 40
0.0
  9
$LIMCHECK
 70
     0
  9
$CHAMFERA
 40
0.0
  9
$CHAMFERB
 40
0.0
  9
$CHAMFERC
 40
0.0
  9
$CHAMFERD
 40
0.0
  9
$SKPOLY
 70
     0
  9
$TDCREATE
 40
2457735.380636574
  9
$TDUCREATE
 40
2457735.005647581
  9
$TDUPDATE
 40
2459212.442569445
  9
$TDUUPDATE
 40
2459212.067569445
  9
$TDINDWG
 40
0.0080208449
  9
$TDUSRTIMER
 40
0.0080208449
  9
$USRTIMER
 70
     1
  9
$ANGBASE
 50
0.0
  9
$ANGDIR
 70
     0
  9
$PDMODE
 70
     0
  9
$PDSIZE
 40
0.0
  9
$PLINEWID
 40
0.0
  9
$SPLFRAME
 70
     0
  9
$SPLINETYPE
 70
     6
  9
$SPLINESEGS
 70
     8
  9
$HANDSEED
  5
7C0
  9
$SURFTAB1
 70
     6
  9
$SURFTAB2
 70
     6
  9
$SURFTYPE
 70
     6
  9
$SURFU
 70
     6
  9
$SURFV
 70
     6
  9
$UCSBASE
  2

  9
$UCSNAME
  2

  9
$UCSORG
 10
0.0
 20
0.0
 30
0.0
  9
$UCSXDIR
 10
1.0
 20
0.0
 30
0.0
  9
$UCSYDIR
 10
0.0
 20
1.0
 30
0.0
  9
$UCSORTHOREF
  2

  9
$UCSORTHOVIEW
 70
     0
  9
$UCSORGTOP
 10
0.0
 20
0.0
 30
0.0
  9
$UCSORGBOTTOM
 10
0.0
 20
0.0
 30
0.0
  9
$UCSORGLEFT
 10
0.0
 20
0.0
 30
0.0
  9
$UCSORGRIGHT
 10
0.0
 20
0.0
 30
0.0
  9
$UCSORGFRONT
 10
0.0
 20
0.0
 30
0.0
  9
$UCSORGBACK
 10
0.0
 20
0.0
 30
0.0
  9
$PUCSBASE
  2

  9
$PUCSNAME
  2

  9
$PUCSORG
 10
0.0
 20
0.0
 30
0.0
  9
$PUCSXDIR
 10
1.0
 20
0.0
 30
0.0
  9
$PUCSYDIR
 10
0.0
 20
1.0
 30
0.0
  9
$PUCSORTHOREF
  2

  9
$PUCSORTHOVIEW
 70
     0
  9
$PUCSORGTOP
 10
0.0
 20
0.0
 30
0.0
  9
$PUCSORGBOTTOM
 10
0.0
 20
0.0
 30
0.0
  9
$PUCSORGLEFT
 10
0.0
 20
0.0
 30
0.0
  9
$PUCSORGRIGHT
 10
0.0
 20
0.0
 30
0.0
  9
$PUCSORGFRONT
 10
0.0
 20
0.0
 30
0.0
  9
$PUCSORGBACK
 10
0.0
 20
0.0
 30
0.0
  9
$USERI1
 70
     0
  9
$USERI2
 70
     0
  9
$USERI3
 70
     0
  9
$USERI4
 70
     0
  9
$USERI5
 70
     0
  9
$USERR1
 40
0.0
  9
$USERR2
 40
0.0
  9
$USERR3
 40
0.0
  9
$USERR4
 40
0.0
  9
$USERR5
 40
0.0
  9
$WORLDVIEW
 70
     1
  9
$SHADEDGE
 70
     3
  9
$SHADEDIF
 70
    70
  9
$TILEMODE
 70
     1
  9
$MAXACTVP
 70
    64
  9
$PINSBASE
 10
0.0
 20
0.0
 30
0.0
  9
$PLIMCHECK
 70
     0
  9
$PEXTMIN
 10
1.000000000000000E+20
 20
1.000000000000000E+20
 30
1.000000000000000E+20
  9
$PEXTMAX
 10
-1.000000000000000E+20
 20
-1.000000000000000E+20
 30
-1.000000000000000E+20
  9
$PLIMMIN
 10
0.0
 20
0.0
  9
$PLIMMAX
 10
420.0
 20
297.0
  9
$UNITMODE
 70
     0
  9
$VISRETAIN
 70
     1
  9
$PLINEGEN
 70
     0
  9
$PSLTSCALE
 70
     1
  9
$TREEDEPTH
 70
  3020
  9
$CMLSTYLE
  2
Standard
  9
$CMLJUST
 70
     0
  9
$CMLSCALE
 40
20.0
  9
$PROXYGRAPHICS
 70
     1
  9
$MEASUREMENT
 70
     1
  9
$CELWEIGHT
370
    -1
  9
$ENDCAPS
280
     0
  9
$JOINSTYLE
280
     0
  9
$LWDISPLAY
290
     0
  9
$INSUNITS
 70
     4
  9
$HYPERLINKBASE
  1

  9
$STYLESHEET
  1

  9
$XEDIT
290
     1
  9
$CEPSNTYPE
380
     0
  9
$PSTYLEMODE
290
     1
  9
$FINGERPRINTGUID
  2
{FE20F6C7-86A4-45E6-BE59-DC6C65BC6529}
  9
$VERSIONGUID
  2
{8D2592BA-65CB-E84F-8527-DA04B278054E}
  9
$EXTNAMES
290
     1
  9
$PSVPSCALE
 40
0.0
  9
$OLESTARTUP
290
     0
  0
ENDSEC
  0
SECTION
  2
CLASSES
  0
CLASS
  1
ACDBDICTIONARYWDFLT
  2
AcDbDictionaryWithDefault
  3
ObjectDBX Classes
 90
        0
280
     0
281
     0
  0
CLASS
  1
VISUALSTYLE
  2
AcDbVisualStyle
  3
ObjectDBX Classes
 90
     4095
280
     0
281
     0
  0
CLASS
  1
MATERIAL
  2
AcDbMaterial
  3
ObjectDBX Classes
 90
     1153
280
     0
281
     0
  0
CLASS
  1
SCALE
  2
AcDbScale
  3
ObjectDBX Classes
 90
     1153
280
     0
281
     0
  0
CLASS
  1
TABLESTYLE
  2
AcDbTableStyle
  3
ObjectDBX Classes
 90
     4095
280
     0
281
     0
  0
CLASS
  1
MLEADERSTYLE
  2
AcDbMLeaderStyle
  3
ACDB_MLEADERSTYLE_CLASS
 90
     4095
280
     0
281
     0
  0
CLASS
  1
SUN
  2
AcDbSun
  3
SCENEOE
 90
    33921
280
     0
281
     0
  0
CLASS
  1
DICTIONARYVAR
  2
AcDbDictionaryVar
  3
ObjectDBX Classes
 90
        0
280
     0
281
     0
  0
CLASS
  1
ACDBPLACEHOLDER
  2
AcDbPlaceHolder
  3
ObjectDBX Classes
 90
        0
280
     0
281
     0
  0
CLASS
  1
LAYOUT
  2
AcDbLayout
  3
ObjectDBX Classes
 90
        0
280
     0
281
     0
  0
CLASS
  1
ACDBSECTIONVIEWSTYLE
  2
AcDbSectionViewStyle
  3
ObjectDBX Classes
 90
     1025
280
     0
281
     0
  0
CLASS
  1
ACDBDETAILVIEWSTYLE
  2
AcDbDetailViewStyle
  3
ObjectDBX Classes
 90
     1025
280
     0
281
     0
  0
CLASS
  1
AMGSETTINGSOBJ
  2
AmgSettingsObj
  3
"AcadM|Product Description: AutoCAD Mechanical|Company: Autodesk, Inc."
 90
     1024
280
     0
281
     0
  0
CLASS
  1
ACME_DOCUMENT
  2
AcMeDbDoc
  3
AcMeServices
 90
     1024
280
     0
281
     0
  0
CLASS
  1
ACMESCOPE
  2
AcMeScope
  3
AcMeServices
 90
     1024
280
     0
281
     0
  0
CLASS
  1
ACMECOMMANDHISTORY
  2
AcMeCommandHistory
  3
AcMeServices
 90
     1024
280
     0
281
     0
  0
CLASS
  1
ACIMSYSVARMAN
  2
AcImSysVarManager
  3
AcMeServices
 90
     1024
280
     0
281
     0
  0
CLASS
  1
ACIMINTSYSVAR
  2
AcImIntSysVar
  3
AcMeServices
 90
     1024
280
     0
281
     0
  0
CLASS
  1
ACMESTATEMGR
  2
AcMeStateMgr
  3
AcMeServices
 90
     1024
280
     0
281
     0
  0
CLASS
  1
ACDBENTITYCACHE
  2
AcMeEntityCache
  3
AcMeServices
 90
     1024
280
     0
281
     0
  0
CLASS
  1
ACGREFMASTER
  2
AcGrefMaster
  3
AcAttribServices
 90
     1024
280
     0
281
     0
  0
CLASS
  1
ACME_DATABASE
  2
AcMeDbDatabase
  3
AcMeServices
 90
     1024
280
     0
281
     0
  0
CLASS
  1
ACRFINSADJUSTERMGR
  2
AcRfInsAdjusterMgr
  3
AcMeServices
 90
     1024
280
     0
281
     0
  0
CLASS
  1
ACGREFACADMASTER
  2
AcGrefacadMaster
  3
AcGrefServices
 90
     1024
280
     0
281
     0
  0
CLASS
  1
AMIMASTER
  2
AmiMaster
  3
AmiServices
 90
     1024
280
     0
281
     0
  0
CLASS
  1
AMDTMENUSTATEMGR
  2
AmdtMenuStateMgr
  3
McadcomServices
 90
     1024
280
     0
281
     0
  0
CLASS
  1
AMDTMCOMMENUSTATE
  2
AmdtMcomMenuState
  3
McadcomServices
 90
     1024
280
     0
281
     0
  0
CLASS
  1
MAPIAMMOUDLE
  2
MApiAmModule
  3
MApiAmServices
 90
     1024
280
     0
281
     0
  0
CLASS
  1
ACIMSTRSYSVAR
  2
AcImStrSysVar
  3
AcMeServices
 90
     1024
280
     0
281
     0
  0
CLASS
  1
AMDTAMMENUSTATE
  2
AmdtAmMenuState
  3
DesignerAssemblies_arx
 90
     1024
280
     0
281
     0
  0
CLASS
  1
ACAMPROJECT
  2
AcAmProject
  3
DesignerAssemblies
 90
     1024
280
     0
281
     0
  0
CLASS
  1
ACAMGRCOMPDEF
  2
AcAmGrCompDef
  3
DesignerAssemblies
 90
     1024
280
     0
281
     0
  0
CLASS
  1
ACAMCOMPDEF
  2
AcAmCompDef
  3
DesignerAssemblies
 90
     1024
280
     0
281
     0
  0
CLASS
  1
ACAMCOMPDEFMGR
  2
AcAmCompDefMgr
  3
DesignerAssemblies
 90
     1024
280
     0
281
     0
  0
CLASS
  1
AMCONTEXTMGR
  2
AcAmContextMgr
  3
DesignerAssemblies
 90
     1024
280
     0
281
     0
  0
CLASS
  1
ACAMCONTEXTMODELER
  2
AcAmContextModeler
  3
DesignerAssemblies
 90
     1024
280
     0
281
     0
  0
CLASS
  1
ACMDATADICTIONARY
  2
AcmDataDictionary
  3
"AcmSymBB|Product Description: AutoCAD Mechanical|Company: Autodesk, Inc."
 90
     1024
280
     0
281
     0
  0
CLASS
  1
ACAMGRCOMPDEFSET
  2
AcAmGrCompDefSet
  3
DesignerAssemblies
 90
     1024
280
     0
281
     0
  0
CLASS
  1
AMDTBROWSERDBTAB
  2
AmdtBrowserDbTab
  3
McadcomServices
 90
     1024
280
     0
281
     0
  0
CLASS
  1
CBROWSERAPPOBJECT
  2
CBrowserAppObject
  3
McadcomServices
 90
     1024
280
     0
281
     0
  0
CLASS
  1
DM_PLACEHOLDER
  2
AcDmSelsetPlaceholder
  3
McadcomServices
 90
     1024
280
     0
281
     0
  0
CLASS
  1
ACMSTANDARDISO
  2
AcmStandardISO
  3
"Amdt_StdImp|Product Description: AutoCAD Mechanical|Company: Autodesk, Inc."
 90
     1024
280
     0
281
     0
  0
CLASS
  1
AMDTEDGESTANDARDISO13715
  2
AmdtEdgeStdISO13715
  3
"Amdt_StdImp|Product Description: AutoCAD Mechanical|Company: Autodesk, Inc."
 90
     1024
280
     0
281
     0
  0
CLASS
  1
ACMSURFSTANDARDISO2002
  2
AcmSurfTextStdISO2002
  3
"Amdt_StdImp|Product Description: AutoCAD Mechanical|Company: Autodesk, Inc."
 90
     1024
280
     0
281
     0
  0
CLASS
  1
ACMFCFSTANDARDISO2012
  2
AcmFCFStdISO2012
  3
"Amdt_StdImp|Product Description: AutoCAD Mechanical|Company: Autodesk, Inc."
 90
     1024
280
     0
281
     0
  0
CLASS
  1
ACMWELDSTANDARDISO
  2
AcmWeldingStdISO
  3
"Amdt_StdImp|Product Description: AutoCAD Mechanical|Company: Autodesk, Inc."
 90
     1024
280
     0
281
     0
  0
CLASS
  1
ACMIDSTANDARDISO2012
  2
AcmIdStdISO2012
  3
"Amdt_StdImp|Product Description: AutoCAD Mechanical|Company: Autodesk, Inc."
 90
     1024
280
     0
281
     0
  0
CLASS
  1
ACMDATUMSTANDARDISO2012
  2
AcmDatumStdISO2012
  3
"Amdt_StdImp|Product Description: AutoCAD Mechanical|Company: Autodesk, Inc."
 90
     1024
280
     0
281
     0
  0
CLASS
  1
ACMBOMSTANDARDISO
  2
AcmBOMStdISO
  3
"Amdt_StdImp|Product Description: AutoCAD Mechanical|Company: Autodesk, Inc."
 90
     1024
280
     0
281
     0
  0
CLASS
  1
ACMDETAILSTANDARDISO
  2
AmdtDetailSymStdISO
  3
"Amdt_StdImp|Product Description: AutoCAD Mechanical|Company: Autodesk, Inc."
 90
     1024
280
     0
281
     0
  0
CLASS
  1
ACMSECTIONSTANDARDISO2001
  2
AmdtSectionSymStdISO2001
  3
"Amdt_StdImp|Product Description: AutoCAD Mechanical|Company: Autodesk, Inc."
 90
     1024
280
     0
281
     0
  0
CLASS
  1
ACMCENTERLINESTANDARDISO
  2
AmdtCenterLineStdISO
  3
"Amdt_StdImp|Product Description: AutoCAD Mechanical|Company: Autodesk, Inc."
 90
     1024
280
     0
281
     0
  0
CLASS
  1
ACMTHREADLINESTANDARDISO
  2
AmdtThreadLineStdISO
  3
"Amdt_StdImp|Product Description: AutoCAD Mechanical|Company: Autodesk, Inc."
 90
     1024
280
     0
281
     0
  0
CLASS
  1
ACMNOTESTANDARDISO
  2
AmdtNoteStdISO
  3
"Amdt_StdImp|Product Description: AutoCAD Mechanical|Company: Autodesk, Inc."
 90
     1024
280
     0
281
     0
  0
CLASS
  1
ACMTAPERSTANDARDISO
  2
AcmTaperStdISO
  3
"Amdt_StdImp|Product Description: AutoCAD Mechanical|Company: Autodesk, Inc."
 90
     1024
280
     0
281
     0
  0
CLASS
  1
ACMANOOTATIONVIEWSTANDARDISO
  2
AmdtAnViewStdISO
  3
"Amdt_StdImp|Product Description: AutoCAD Mechanical|Company: Autodesk, Inc."
 90
     1024
280
     0
281
     0
  0
CLASS
  1
ACAMGLAYSTD
  2
AcAmgLayStd
  3
"AmgLay|Product Description: AutoCAD Mechanical|Company: Autodesk, Inc."
 90
     1024
280
     0
281
     0
  0
CLASS
  1
ACAMGTITLESTD
  2
AcAmgTitleStd
  3
"AmgTitle|Product Description: AutoCAD Mechanical|Company: Autodesk, Inc."
 90
     1024
280
     0
281
     0
  0
CLASS
  1
ACAMGDIMSTD
  2
AcAmgDimStd
  3
"AmgDim|Product Description: AutoCAD Mechanical|Company: Autodesk, Inc."
 90
     1024
280
     0
281
     0
  0
CLASS
  1
AMGOBJPROPCFG
  2
AmgObjPropCfg
  3
"AmgLay|Product Description: AutoCAD Mechanical|Company: Autodesk, Inc."
 90
     1024
280
     0
281
     0
  0
CLASS
  1
ACAMGHOLECHARTSTDISO
  2
AcAmgHoleChartStdISO
  3
"AmgDim" "Product Description: AutoCAD Mechanical|Company: Autodesk, Inc."
 90
     1024
280
     0
281
     0
  0
CLASS
  1
ACMSECTIONSTANDARDCUSTOM
  2
AmdtSectionSymStdCustom
  3
"Amdt_StdImp|Product Description: AutoCAD Mechanical|Company: Autodesk, Inc."
 90
     1024
280
     0
281
     0
  0
CLASS
  1
ACMDETAILTANDARDCUSTOM
  2
AmdtDetailSymStdCustom
  3
"Amdt_StdImp|Product Description: AutoCAD Mechanical|Company: Autodesk, Inc."
 90
     1024
280
     0
281
     0
  0
CLASS
  1
FIELD
  2
AcDbField
  3
ObjectDBX Classes
 90
     1152
280
     0
281
     0
  0
CLASS
  1
FIELDLIST
  2
AcDbFieldList
  3
ObjectDBX Classes
 90
     1152
280
     0
281
     0
  0
CLASS
  1
AMDTNOTETEMPLATEDB
  2
AmdtNoteTemplateDB
  3
"AcmSymBB" "Product Description: AutoCAD Mechanical|Company: Autodesk, Inc."
 90
     1024
280
     0
281
     0
  0
CLASS
  1
ACAMGFILTERDAT
  2
AcAmgFilterDat
  3
"AcadM|Product Description: AutoCAD Mechanical|Company: Autodesk, Inc."
 90
     1024
280
     0
281
     0
  0
CLASS
  1
CAMSSTRUCTBTNSTATE
  2
StructBtnState
  3
DesignerAssemblies_arx
 90
     1024
280
     0
281
     0
  0
CLASS
  1
CELLSTYLEMAP
  2
AcDbCellStyleMap
  3
ObjectDBX Classes
 90
     1152
280
     0
281
     0
  0
ENDSEC
  0
SECTION
  2
TABLES
  0
TABLE
  2
VPORT
  5
8
330
0
100
AcDbSymbolTable
 70
     1
  0
VPORT
  5
29
330
8
100
AcDbSymbolTableRecord
100
AcDbViewportTableRecord
  2
*Active
 70
     0
 10
0.0
 20
0.0
 11
1.0
 21
1.0
 12
-53.71853695692994
 22
-0.5500386430271078
 13
0.0
 23
0.0
 14
10.0
 24
10.0
 15
10.0
 25
10.0
 16
0.0
 26
0.0
 36
1.0
 17
0.0
 27
0.0
 37
0.0
 40
748.4375367307781
 41
2.412350597609561
 42
50.0
 43
0.0
 44
0.0
 50
0.0
 51
0.0
 71
     0
 72
   100
 73
     1
 74
     3
 75
     0
 76
     0
 77
     0
 78
     0
281
     0
 65
     0
110
0.0
120
0.0
130
0.0
111
1.0
121
0.0
131
0.0
112
0.0
122
1.0
132
0.0
 79
     0
146
0.0
1001
ACAD_NAV_VCDISPLAY
1070
     3
  0
ENDTAB
  0
TABLE
  2
LTYPE
  5
5
330
0
100
AcDbSymbolTable
 70
    19
  0
LTYPE
  5
14
330
5
100
AcDbSymbolTableRecord
100
AcDbLinetypeTableRecord
  2
ByBlock
 70
     0
  3

 72
    65
 73
     0
 40
0.0
  0
LTYPE
  5
15
330
5
100
AcDbSymbolTableRecord
100
AcDbLinetypeTableRecord
  2
ByLayer
 70
     0
  3

 72
    65
 73
     0
 40
0.0
  0
LTYPE
  5
16
330
5
100
AcDbSymbolTableRecord
100
AcDbLinetypeTableRecord
  2
Continuous
 70
     0
  3
Continuous ___________________________________
 72
    65
 73
     0
 40
0.0
  0
LTYPE
  5
6E
330
5
100
AcDbSymbolTableRecord
100
AcDbLinetypeTableRecord
  2
DASHDOT
 70
     0
  3
Dash dot __ . __ . __ . __ . __ . __ . __ . __
 72
    65
 73
     4
 40
13.0
 49
10.0
 74
     0
 49
-1.0
 74
     0
 49
1.0
 74
     0
 49
-1.0
 74
     0
  0
LTYPE
  5
71
330
5
100
AcDbSymbolTableRecord
100
AcDbLinetypeTableRecord
  2
DASHED
 70
     0
  3
Dashed __ __ __ __ __ __ __ __ __ __ __ __ __ _
 72
    65
 73
     2
 40
4.0
 49
3.0
 74
     0
 49
-1.0
 74
     0
  0
LTYPE
  5
2A2
330
5
100
AcDbSymbolTableRecord
100
AcDbLinetypeTableRecord
  2
破線１
 70
     0
  3

 72
    65
 73
     2
 40
4.0
 49
3.0
 74
     0
 49
-1.0
 74
     0
  0
LTYPE
  5
3D1
330
5
100
AcDbSymbolTableRecord
100
AcDbLinetypeTableRecord
  2
HIDDEN
 70
     0
  3
Hidden __ __ __ __ __ __ __ __ __ __ __ __ __ _
 72
    65
 73
     2
 40
9.524999999999998
 49
6.349999999999999
 74
     0
 49
-3.174999999999999
 74
     0
  0
LTYPE
  5
3D2
330
5
100
AcDbSymbolTableRecord
100
AcDbLinetypeTableRecord
  2
PHANTOM2
 70
     0
  3
Phantom (.5x) ___ _ _ ___ _ _ ___ _ _ ___ _ _
 72
    65
 73
     6
 40
31.75
 49
15.875
 74
     0
 49
-3.174999999999999
 74
     0
 49
3.174999999999999
 74
     0
 49
-3.174999999999999
 74
     0
 49
3.174999999999999
 74
     0
 49
-3.174999999999999
 74
     0
  0
LTYPE
  5
3D3
330
5
100
AcDbSymbolTableRecord
100
AcDbLinetypeTableRecord
  2
CENTER
 70
     0
  3
Center ____ _ ____ _ ____ _ ____ _ ____ _ ____
 72
    65
 73
     4
 40
50.8
 49
31.75
 74
     0
 49
-6.349999999999999
 74
     0
 49
6.349999999999999
 74
     0
 49
-6.349999999999999
 74
     0
  0
LTYPE
  5
40F
330
5
100
AcDbSymbolTableRecord
100
AcDbLinetypeTableRecord
  2
AM_ISO02W050
 70
     0
  3
__ __ __ __ __ __ __ __ __ __ __ __ __ __ __
 72
    65
 73
     2
 40
7.5
 49
6.0
 74
     0
 49
-1.5
 74
     0
  0
LTYPE
  5
410
330
5
100
AcDbSymbolTableRecord
100
AcDbLinetypeTableRecord
  2
AM_ISO08W050
 70
     0
  3
____ . ____ . ____ . ____ . ____ . ____ . ____
 72
    65
 73
     4
 40
18.0
 49
12.0
 74
     0
 49
-1.5
 74
     0
 49
3.0
 74
     0
 49
-1.5
 74
     0
  0
LTYPE
  5
411
330
5
100
AcDbSymbolTableRecord
100
AcDbLinetypeTableRecord
  2
AM_ISO09W050
 70
     0
  3
_____ . . _____ . . _____ . . ____ .. ____
 72
    65
 73
     6
 40
22.5
 49
12.0
 74
     0
 49
-1.5
 74
     0
 49
3.0
 74
     0
 49
-1.5
 74
     0
 49
3.0
 74
     0
 49
-1.5
 74
     0
  0
LTYPE
  5
412
330
5
100
AcDbSymbolTableRecord
100
AcDbLinetypeTableRecord
  2
Amconstr
 70
     0
  3
_______________________
 72
    65
 73
     2
 40
9999.0
 49
9999.0
 74
     0
 49
0.0
 74
     0
  0
LTYPE
  5
413
330
5
100
AcDbSymbolTableRecord
100
AcDbLinetypeTableRecord
  2
AM_ISO08W050x2
 70
     0
  3
__ . __ . __ . __ . __ . __
 72
    65
 73
     4
 40
9.0
 49
6.0
 74
     0
 49
-0.75
 74
     0
 49
1.5
 74
     0
 49
-0.75
 74
     0
  0
LTYPE
  5
414
330
5
100
AcDbSymbolTableRecord
100
AcDbLinetypeTableRecord
  2
AM_ISO02W050x2
 70
     0
  3
 _ _ _ _ _ _ _ _ _ _ _ _
 72
    65
 73
     2
 40
3.75
 49
3.0
 74
     0
 49
-0.75
 74
     0
  0
LTYPE
  5
417
330
5
100
AcDbSymbolTableRecord
100
AcDbLinetypeTableRecord
  2
Amzigzag
 70
     0
  3
/\/-/\/-/\/-/\/-/\/-/\/
 72
    65
 73
     2
 40
11.0001
 49
0.0001
 74
     4
 75
   136
340
416
 46
0.04
 50
0.0
 44
0.0
 45
0.0
 49
-11.0
 74
     0
  0
LTYPE
  5
427
330
5
100
AcDbSymbolTableRecord
100
AcDbLinetypeTableRecord
  2
ACISOWELD
 70
     0
  3
_ _ _ _ _
 72
    65
 73
     2
 40
2.0
 49
2.0
 74
     0
 49
-1.0
 74
     0
  0
LTYPE
  5
428
330
5
100
AcDbSymbolTableRecord
100
AcDbLinetypeTableRecord
  2
ACISOTGL
 70
     0
  3
_ _ _ _ _
 72
    65
 73
     2
 40
3.0
 49
2.0
 74
     0
 49
-1.0
 74
     0
  0
LTYPE
  5
429
330
5
100
AcDbSymbolTableRecord
100
AcDbLinetypeTableRecord
  2
ACISOTGB
 70
     0
  3
__ . . __ . .
 72
    65
 73
     6
 40
9.0
 49
4.0
 74
     0
 49
-1.0
 74
     0
 49
1.0
 74
     0
 49
-1.0
 74
     0
 49
1.0
 74
     0
 49
-1.0
 74
     0
  0
ENDTAB
  0
TABLE
  2
LAYER
  5
2
330
0
100
AcDbSymbolTable
 70
     3
  0
LAYER
  5
10
102
{ACAD_XDICTIONARY
360
772
102
}
330
2
100
AcDbSymbolTableRecord
100
AcDbLayerTableRecord
  2
0
 70
     0
 62
     7
  6
Continuous
370
    -3
390
F
  0
LAYER
  5
E0
330
2
100
AcDbSymbolTableRecord
100
AcDbLayerTableRecord
  2
Defpoints
 70
     0
 62
     7
  6
Continuous
290
     0
370
    -3
390
F
  0
LAYER
  5
E2
102
{ACAD_XDICTIONARY
360
774
102
}
330
2
100
AcDbSymbolTableRecord
100
AcDbLayerTableRecord
  2
作図レイヤ
 70
     0
 62
     7
  6
Continuous
370
    -3
390
F
  0
ENDTAB
  0
TABLE
  2
STYLE
  5
3
330
0
100
AcDbSymbolTable
 70
     7
  0
STYLE
  5
11
330
3
100
AcDbSymbolTableRecord
100
AcDbTextStyleTableRecord
  2
Standard
 70
     0
 40
0.0
 41
1.0
 50
0.0
 71
     0
 42
2.5
  3
txt
  4

  0
STYLE
  5
74
330
3
100
AcDbSymbolTableRecord
100
AcDbTextStyleTableRecord
  2
FX_VECTOR
 70
     0
 40
0.0
 41
1.0
 50
0.0
 71
     0
 42
2.5
  3
MONOTXT.SHX
  4
BigFont.shx
  0
STYLE
  5
DF
330
3
100
AcDbSymbolTableRecord
100
AcDbTextStyleTableRecord
  2
ＭＳ 明朝
 70
     0
 40
0.0
 41
1.0
 50
0.0
 71
     0
 42
2.5
  3

  4

1001
ACAD
1000
ＭＳ 明朝
1071
    32785
  0
STYLE
  5
E1
330
3
100
AcDbSymbolTableRecord
100
AcDbTextStyleTableRecord
  2
DEFAULT
 70
     0
 40
0.0
 41
1.0
 50
0.0
 71
     0
 42
2.5
  3

  4

1001
ACAD
1000
ＭＳ ゴシック
1071
    32817
  0
STYLE
  5
416
330
3
100
AcDbSymbolTableRecord
100
AcDbTextStyleTableRecord
  2

 70
     1
 40
0.0
 41
1.0
 50
0.0
 71
     0
 42
2.5
  3
genltshp.shx
  4

  0
STYLE
  5
425
330
3
100
AcDbSymbolTableRecord
100
AcDbTextStyleTableRecord
  2
ACISOTS
 70
     0
 40
0.0
 41
1.0
 50
0.0
 71
     0
 42
2.5
  3
isocp.shx
  4

  0
STYLE
  5
426
330
3
100
AcDbSymbolTableRecord
100
AcDbTextStyleTableRecord
  2
ACISOGDT
 70
     0
 40
0.0
 41
1.0
 50
0.0
 71
     0
 42
2.5
  3
amgdt.shx
  4

  0
ENDTAB
  0
TABLE
  2
VIEW
  5
6
330
0
100
AcDbSymbolTable
 70
     0
  0
ENDTAB
  0
TABLE
  2
UCS
  5
7
330
0
100
AcDbSymbolTable
 70
     0
  0
ENDTAB
  0
TABLE
  2
APPID
  5
9
330
0
100
AcDbSymbolTable
 70
    19
  0
APPID
  5
12
330
9
100
AcDbSymbolTableRecord
100
AcDbRegAppTableRecord
  2
ACAD
 70
     0
  0
APPID
  5
3B4
330
9
100
AcDbSymbolTableRecord
100
AcDbRegAppTableRecord
  2
ACAD_MLEADERVER
 70
     0
  0
APPID
  5
3CA
330
9
100
AcDbSymbolTableRecord
100
AcDbRegAppTableRecord
  2
MCAD_NO_VIS
 70
     0
  0
APPID
  5
3CB
330
9
100
AcDbSymbolTableRecord
100
AcDbRegAppTableRecord
  2
ACAD_TEMP_GRAPHIC
 70
     0
  0
APPID
  5
3D8
330
9
100
AcDbSymbolTableRecord
100
AcDbRegAppTableRecord
  2
ACATTRIBSERVICES
 70
     0
  0
APPID
  5
3F0
330
9
100
AcDbSymbolTableRecord
100
AcDbRegAppTableRecord
  2
DESIGNERASSEMBLIES
 70
     0
  0
APPID
  5
40C
330
9
100
AcDbSymbolTableRecord
100
AcDbRegAppTableRecord
  2
ACAD_DSTYLE_DIMJAG
 70
     0
  0
APPID
  5
40D
330
9
100
AcDbSymbolTableRecord
100
AcDbRegAppTableRecord
  2
ACAD_DSTYLE_DIMBREAK
 70
     0
  0
APPID
  5
439
330
9
100
AcDbSymbolTableRecord
100
AcDbRegAppTableRecord
  2
ACAD_NAV_VCDISPLAY
 70
     0
  0
APPID
  5
568
330
9
100
AcDbSymbolTableRecord
100
AcDbRegAppTableRecord
  2
DCO15
 70
     0
  0
APPID
  5
5E3
330
9
100
AcDbSymbolTableRecord
100
AcDbRegAppTableRecord
  2
ACAD_EXEMPT_FROM_CAD_STANDARDS
 70
     0
  0
APPID
  5
5EB
330
9
100
AcDbSymbolTableRecord
100
AcDbRegAppTableRecord
  2
PLOTTRANSPARENCY
 70
     0
  0
APPID
  5
646
330
9
100
AcDbSymbolTableRecord
100
AcDbRegAppTableRecord
  2
ACAD_DSTYLE_DIMINSPECT
 70
     0
  0
APPID
  5
650
330
9
100
AcDbSymbolTableRecord
100
AcDbRegAppTableRecord
  2
AcadAnnoMonitorAlertIconDisabled
 70
     0
  0
APPID
  5
651
330
9
100
AcDbSymbolTableRecord
100
AcDbRegAppTableRecord
  2
GENIUS_GENDTOL_13
 70
     0
  0
APPID
  5
7BC
330
9
100
AcDbSymbolTableRecord
100
AcDbRegAppTableRecord
  2
ACAD_DSTYLE_DIMARC_LENGTH_SYMBOL
 70
     0
  0
APPID
  5
7BD
330
9
100
AcDbSymbolTableRecord
100
AcDbRegAppTableRecord
  2
ACAD_DSTYLE_DIM_LINETYPE
 70
     0
  0
APPID
  5
7BE
330
9
100
AcDbSymbolTableRecord
100
AcDbRegAppTableRecord
  2
ACAD_DSTYLE_DIM_EXT1_LINETYPE
 70
     0
  0
APPID
  5
7BF
330
9
100
AcDbSymbolTableRecord
100
AcDbRegAppTableRecord
  2
ACAD_DSTYLE_DIM_EXT2_LINETYPE
 70
     0
  0
ENDTAB
  0
TABLE
  2
DIMSTYLE
  5
A
330
0
100
AcDbSymbolTable
 70
    10
100
AcDbDimStyleTable
 71
     1
340
DE
  0
DIMSTYLE
105
27
330
A
100
AcDbSymbolTableRecord
100
AcDbDimStyleTableRecord
  2
ISO-25
 70
     0
 41
2.5
 42
0.625
 43
3.75
 44
1.25
 73
     0
 74
     0
 77
     1
 78
     8
140
2.5
141
2.5
143
0.03937007874016
147
0.625
171
     3
172
     1
271
     2
272
     2
274
     3
278
    44
283
     0
284
     8
340
11
  0
DIMSTYLE
105
DE
102
{ACAD_REACTORS
330
4C4
330
4C5
330
4C7
330
4C8
102
}
330
A
100
AcDbSymbolTableRecord
100
AcDbDimStyleTableRecord
  2
FX_DIMINFO
 70
     0
 41
2.0
 42
1.0
 43
9.0
 44
1.0
 46
6.0
 73
     0
 74
     0
 77
     1
 78
     8
 79
     2
140
4.0
141
2.5
143
0.03937
147
1.0
171
     3
172
     1
173
     1
176
     4
177
     4
178
     7
179
     2
271
     2
272
     2
274
     3
284
     8
340
DF
341
78
343
78
344
7E
  0
DIMSTYLE
105
40B
102
{ACAD_REACTORS
330
3F9
102
}
330
A
100
AcDbSymbolTableRecord
100
AcDbDimStyleTableRecord
  2
AM_ISO
 70
     0
  4
"
 41
3.5
 42
1.0
 43
10.0
 44
1.0
 47
0.1
 48
0.1
 73
     0
 74
     0
 77
     1
 78
     8
 79
     2
140
3.5
141
0.0
143
0.0393701
146
0.71
147
1.5
172
     1
176
   256
177
   256
178
     2
271
     2
272
     3
274
     4
283
     0
284
     8
340
11
371
    -1
372
    -1
1001
ACAD_DSTYLE_DIMJAG
1070
   388
1040
1.5
1001
ACAD_DSTYLE_DIMBREAK
1070
   391
1040
3.75
1001
ACAD_DSTYLE_DIMARC_LENGTH_SYMBOL
1070
   379
1070
     1
1001
ACAD_DSTYLE_DIM_LINETYPE
1070
   380
1005
14
1001
ACAD_DSTYLE_DIM_EXT1_LINETYPE
1070
   381
1005
14
1001
ACAD_DSTYLE_DIM_EXT2_LINETYPE
1070
   382
1005
14
  0
DIMSTYLE
105
418
330
A
100
AcDbSymbolTableRecord
100
AcDbDimStyleTableRecord
  2
AM_ISO$3
 70
     0
  4
"
 41
3.5
 42
1.0
 43
10.0
 44
1.0
 47
0.1
 48
0.1
 73
     0
 77
     1
 78
     8
 79
     2
140
3.5
141
0.0
143
0.0393701
146
0.71
147
1.5
176
   256
177
   256
178
     2
271
     2
272
     3
274
     4
283
     0
284
     8
288
     1
289
     0
340
11
371
    -1
372
    -1
1001
ACAD_DSTYLE_DIMBREAK
1070
   391
1040
3.75
1001
ACAD_DSTYLE_DIMJAG
1070
   388
1040
1.5
1001
ACAD_DSTYLE_DIMARC_LENGTH_SYMBOL
1070
   379
1070
     1
1001
ACAD_DSTYLE_DIM_LINETYPE
1070
   380
1005
14
1001
ACAD_DSTYLE_DIM_EXT1_LINETYPE
1070
   381
1005
14
1001
ACAD_DSTYLE_DIM_EXT2_LINETYPE
1070
   382
1005
14
  0
DIMSTYLE
105
419
330
A
100
AcDbSymbolTableRecord
100
AcDbDimStyleTableRecord
  2
AM_ISO$4
 70
     0
  4
"
 41
3.5
 42
1.0
 43
10.0
 44
1.0
 47
0.1
 48
0.1
 73
     0
 77
     1
 78
     8
 79
     2
140
3.5
141
0.0
143
0.0393701
146
0.71
147
1.5
176
   256
177
   256
178
     2
271
     2
272
     3
274
     4
283
     0
284
     8
288
     1
289
     0
340
11
371
    -1
372
    -1
1001
ACAD_DSTYLE_DIMBREAK
1070
   391
1040
3.75
1001
ACAD_DSTYLE_DIMJAG
1070
   388
1040
1.5
1001
ACAD_DSTYLE_DIMARC_LENGTH_SYMBOL
1070
   379
1070
     1
1001
ACAD_DSTYLE_DIM_LINETYPE
1070
   380
1005
14
1001
ACAD_DSTYLE_DIM_EXT1_LINETYPE
1070
   381
1005
14
1001
ACAD_DSTYLE_DIM_EXT2_LINETYPE
1070
   382
1005
14
  0
DIMSTYLE
105
41A
330
A
100
AcDbSymbolTableRecord
100
AcDbDimStyleTableRecord
  2
AM_ISO$6
 70
     0
  4
"
 41
3.5
 42
1.0
 43
10.0
 44
1.0
 47
0.1
 48
0.1
 73
     0
 74
     0
 78
     8
 79
     2
140
3.5
141
0.0
143
0.0393701
146
0.71
147
1.5
172
     1
176
   256
177
   256
178
     2
271
     2
272
     3
274
     4
283
     0
284
     8
340
11
371
    -1
372
    -1
1001
ACAD_DSTYLE_DIMBREAK
1070
   391
1040
3.75
1001
ACAD_DSTYLE_DIMJAG
1070
   388
1040
1.5
1001
ACAD_DSTYLE_DIMARC_LENGTH_SYMBOL
1070
   379
1070
     1
1001
ACAD_DSTYLE_DIM_LINETYPE
1070
   380
1005
14
1001
ACAD_DSTYLE_DIM_EXT1_LINETYPE
1070
   381
1005
14
1001
ACAD_DSTYLE_DIM_EXT2_LINETYPE
1070
   382
1005
14
  0
DIMSTYLE
105
41B
330
A
100
AcDbSymbolTableRecord
100
AcDbDimStyleTableRecord
  2
AM_ISO$7
 70
     0
  4
"
 41
3.5
 42
1.0
 43
10.0
 44
1.0
 47
0.1
 48
0.1
 73
     0
 74
     0
 77
     1
 78
     8
 79
     2
140
3.5
141
0.0
143
0.0393701
146
0.71
147
1.5
172
     1
176
   256
177
   256
178
     2
271
     2
272
     3
274
     4
283
     0
284
     8
340
11
371
    -1
372
    -1
1001
ACAD_DSTYLE_DIMBREAK
1070
   391
1040
3.75
1001
ACAD_DSTYLE_DIMJAG
1070
   388
1040
1.5
1001
ACAD_DSTYLE_DIMARC_LENGTH_SYMBOL
1070
   379
1070
     1
1001
ACAD_DSTYLE_DIM_LINETYPE
1070
   380
1005
14
1001
ACAD_DSTYLE_DIM_EXT1_LINETYPE
1070
   381
1005
14
1001
ACAD_DSTYLE_DIM_EXT2_LINETYPE
1070
   382
1005
14
  0
DIMSTYLE
105
41C
330
A
100
AcDbSymbolTableRecord
100
AcDbDimStyleTableRecord
  2
AM_ISO$SF
 70
     0
  4
"
 41
3.5
 42
1.0
 43
10.0
 44
1.0
 47
0.1
 48
0.1
 73
     0
 74
     0
 75
     1
 76
     1
 77
     1
 78
     8
 79
     2
140
3.5
141
0.0
143
0.0393701
146
0.71
147
1.5
172
     1
176
   256
177
   256
178
     2
271
     2
272
     3
274
     4
283
     0
284
     8
340
11
371
    -1
372
    -1
1001
ACAD_DSTYLE_DIMBREAK
1070
   391
1040
3.75
1001
ACAD_DSTYLE_DIMJAG
1070
   388
1040
1.5
1001
ACAD_DSTYLE_DIMARC_LENGTH_SYMBOL
1070
   379
1070
     1
1001
ACAD_DSTYLE_DIM_LINETYPE
1070
   380
1005
14
1001
ACAD_DSTYLE_DIM_EXT1_LINETYPE
1070
   381
1005
14
1001
ACAD_DSTYLE_DIM_EXT2_LINETYPE
1070
   382
1005
14
  0
DIMSTYLE
105
421
330
A
100
AcDbSymbolTableRecord
100
AcDbDimStyleTableRecord
  2
AM_ISO$SH
 70
     0
  4
"
 41
3.5
 42
1.0
 43
10.0
 44
1.0
 47
0.1
 48
0.1
 73
     0
 74
     0
 75
     1
 76
     1
 77
     1
 78
     8
 79
     2
140
3.5
141
0.0
143
0.0393701
144
2.0
146
0.71
147
1.5
172
     1
173
     1
176
   256
177
   256
178
     2
271
     2
272
     3
274
     4
283
     0
284
     8
340
11
343
41D
371
    -1
372
    -1
1001
ACAD_DSTYLE_DIMBREAK
1070
   391
1040
3.75
1001
ACAD_DSTYLE_DIMJAG
1070
   388
1040
1.5
1001
ACAD_DSTYLE_DIMARC_LENGTH_SYMBOL
1070
   379
1070
     1
1001
ACAD_DSTYLE_DIM_LINETYPE
1070
   380
1005
14
1001
ACAD_DSTYLE_DIM_EXT1_LINETYPE
1070
   381
1005
14
1001
ACAD_DSTYLE_DIM_EXT2_LINETYPE
1070
   382
1005
14
  0
ENDTAB
  0
TABLE
  2
BLOCK_RECORD
  5
1
330
0
100
AcDbSymbolTable
 70
    50
  0
BLOCK_RECORD
  5
1F
330
1
100
AcDbSymbolTableRecord
100
AcDbBlockTableRecord
  2
*Model_Space
340
22
  0
BLOCK_RECORD
  5
1B
330
1
100
AcDbSymbolTableRecord
100
AcDbBlockTableRecord
  2
*Paper_Space
340
1E
  0
BLOCK_RECORD
  5
23
330
1
100
AcDbSymbolTableRecord
100
AcDbBlockTableRecord
  2
*Paper_Space0
340
26
  0
BLOCK_RECORD
  5
75
330
1
100
AcDbSymbolTableRecord
100
AcDbBlockTableRecord
  2
FXTIP_NONE
340
0
  0
BLOCK_RECORD
  5
78
330
1
100
AcDbSymbolTableRecord
100
AcDbBlockTableRecord
  2
FXTIP_ARROW_S
340
0
102
{BLKREFS
331
30A
331
31E
331
327
331
331
331
348
331
2C2
331
2F1
331
2F9
331
301
331
317
331
33C
331
354
331
35C
331
71C
331
52F
331
539
331
542
331
54B
331
554
331
55D
102
}
  0
BLOCK_RECORD
  5
7E
330
1
100
AcDbSymbolTableRecord
100
AcDbBlockTableRecord
  2
FXTIP_ARROW_E
340
0
102
{BLKREFS
331
31F
331
328
331
332
331
349
331
315
331
33D
331
355
331
71D
331
530
331
53A
331
543
331
54C
331
555
331
55E
102
}
  0
BLOCK_RECORD
  5
84
330
1
100
AcDbSymbolTableRecord
100
AcDbBlockTableRecord
  2
FXTIP_BLACKDOT_S
340
0
  0
BLOCK_RECORD
  5
8A
330
1
100
AcDbSymbolTableRecord
100
AcDbBlockTableRecord
  2
FXTIP_BLACKDOT_E
340
0
  0
BLOCK_RECORD
  5
90
330
1
100
AcDbSymbolTableRecord
100
AcDbBlockTableRecord
  2
FXTIP_TRIANGLE_S
340
0
  0
BLOCK_RECORD
  5
97
330
1
100
AcDbSymbolTableRecord
100
AcDbBlockTableRecord
  2
FXTIP_TRIANGLE_E
340
0
  0
BLOCK_RECORD
  5
9E
330
1
100
AcDbSymbolTableRecord
100
AcDbBlockTableRecord
  2
FXTIP_ARCHITECT_S
340
0
  0
BLOCK_RECORD
  5
A4
330
1
100
AcDbSymbolTableRecord
100
AcDbBlockTableRecord
  2
FXTIP_ARCHITECT_E
340
0
  0
BLOCK_RECORD
  5
AA
330
1
100
AcDbSymbolTableRecord
100
AcDbBlockTableRecord
  2
FXTIP_CIVIL_S
340
0
  0
BLOCK_RECORD
  5
B0
330
1
100
AcDbSymbolTableRecord
100
AcDbBlockTableRecord
  2
FXTIP_CIVIL_E
340
0
  0
BLOCK_RECORD
  5
B6
330
1
100
AcDbSymbolTableRecord
100
AcDbBlockTableRecord
  2
FXTIP_WHITEDOT_S
340
0
  0
BLOCK_RECORD
  5
BB
330
1
100
AcDbSymbolTableRecord
100
AcDbBlockTableRecord
  2
FXTIP_WHITEDOT_E
340
0
  0
BLOCK_RECORD
  5
C0
330
1
100
AcDbSymbolTableRecord
100
AcDbBlockTableRecord
  2
FXTIP_UPARROW_S
340
0
  0
BLOCK_RECORD
  5
C5
330
1
100
AcDbSymbolTableRecord
100
AcDbBlockTableRecord
  2
FXTIP_UPARROW_E
340
0
  0
BLOCK_RECORD
  5
CA
330
1
100
AcDbSymbolTableRecord
100
AcDbBlockTableRecord
  2
FXTIP_DOWNARROW_S
340
0
  0
BLOCK_RECORD
  5
CF
330
1
100
AcDbSymbolTableRecord
100
AcDbBlockTableRecord
  2
FXTIP_DOWNARROW_E
340
0
  0
BLOCK_RECORD
  5
D4
330
1
100
AcDbSymbolTableRecord
100
AcDbBlockTableRecord
  2
FXTIP_BLACKTRIANGLE_S
340
0
  0
BLOCK_RECORD
  5
D9
330
1
100
AcDbSymbolTableRecord
100
AcDbBlockTableRecord
  2
FXTIP_BLACKTRIANGLE_E
340
0
  0
BLOCK_RECORD
  5
1B2
330
1
100
AcDbSymbolTableRecord
100
AcDbBlockTableRecord
  2
BLKF023
340
0
102
{BLKREFS
331
484
102
}
  0
BLOCK_RECORD
  5
1DC
330
1
100
AcDbSymbolTableRecord
100
AcDbBlockTableRecord
  2
BLKF024
340
0
102
{BLKREFS
331
48C
102
}
  0
BLOCK_RECORD
  5
25D
330
1
100
AcDbSymbolTableRecord
100
AcDbBlockTableRecord
  2
BLKF025
340
0
102
{BLKREFS
331
494
102
}
  0
BLOCK_RECORD
  5
279
330
1
100
AcDbSymbolTableRecord
100
AcDbBlockTableRecord
  2
BLKF026
340
0
102
{BLKREFS
331
49B
102
}
  0
BLOCK_RECORD
  5
2BD
330
1
100
AcDbSymbolTableRecord
100
AcDbBlockTableRecord
  2
FXDIM027
340
0
  0
BLOCK_RECORD
  5
2D3
330
1
100
AcDbSymbolTableRecord
100
AcDbBlockTableRecord
  2
BLKF028
340
0
102
{BLKREFS
331
4B9
102
}
  0
BLOCK_RECORD
  5
2EC
330
1
100
AcDbSymbolTableRecord
100
AcDbBlockTableRecord
  2
FXDIM029
340
0
  0
BLOCK_RECORD
  5
2F4
330
1
100
AcDbSymbolTableRecord
100
AcDbBlockTableRecord
  2
FXDIM030
340
0
  0
BLOCK_RECORD
  5
2FC
330
1
100
AcDbSymbolTableRecord
100
AcDbBlockTableRecord
  2
FXDIM031
340
0
  0
BLOCK_RECORD
  5
305
330
1
100
AcDbSymbolTableRecord
100
AcDbBlockTableRecord
  2
FXDIM032
340
0
  0
BLOCK_RECORD
  5
30E
330
1
100
AcDbSymbolTableRecord
100
AcDbBlockTableRecord
  2
*D30
340
0
  0
BLOCK_RECORD
  5
319
330
1
100
AcDbSymbolTableRecord
100
AcDbBlockTableRecord
  2
*D31
340
0
  0
BLOCK_RECORD
  5
322
330
1
100
AcDbSymbolTableRecord
100
AcDbBlockTableRecord
  2
*D32
340
0
  0
BLOCK_RECORD
  5
32C
330
1
100
AcDbSymbolTableRecord
100
AcDbBlockTableRecord
  2
*D33
340
0
  0
BLOCK_RECORD
  5
337
330
1
100
AcDbSymbolTableRecord
100
AcDbBlockTableRecord
  2
*D34
340
0
  0
BLOCK_RECORD
  5
341
330
1
100
AcDbSymbolTableRecord
100
AcDbBlockTableRecord
  2
*D35
340
0
  0
BLOCK_RECORD
  5
34D
330
1
100
AcDbSymbolTableRecord
100
AcDbBlockTableRecord
  2
*D36
340
0
  0
BLOCK_RECORD
  5
357
330
1
100
AcDbSymbolTableRecord
100
AcDbBlockTableRecord
  2
FXDIM040
340
0
  0
BLOCK_RECORD
  5
41D
330
1
100
AcDbSymbolTableRecord
100
AcDbBlockTableRecord
  2
GENAXEH
340
0
  0
BLOCK_RECORD
  5
4CE
330
1
100
AcDbSymbolTableRecord
100
AcDbBlockTableRecord
  2
*D40
340
0
  0
BLOCK_RECORD
  5
4DA
330
1
100
AcDbSymbolTableRecord
100
AcDbBlockTableRecord
  2
*D41
340
0
  0
BLOCK_RECORD
  5
4E6
330
1
100
AcDbSymbolTableRecord
100
AcDbBlockTableRecord
  2
*D42
340
0
  0
BLOCK_RECORD
  5
4F3
330
1
100
AcDbSymbolTableRecord
100
AcDbBlockTableRecord
  2
*D43
340
0
  0
BLOCK_RECORD
  5
4FF
330
1
100
AcDbSymbolTableRecord
100
AcDbBlockTableRecord
  2
*D44
340
0
  0
BLOCK_RECORD
  5
50B
330
1
100
AcDbSymbolTableRecord
100
AcDbBlockTableRecord
  2
*D45
340
0
  0
BLOCK_RECORD
  5
517
330
1
100
AcDbSymbolTableRecord
100
AcDbBlockTableRecord
  2
*D46
340
0
  0
ENDTAB
  0
ENDSEC
  0
SECTION
  2
BLOCKS
  0
BLOCK
  5
20
330
1F
100
AcDbEntity
  8
0
100
AcDbBlockBegin
  2
*Model_Space
 70
     0
 10
0.0
 20
0.0
 30
0.0
  3
*Model_Space
  1

  0
ENDBLK
  5
21
330
1F
100
AcDbEntity
  8
0
100
AcDbBlockEnd
  0
BLOCK
  5
1C
330
1B
100
AcDbEntity
 67
     1
  8
0
100
AcDbBlockBegin
  2
*Paper_Space
 70
     0
 10
0.0
 20
0.0
 30
0.0
  3
*Paper_Space
  1

  0
ENDBLK
  5
1D
330
1B
100
AcDbEntity
 67
     1
  8
0
100
AcDbBlockEnd
  0
BLOCK
  5
24
330
23
100
AcDbEntity
 67
     1
  8
0
100
AcDbBlockBegin
  2
*Paper_Space0
 70
     0
 10
0.0
 20
0.0
 30
0.0
  3
*Paper_Space0
  1

  0
ENDBLK
  5
25
330
23
100
AcDbEntity
 67
     1
  8
0
100
AcDbBlockEnd
  0
BLOCK
  5
76
330
75
100
AcDbEntity
  8
0
100
AcDbBlockBegin
  2
FXTIP_NONE
 70
     0
 10
0.0
 20
0.0
 30
0.0
  3
FXTIP_NONE
  1

  0
ENDBLK
  5
77
330
75
100
AcDbEntity
  8
0
100
AcDbBlockEnd
  0
BLOCK
  5
79
330
78
100
AcDbEntity
  8
0
100
AcDbBlockBegin
  2
FXTIP_ARROW_S
 70
     0
 10
0.0
 20
0.0
 30
0.0
  3
FXTIP_ARROW_S
  1

  0
LINE
  5
7B
330
78
100
AcDbEntity
  8
0
  6
Continuous
 62
     0
370
    -2
100
AcDbLine
 10
0.0
 20
0.0
 30
0.0
 11
-1.0
 21
0.0000000000000001
 31
0.0
  0
LINE
  5
7C
330
78
100
AcDbEntity
  8
0
  6
Continuous
 62
     0
370
    -2
100
AcDbLine
 10
0.0
 20
0.0
 30
0.0
 11
-0.9659258262890684
 21
-0.2588190451025206
 31
0.0
  0
LINE
  5
7D
330
78
100
AcDbEntity
  8
0
  6
Continuous
 62
     0
370
    -2
100
AcDbLine
 10
0.0
 20
0.0
 30
0.0
 11
-0.9659258262890684
 21
0.2588190451025209
 31
0.0
  0
ENDBLK
  5
7A
330
78
100
AcDbEntity
  8
0
100
AcDbBlockEnd
  0
BLOCK
  5
7F
330
7E
100
AcDbEntity
  8
0
100
AcDbBlockBegin
  2
FXTIP_ARROW_E
 70
     0
 10
0.0
 20
0.0
 30
0.0
  3
FXTIP_ARROW_E
  1

  0
LINE
  5
81
330
7E
100
AcDbEntity
  8
0
  6
Continuous
 62
     0
370
    -2
100
AcDbLine
 10
0.0
 20
0.0
 30
0.0
 11
-1.0
 21
0.0
 31
0.0
  0
LINE
  5
82
330
7E
100
AcDbEntity
  8
0
  6
Continuous
 62
     0
370
    -2
100
AcDbLine
 10
0.0
 20
0.0
 30
0.0
 11
-0.9659258262890684
 21
0.2588190451025207
 31
0.0
  0
LINE
  5
83
330
7E
100
AcDbEntity
  8
0
  6
Continuous
 62
     0
370
    -2
100
AcDbLine
 10
0.0
 20
0.0
 30
0.0
 11
-0.9659258262890684
 21
-0.2588190451025207
 31
0.0
  0
ENDBLK
  5
80
330
7E
100
AcDbEntity
  8
0
100
AcDbBlockEnd
  0
BLOCK
  5
85
330
84
100
AcDbEntity
  8
0
100
AcDbBlockBegin
  2
FXTIP_BLACKDOT_S
 70
     0
 10
0.0
 20
0.0
 30
0.0
  3
FXTIP_BLACKDOT_S
  1

  0
LINE
  5
87
330
84
100
AcDbEntity
  8
0
  6
Continuous
 62
     0
370
    -2
100
AcDbLine
 10
0.0
 20
0.0
 30
0.0
 11
-1.0
 21
0.0000000000000001
 31
0.0
  0
LWPOLYLINE
  5
88
330
84
100
AcDbEntity
  8
0
  6
Continuous
 62
     0
370
    -2
100
AcDbPolyline
 90
        2
 70
     1
 43
0.25
 10
-0.125
 20
0.0
 42
1.0
 10
0.125
 20
0.0
 42
1.0
  0
CIRCLE
  5
89
330
84
100
AcDbEntity
  8
0
  6
Continuous
 62
     0
370
    -2
100
AcDbCircle
 10
0.0
 20
0.0
 30
0.0
 40
0.25
  0
ENDBLK
  5
86
330
84
100
AcDbEntity
  8
0
100
AcDbBlockEnd
  0
BLOCK
  5
8B
330
8A
100
AcDbEntity
  8
0
100
AcDbBlockBegin
  2
FXTIP_BLACKDOT_E
 70
     0
 10
0.0
 20
0.0
 30
0.0
  3
FXTIP_BLACKDOT_E
  1

  0
LINE
  5
8D
330
8A
100
AcDbEntity
  8
0
  6
Continuous
 62
     0
370
    -2
100
AcDbLine
 10
0.0
 20
0.0
 30
0.0
 11
-1.0
 21
0.0
 31
0.0
  0
LWPOLYLINE
  5
8E
330
8A
100
AcDbEntity
  8
0
  6
Continuous
 62
     0
370
    -2
100
AcDbPolyline
 90
        2
 70
     1
 43
0.25
 10
-0.125
 20
0.0
 42
1.0
 10
0.125
 20
0.0
 42
1.0
  0
CIRCLE
  5
8F
330
8A
100
AcDbEntity
  8
0
  6
Continuous
 62
     0
370
    -2
100
AcDbCircle
 10
0.0
 20
0.0
 30
0.0
 40
0.25
  0
ENDBLK
  5
8C
330
8A
100
AcDbEntity
  8
0
100
AcDbBlockEnd
  0
BLOCK
  5
91
330
90
100
AcDbEntity
  8
0
100
AcDbBlockBegin
  2
FXTIP_TRIANGLE_S
 70
     0
 10
0.0
 20
0.0
 30
0.0
  3
FXTIP_TRIANGLE_S
  1

  0
LINE
  5
93
330
90
100
AcDbEntity
  8
0
  6
Continuous
 62
     0
370
    -2
100
AcDbLine
 10
0.0
 20
0.0
 30
0.0
 11
-1.0
 21
0.0000000000000001
 31
0.0
  0
LINE
  5
94
330
90
100
AcDbEntity
  8
0
  6
Continuous
 62
     0
370
    -2
100
AcDbLine
 10
0.0
 20
0.0
 30
0.0
 11
-0.9659258262890684
 21
-0.2588190451025206
 31
0.0
  0
LINE
  5
95
330
90
100
AcDbEntity
  8
0
  6
Continuous
 62
     0
370
    -2
100
AcDbLine
 10
0.0
 20
0.0
 30
0.0
 11
-0.9659258262890684
 21
0.2588190451025209
 31
0.0
  0
LINE
  5
96
330
90
100
AcDbEntity
  8
0
  6
Continuous
 62
     0
370
    -2
100
AcDbLine
 10
-0.9659258262890684
 20
-0.2588190451025206
 30
0.0
 11
-0.9659258262890684
 21
0.2588190451025209
 31
0.0
  0
ENDBLK
  5
92
330
90
100
AcDbEntity
  8
0
100
AcDbBlockEnd
  0
BLOCK
  5
98
330
97
100
AcDbEntity
  8
0
100
AcDbBlockBegin
  2
FXTIP_TRIANGLE_E
 70
     0
 10
0.0
 20
0.0
 30
0.0
  3
FXTIP_TRIANGLE_E
  1

  0
LINE
  5
9A
330
97
100
AcDbEntity
  8
0
  6
Continuous
 62
     0
370
    -2
100
AcDbLine
 10
0.0
 20
0.0
 30
0.0
 11
-1.0
 21
0.0
 31
0.0
  0
LINE
  5
9B
330
97
100
AcDbEntity
  8
0
  6
Continuous
 62
     0
370
    -2
100
AcDbLine
 10
0.0
 20
0.0
 30
0.0
 11
-0.9659258262890684
 21
0.2588190451025207
 31
0.0
  0
LINE
  5
9C
330
97
100
AcDbEntity
  8
0
  6
Continuous
 62
     0
370
    -2
100
AcDbLine
 10
0.0
 20
0.0
 30
0.0
 11
-0.9659258262890684
 21
-0.2588190451025207
 31
0.0
  0
LINE
  5
9D
330
97
100
AcDbEntity
  8
0
  6
Continuous
 62
     0
370
    -2
100
AcDbLine
 10
-0.9659258262890684
 20
0.2588190451025207
 30
0.0
 11
-0.9659258262890684
 21
-0.2588190451025207
 31
0.0
  0
ENDBLK
  5
99
330
97
100
AcDbEntity
  8
0
100
AcDbBlockEnd
  0
BLOCK
  5
9F
330
9E
100
AcDbEntity
  8
0
100
AcDbBlockBegin
  2
FXTIP_ARCHITECT_S
 70
     0
 10
0.0
 20
0.0
 30
0.0
  3
FXTIP_ARCHITECT_S
  1

  0
LINE
  5
A1
330
9E
100
AcDbEntity
  8
0
  6
Continuous
 62
     0
370
    -2
100
AcDbLine
 10
0.0
 20
0.0
 30
0.0
 11
-1.0
 21
0.0000000000000001
 31
0.0
  0
LINE
  5
A2
330
9E
100
AcDbEntity
  8
0
  6
Continuous
 62
     0
370
    -2
100
AcDbLine
 10
0.0
 20
0.0
 30
0.0
 11
-0.7071067811865476
 21
-0.7071067811865474
 31
0.0
  0
LINE
  5
A3
330
9E
100
AcDbEntity
  8
0
  6
Continuous
 62
     0
370
    -2
100
AcDbLine
 10
0.0
 20
0.0
 30
0.0
 11
0.7071067811865476
 21
0.7071067811865474
 31
0.0
  0
ENDBLK
  5
A0
330
9E
100
AcDbEntity
  8
0
100
AcDbBlockEnd
  0
BLOCK
  5
A5
330
A4
100
AcDbEntity
  8
0
100
AcDbBlockBegin
  2
FXTIP_ARCHITECT_E
 70
     0
 10
0.0
 20
0.0
 30
0.0
  3
FXTIP_ARCHITECT_E
  1

  0
LINE
  5
A7
330
A4
100
AcDbEntity
  8
0
  6
Continuous
 62
     0
370
    -2
100
AcDbLine
 10
0.0
 20
0.0
 30
0.0
 11
-1.0
 21
0.0
 31
0.0
  0
LINE
  5
A8
330
A4
100
AcDbEntity
  8
0
  6
Continuous
 62
     0
370
    -2
100
AcDbLine
 10
0.0
 20
0.0
 30
0.0
 11
0.7071067811865475
 21
0.7071067811865475
 31
0.0
  0
LINE
  5
A9
330
A4
100
AcDbEntity
  8
0
  6
Continuous
 62
     0
370
    -2
100
AcDbLine
 10
0.0
 20
0.0
 30
0.0
 11
-0.7071067811865475
 21
-0.7071067811865475
 31
0.0
  0
ENDBLK
  5
A6
330
A4
100
AcDbEntity
  8
0
100
AcDbBlockEnd
  0
BLOCK
  5
AB
330
AA
100
AcDbEntity
  8
0
100
AcDbBlockBegin
  2
FXTIP_CIVIL_S
 70
     0
 10
0.0
 20
0.0
 30
0.0
  3
FXTIP_CIVIL_S
  1

  0
LINE
  5
AD
330
AA
100
AcDbEntity
  8
0
  6
Continuous
 62
     0
370
    -2
100
AcDbLine
 10
0.0
 20
0.0
 30
0.0
 11
-1.0
 21
0.0000000000000002
 31
0.0
  0
LINE
  5
AE
330
AA
100
AcDbEntity
  8
0
  6
Continuous
 62
     0
370
    -2
100
AcDbLine
 10
0.0
 20
-0.125
 30
0.0
 11
-1.0
 21
-0.1249999999999998
 31
0.0
  0
LINE
  5
AF
330
AA
100
AcDbEntity
  8
0
  6
Continuous
 62
     0
370
    -2
100
AcDbLine
 10
0.0
 20
-0.25
 30
0.0
 11
-1.0
 21
-0.2499999999999999
 31
0.0
  0
ENDBLK
  5
AC
330
AA
100
AcDbEntity
  8
0
100
AcDbBlockEnd
  0
BLOCK
  5
B1
330
B0
100
AcDbEntity
  8
0
100
AcDbBlockBegin
  2
FXTIP_CIVIL_E
 70
     0
 10
0.0
 20
0.0
 30
0.0
  3
FXTIP_CIVIL_E
  1

  0
LINE
  5
B3
330
B0
100
AcDbEntity
  8
0
  6
Continuous
 62
     0
370
    -2
100
AcDbLine
 10
0.0
 20
0.0
 30
0.0
 11
-1.0
 21
0.0
 31
0.0
  0
LINE
  5
B4
330
B0
100
AcDbEntity
  8
0
  6
Continuous
 62
     0
370
    -2
100
AcDbLine
 10
0.0
 20
0.125
 30
0.0
 11
-1.0
 21
0.125
 31
0.0
  0
LINE
  5
B5
330
B0
100
AcDbEntity
  8
0
  6
Continuous
 62
     0
370
    -2
100
AcDbLine
 10
0.0
 20
0.25
 30
0.0
 11
-1.0
 21
0.25
 31
0.0
  0
ENDBLK
  5
B2
330
B0
100
AcDbEntity
  8
0
100
AcDbBlockEnd
  0
BLOCK
  5
B7
330
B6
100
AcDbEntity
  8
0
100
AcDbBlockBegin
  2
FXTIP_WHITEDOT_S
 70
     0
 10
0.0
 20
0.0
 30
0.0
  3
FXTIP_WHITEDOT_S
  1

  0
LINE
  5
B9
330
B6
100
AcDbEntity
  8
0
  6
Continuous
 62
     0
370
    -2
100
AcDbLine
 10
0.0
 20
0.0
 30
0.0
 11
-1.0
 21
0.0000000000000001
 31
0.0
  0
CIRCLE
  5
BA
330
B6
100
AcDbEntity
  8
0
  6
Continuous
 62
     0
370
    -2
100
AcDbCircle
 10
0.0
 20
0.0
 30
0.0
 40
0.25
  0
ENDBLK
  5
B8
330
B6
100
AcDbEntity
  8
0
100
AcDbBlockEnd
  0
BLOCK
  5
BC
330
BB
100
AcDbEntity
  8
0
100
AcDbBlockBegin
  2
FXTIP_WHITEDOT_E
 70
     0
 10
0.0
 20
0.0
 30
0.0
  3
FXTIP_WHITEDOT_E
  1

  0
LINE
  5
BE
330
BB
100
AcDbEntity
  8
0
  6
Continuous
 62
     0
370
    -2
100
AcDbLine
 10
0.0
 20
0.0
 30
0.0
 11
-1.0
 21
0.0
 31
0.0
  0
CIRCLE
  5
BF
330
BB
100
AcDbEntity
  8
0
  6
Continuous
 62
     0
370
    -2
100
AcDbCircle
 10
0.0
 20
0.0
 30
0.0
 40
0.25
  0
ENDBLK
  5
BD
330
BB
100
AcDbEntity
  8
0
100
AcDbBlockEnd
  0
BLOCK
  5
C1
330
C0
100
AcDbEntity
  8
0
100
AcDbBlockBegin
  2
FXTIP_UPARROW_S
 70
     0
 10
0.0
 20
0.0
 30
0.0
  3
FXTIP_UPARROW_S
  1

  0
LINE
  5
C3
330
C0
100
AcDbEntity
  8
0
  6
Continuous
 62
     0
370
    -2
100
AcDbLine
 10
0.0
 20
0.0
 30
0.0
 11
-1.0
 21
0.0000000000000001
 31
0.0
  0
LINE
  5
C4
330
C0
100
AcDbEntity
  8
0
  6
Continuous
 62
     0
370
    -2
100
AcDbLine
 10
0.0
 20
0.0
 30
0.0
 11
-0.9659258262890684
 21
-0.2588190451025206
 31
0.0
  0
ENDBLK
  5
C2
330
C0
100
AcDbEntity
  8
0
100
AcDbBlockEnd
  0
BLOCK
  5
C6
330
C5
100
AcDbEntity
  8
0
100
AcDbBlockBegin
  2
FXTIP_UPARROW_E
 70
     0
 10
0.0
 20
0.0
 30
0.0
  3
FXTIP_UPARROW_E
  1

  0
LINE
  5
C8
330
C5
100
AcDbEntity
  8
0
  6
Continuous
 62
     0
370
    -2
100
AcDbLine
 10
0.0
 20
0.0
 30
0.0
 11
-1.0
 21
0.0
 31
0.0
  0
LINE
  5
C9
330
C5
100
AcDbEntity
  8
0
  6
Continuous
 62
     0
370
    -2
100
AcDbLine
 10
0.0
 20
0.0
 30
0.0
 11
-0.9659258262890684
 21
0.2588190451025207
 31
0.0
  0
ENDBLK
  5
C7
330
C5
100
AcDbEntity
  8
0
100
AcDbBlockEnd
  0
BLOCK
  5
CB
330
CA
100
AcDbEntity
  8
0
100
AcDbBlockBegin
  2
FXTIP_DOWNARROW_S
 70
     0
 10
0.0
 20
0.0
 30
0.0
  3
FXTIP_DOWNARROW_S
  1

  0
LINE
  5
CD
330
CA
100
AcDbEntity
  8
0
  6
Continuous
 62
     0
370
    -2
100
AcDbLine
 10
0.0
 20
0.0
 30
0.0
 11
-1.0
 21
0.0000000000000001
 31
0.0
  0
LINE
  5
CE
330
CA
100
AcDbEntity
  8
0
  6
Continuous
 62
     0
370
    -2
100
AcDbLine
 10
0.0
 20
0.0
 30
0.0
 11
-0.9659258262890684
 21
0.2588190451025209
 31
0.0
  0
ENDBLK
  5
CC
330
CA
100
AcDbEntity
  8
0
100
AcDbBlockEnd
  0
BLOCK
  5
D0
330
CF
100
AcDbEntity
  8
0
100
AcDbBlockBegin
  2
FXTIP_DOWNARROW_E
 70
     0
 10
0.0
 20
0.0
 30
0.0
  3
FXTIP_DOWNARROW_E
  1

  0
LINE
  5
D2
330
CF
100
AcDbEntity
  8
0
  6
Continuous
 62
     0
370
    -2
100
AcDbLine
 10
0.0
 20
0.0
 30
0.0
 11
-1.0
 21
0.0
 31
0.0
  0
LINE
  5
D3
330
CF
100
AcDbEntity
  8
0
  6
Continuous
 62
     0
370
    -2
100
AcDbLine
 10
0.0
 20
0.0
 30
0.0
 11
-0.9659258262890684
 21
-0.2588190451025207
 31
0.0
  0
ENDBLK
  5
D1
330
CF
100
AcDbEntity
  8
0
100
AcDbBlockEnd
  0
BLOCK
  5
D5
330
D4
100
AcDbEntity
  8
0
100
AcDbBlockBegin
  2
FXTIP_BLACKTRIANGLE_S
 70
     0
 10
0.0
 20
0.0
 30
0.0
  3
FXTIP_BLACKTRIANGLE_S
  1

  0
LINE
  5
D7
330
D4
100
AcDbEntity
  8
0
  6
Continuous
 62
     0
370
    -2
100
AcDbLine
 10
0.0
 20
0.0
 30
0.0
 11
-1.0
 21
0.0000000000000001
 31
0.0
  0
SOLID
  5
D8
330
D4
100
AcDbEntity
  8
0
  6
Continuous
 62
     0
370
    -2
100
AcDbTrace
 10
0.0
 20
0.0
 30
0.0
 11
-0.9659258262890684
 21
-0.2588190451025206
 31
0.0
 12
-0.9659258262890684
 22
0.2588190451025209
 32
0.0
 13
-0.9659258262890684
 23
0.2588190451025209
 33
0.0
  0
ENDBLK
  5
D6
330
D4
100
AcDbEntity
  8
0
100
AcDbBlockEnd
  0
BLOCK
  5
DA
330
D9
100
AcDbEntity
  8
0
100
AcDbBlockBegin
  2
FXTIP_BLACKTRIANGLE_E
 70
     0
 10
0.0
 20
0.0
 30
0.0
  3
FXTIP_BLACKTRIANGLE_E
  1

  0
LINE
  5
DC
330
D9
100
AcDbEntity
  8
0
  6
Continuous
 62
     0
370
    -2
100
AcDbLine
 10
0.0
 20
0.0
 30
0.0
 11
-1.0
 21
0.0
 31
0.0
  0
SOLID
  5
DD
330
D9
100
AcDbEntity
  8
0
  6
Continuous
 62
     0
370
    -2
100
AcDbTrace
 10
0.0
 20
0.0
 30
0.0
 11
-0.9659258262890684
 21
0.2588190451025207
 31
0.0
 12
-0.9659258262890684
 22
-0.2588190451025207
 32
0.0
 13
-0.9659258262890684
 23
-0.2588190451025207
 33
0.0
  0
ENDBLK
  5
DB
330
D9
100
AcDbEntity
  8
0
100
AcDbBlockEnd
  0
BLOCK
  5
1B3
330
1B2
100
AcDbEntity
  8
0
100
AcDbBlockBegin
  2
BLKF023
 70
     0
 10
0.0
 20
0.0
 30
0.0
  3
BLKF023
  1

  0
ARC
  5
1B6
330
1B2
100
AcDbEntity
  8
作図レイヤ
  6
Continuous
 62
     7
370
    25
100
AcDbCircle
 10
186.542688430934
 20
158.4398095615066
 30
0.0
 40
2.9
100
AcDbArc
 50
270.0
 51
0.0
  0
LINE
  5
1B7
330
1B2
100
AcDbEntity
  8
作図レイヤ
  6
Continuous
 62
     7
370
    25
100
AcDbLine
 10
190.042688430934
 20
169.9398095615066
 30
0.0
 11
183.0426884309339
 21
169.9398095615066
 31
0.0
  0
LINE
  5
1B8
330
1B2
100
AcDbEntity
  8
作図レイヤ
  6
Continuous
 62
     7
370
    25
100
AcDbLine
 10
190.5826884309339
 20
168.6398095615066
 30
0.0
 11
182.502688430934
 21
168.6398095615066
 31
0.0
  0
LINE
  5
1B9
330
1B2
100
AcDbEntity
  8
作図レイヤ
  6
Continuous
 62
     7
370
    25
100
AcDbLine
 10
182.502688430934
 20
163.6398095615066
 30
0.0
 11
190.5826884309339
 21
163.6398095615066
 31
0.0
  0
LINE
  5
1BA
330
1B2
100
AcDbEntity
  8
作図レイヤ
  6
Continuous
 62
     7
370
    25
100
AcDbLine
 10
190.042688430934
 20
169.6398095615066
 30
0.0
 11
183.0426884309339
 21
169.6398095615066
 31
0.0
  0
LINE
  5
1BB
330
1B2
100
AcDbEntity
  8
作図レイヤ
  6
DASHDOT
 62
     4
370
    13
100
AcDbLine
 10
159.2143025918123
 20
158.4398095615066
 30
0.0
 11
186.542688430934
 21
158.4398095615066
 31
0.0
  0
LINE
  5
1BC
330
1B2
100
AcDbEntity
  8
作図レイヤ
  6
Continuous
 62
     7
370
    25
100
AcDbLine
 10
190.5826884309339
 20
163.6398095615066
 30
0.0
 11
190.5826884309339
 21
168.6398095615066
 31
0.0
  0
LINE
  5
1BD
330
1B2
100
AcDbEntity
  8
作図レイヤ
  6
Continuous
 62
     7
370
    25
100
AcDbLine
 10
190.042688430934
 20
169.9398095615066
 30
0.0
 11
190.042688430934
 21
169.6398095615066
 31
0.0
  0
LINE
  5
1BE
330
1B2
100
AcDbEntity
  8
作図レイヤ
  6
Continuous
 62
     7
370
    25
100
AcDbLine
 10
189.992688430934
 20
169.6398095615066
 30
0.0
 11
189.992688430934
 21
168.6398095615066
 31
0.0
  0
LINE
  5
1BF
330
1B2
100
AcDbEntity
  8
作図レイヤ
  6
Continuous
 62
     7
370
    25
100
AcDbLine
 10
190.042688430934
 20
161.6398095615066
 30
0.0
 11
189.442688430934
 21
161.2898095615066
 31
0.0
  0
LINE
  5
1C0
330
1B2
100
AcDbEntity
  8
作図レイヤ
  6
Continuous
 62
     7
370
    25
100
AcDbLine
 10
190.042688430934
 20
161.6398095615066
 30
0.0
 11
190.042688430934
 21
163.6398095615066
 31
0.0
  0
LINE
  5
1C1
330
1B2
100
AcDbEntity
  8
作図レイヤ
  6
Continuous
 62
     7
370
    25
100
AcDbLine
 10
189.442688430934
 20
158.4398095615066
 30
0.0
 11
189.442688430934
 21
161.2898095615066
 31
0.0
  0
LINE
  5
1C2
330
1B2
100
AcDbEntity
  8
作図レイヤ
  6
Continuous
 62
     7
370
    25
100
AcDbLine
 10
170.492688430934
 20
164.1398095615066
 30
0.0
 11
170.492688430934
 21
152.7398095615066
 31
0.0
  0
LINE
  5
1C3
330
1B2
100
AcDbEntity
  8
作図レイヤ
  6
Continuous
 62
     7
370
    25
100
AcDbLine
 10
171.992688430934
 20
164.1398095615066
 30
0.0
 11
171.992688430934
 21
152.7398095615066
 31
0.0
  0
LINE
  5
1C4
330
1B2
100
AcDbEntity
  8
作図レイヤ
  6
Continuous
 62
     7
370
    25
100
AcDbLine
 10
172.592688430934
 20
164.2398095615066
 30
0.0
 11
172.592688430934
 21
152.6398095615066
 31
0.0
  0
LINE
  5
1C5
330
1B2
100
AcDbEntity
  8
作図レイヤ
  6
Continuous
 62
     7
370
    25
100
AcDbLine
 10
172.592688430934
 20
161.5798095615066
 30
0.0
 11
171.992688430934
 21
161.5798095615066
 31
0.0
  0
LINE
  5
1C6
330
1B2
100
AcDbEntity
  8
作図レイヤ
  6
Continuous
 62
     7
370
    25
100
AcDbLine
 10
182.502688430934
 20
168.6398095615066
 30
0.0
 11
182.502688430934
 21
163.6398095615066
 31
0.0
  0
LINE
  5
1C7
330
1B2
100
AcDbEntity
  8
作図レイヤ
  6
Continuous
 62
     7
370
    25
100
AcDbLine
 10
183.0426884309339
 20
169.9398095615066
 30
0.0
 11
183.0426884309339
 21
169.6398095615066
 31
0.0
  0
LINE
  5
1C8
330
1B2
100
AcDbEntity
  8
作図レイヤ
  6
Continuous
 62
     7
370
    25
100
AcDbLine
 10
183.092688430934
 20
163.6398095615066
 30
0.0
 11
183.092688430934
 21
162.6398095615066
 31
0.0
  0
LINE
  5
1C9
330
1B2
100
AcDbEntity
  8
作図レイヤ
  6
Continuous
 62
     7
370
    25
100
AcDbLine
 10
183.092688430934
 20
169.6398095615066
 30
0.0
 11
183.092688430934
 21
168.6398095615066
 31
0.0
  0
LINE
  5
1CA
330
1B2
100
AcDbEntity
  8
作図レイヤ
  6
Continuous
 62
     7
370
    25
100
AcDbLine
 10
183.092688430934
 20
162.6398095615066
 30
0.0
 11
182.992688430934
 21
162.6398095615066
 31
0.0
  0
LINE
  5
1CB
330
1B2
100
AcDbEntity
  8
作図レイヤ
  6
Continuous
 62
     7
370
    25
100
AcDbLine
 10
182.072688430934
 20
164.2398095615066
 30
0.0
 11
172.592688430934
 21
164.2398095615066
 31
0.0
  0
LINE
  5
1CC
330
1B2
100
AcDbEntity
  8
作図レイヤ
  6
Continuous
 62
     7
370
    25
100
AcDbLine
 10
170.492688430934
 20
164.1398095615066
 30
0.0
 11
171.992688430934
 21
164.1398095615066
 31
0.0
  0
LINE
  5
1CD
330
1B2
100
AcDbEntity
  8
作図レイヤ
  6
Continuous
 62
     7
370
    25
100
AcDbLine
 10
172.592688430934
 20
155.2998095615066
 30
0.0
 11
171.992688430934
 21
155.2998095615066
 31
0.0
  0
LINE
  5
1CE
330
1B2
100
AcDbEntity
  8
作図レイヤ
  6
Continuous
 62
     7
370
    25
100
AcDbLine
 10
182.072688430934
 20
152.6398095615066
 30
0.0
 11
172.592688430934
 21
152.6398095615066
 31
0.0
  0
LINE
  5
1CF
330
1B2
100
AcDbEntity
  8
作図レイヤ
  6
Continuous
 62
     7
370
    25
100
AcDbLine
 10
182.992688430934
 20
154.2398095615066
 30
0.0
 11
185.242688430934
 21
154.2398095615066
 31
0.0
  0
LINE
  5
1D0
330
1B2
100
AcDbEntity
  8
作図レイヤ
  6
Continuous
 62
     7
370
    25
100
AcDbLine
 10
182.072688430934
 20
152.6398095615066
 30
0.0
 11
182.992688430934
 21
154.2398095615066
 31
0.0
  0
LINE
  5
1D1
330
1B2
100
AcDbEntity
  8
作図レイヤ
  6
Continuous
 62
     7
370
    25
100
AcDbLine
 10
185.242688430934
 20
154.2398095615066
 30
0.0
 11
185.992688430934
 21
155.5398095615066
 31
0.0
  0
LINE
  5
1D2
330
1B2
100
AcDbEntity
  8
作図レイヤ
  6
Continuous
 62
     7
370
    25
100
AcDbLine
 10
186.542688430934
 20
155.5398095615066
 30
0.0
 11
185.992688430934
 21
155.5398095615066
 31
0.0
  0
LINE
  5
1D3
330
1B2
100
AcDbEntity
  8
作図レイヤ
  6
Continuous
 62
     7
370
    25
100
AcDbLine
 10
170.492688430934
 20
152.7398095615066
 30
0.0
 11
171.992688430934
 21
152.7398095615066
 31
0.0
  0
LINE
  5
1D4
330
1B2
100
AcDbEntity
  8
作図レイヤ
  6
Continuous
 62
     7
370
    25
100
AcDbLine
 10
182.992688430934
 20
162.6398095615066
 30
0.0
 11
182.072688430934
 21
164.2398095615066
 31
0.0
  0
ENDBLK
  5
1B4
330
1B2
100
AcDbEntity
  8
0
100
AcDbBlockEnd
  0
BLOCK
  5
1DD
330
1DC
100
AcDbEntity
  8
0
100
AcDbBlockBegin
  2
BLKF024
 70
     0
 10
0.0
 20
0.0
 30
0.0
  3
BLKF024
  1

  0
LINE
  5
1E0
330
1DC
100
AcDbEntity
  8
作図レイヤ
  6
Continuous
 62
     7
370
    25
100
AcDbLine
 10
199.1401884309336
 20
211.8975603064613
 30
0.0
 11
199.2301884886686
 21
207.931767421884
 31
0.0
  0
LINE
  5
1E1
330
1DC
100
AcDbEntity
  8
作図レイヤ
  6
Continuous
 62
     7
370
    25
100
AcDbLine
 10
199.1401884309336
 20
208.051567725507
 30
0.0
 11
199.1989385752716
 21
207.9498095615068
 31
0.0
  0
LINE
  5
1E2
330
1DC
100
AcDbEntity
  8
作図レイヤ
  6
Continuous
 62
     7
370
    25
100
AcDbLine
 10
202.542688430934
 20
207.939809561506
 30
0.0
 11
202.5426884309341
 21
208.1498095615055
 31
0.0
  0
LINE
  5
1E3
330
1DC
100
AcDbEntity
  8
作図レイヤ
  6
Continuous
 62
     7
370
    25
100
AcDbLine
 10
203.0426884309341
 20
207.4398095615066
 30
0.0
 11
202.542688430934
 21
207.939809561506
 31
0.0
  0
LINE
  5
1E4
330
1DC
100
AcDbEntity
  8
作図レイヤ
  6
Continuous
 62
     7
370
    25
100
AcDbLine
 10
203.0426884309341
 20
207.4398095615066
 30
0.0
 11
204.5426884309341
 21
207.4398095615058
 31
0.0
  0
LINE
  5
1E5
330
1DC
100
AcDbEntity
  8
作図レイヤ
  6
Continuous
 62
     7
370
    25
100
AcDbLine
 10
203.042688430934
 20
212.6048730709678
 30
0.0
 11
204.5426884309341
 21
212.6048730709687
 31
0.0
  0
LINE
  5
1E6
330
1DC
100
AcDbEntity
  8
作図レイヤ
  6
Continuous
 62
     7
370
    25
100
AcDbLine
 10
203.0426884309341
 20
213.4398095615066
 30
0.0
 11
203.042688430934
 21
212.6048730709678
 31
0.0
  0
LINE
  5
1E7
330
1DC
100
AcDbEntity
  8
作図レイヤ
  6
Continuous
 62
     7
370
    25
100
AcDbLine
 10
202.542688430934
 20
213.4398095615066
 30
0.0
 11
202.5426884309341
 21
208.1491230448036
 31
0.0
  0
LINE
  5
1E8
330
1DC
100
AcDbEntity
  8
作図レイヤ
  6
Continuous
 62
     7
370
    25
100
AcDbLine
 10
203.0426884309341
 20
207.4398095615066
 30
0.0
 11
203.0426884309341
 21
208.2747460520455
 31
0.0
  0
LINE
  5
1E9
330
1DC
100
AcDbEntity
  8
作図レイヤ
  6
Continuous
 62
     7
370
    25
100
AcDbLine
 10
203.0426884309341
 20
208.2747460520455
 30
0.0
 11
204.5426884309341
 21
208.2747460520455
 31
0.0
  0
LINE
  5
1EA
330
1DC
100
AcDbEntity
  8
作図レイヤ
  6
Continuous
 62
     7
370
    25
100
AcDbLine
 10
198.8401884309336
 20
207.4398095615066
 30
0.0
 11
198.8401884309336
 21
208.2747460520457
 31
0.0
  0
LINE
  5
1EB
330
1DC
100
AcDbEntity
  8
作図レイヤ
  6
Continuous
 62
     7
370
    25
100
AcDbLine
 10
198.8401884309336
 20
207.4398095615066
 30
0.0
 11
192.3426884309336
 21
207.4398095615066
 31
0.0
  0
LINE
  5
1EC
330
1DC
100
AcDbEntity
  8
作図レイヤ
  6
Continuous
 62
     7
370
    25
100
AcDbLine
 10
192.3426884309336
 20
207.4398095615066
 30
0.0
 11
192.3426884309336
 21
208.2747460520457
 31
0.0
  0
LINE
  5
1ED
330
1DC
100
AcDbEntity
  8
作図レイヤ
  6
Continuous
 62
     7
370
    25
100
AcDbLine
 10
192.3426884309336
 20
208.2747460520457
 30
0.0
 11
198.8401884309336
 21
208.2747460520457
 31
0.0
  0
LINE
  5
1EE
330
1DC
100
AcDbEntity
  8
作図レイヤ
  6
Continuous
 62
     7
370
    25
100
AcDbLine
 10
192.3426884309336
 20
212.6048730709678
 30
0.0
 11
198.8401884309336
 21
212.6048730709678
 31
0.0
  0
LINE
  5
1EF
330
1DC
100
AcDbEntity
  8
作図レイヤ
  6
Continuous
 62
     7
370
    25
100
AcDbLine
 10
190.6401884309337
 20
213.4398095615066
 30
0.0
 11
190.6401884309337
 21
208.2195775902593
 31
0.0
  0
LINE
  5
1F0
330
1DC
100
AcDbEntity
  8
作図レイヤ
  6
Continuous
 62
     7
370
    25
100
AcDbLine
 10
192.3426884309336
 20
207.4398095615066
 30
0.0
 11
190.6401884309337
 21
208.2195775902593
 31
0.0
  0
LINE
  5
1F1
330
1DC
100
AcDbEntity
  8
作図レイヤ
  6
Continuous
 62
     7
370
    25
100
AcDbLine
 10
197.8401884309336
 20
207.4398095615066
 30
0.0
 11
198.8401884309336
 21
207.4398095615066
 31
0.0
  0
LINE
  5
1F2
330
1DC
100
AcDbEntity
  8
作図レイヤ
  6
Continuous
 62
     7
370
    25
100
AcDbLine
 10
199.1401884309336
 20
207.7398095615065
 30
0.0
 11
198.8401884309336
 21
207.4398095615066
 31
0.0
  0
LINE
  5
1F3
330
1DC
100
AcDbEntity
  8
作図レイヤ
  6
Continuous
 62
     7
370
    25
100
AcDbLine
 10
193.3426884309336
 20
207.4398095615066
 30
0.0
 11
192.3426884309336
 21
207.4398095615066
 31
0.0
  0
LINE
  5
1F4
330
1DC
100
AcDbEntity
  8
作図レイヤ
  6
Continuous
 62
     7
370
    25
100
AcDbLine
 10
198.8401884309336
 20
212.6048730709678
 30
0.0
 11
198.8401884309336
 21
213.4398095615066
 31
0.0
  0
LINE
  5
1F5
330
1DC
100
AcDbEntity
  8
作図レイヤ
  6
Continuous
 62
     7
370
    25
100
AcDbLine
 10
192.3426884309336
 20
212.6048730709678
 30
0.0
 11
192.3426884309336
 21
213.4398095615066
 31
0.0
  0
LINE
  5
1F6
330
1DC
100
AcDbEntity
  8
作図レイヤ
  6
Continuous
 62
     7
370
    25
100
AcDbLine
 10
199.1401884309336
 20
207.7398095615065
 30
0.0
 11
199.1401884309336
 21
213.4398095615066
 31
0.0
  0
LINE
  5
1F7
330
1DC
100
AcDbEntity
  8
作図レイヤ
  6
Continuous
 62
     7
370
    25
100
AcDbLine
 10
190.2401884309336
 20
213.4398095615066
 30
0.0
 11
190.2401884309336
 21
208.6398095615069
 31
0.0
  0
LINE
  5
1F8
330
1DC
100
AcDbEntity
  8
作図レイヤ
  6
Continuous
 62
     7
370
    25
100
AcDbLine
 10
189.2401884309336
 20
208.8398095615068
 30
0.0
 11
190.2401884309336
 21
208.6398095615069
 31
0.0
  0
LINE
  5
1F9
330
1DC
100
AcDbEntity
  8
作図レイヤ
  6
Continuous
 62
     7
370
    25
100
AcDbLine
 10
190.2401884309336
 20
208.6398095615069
 30
0.0
 11
190.6401884309337
 21
208.6398095615069
 31
0.0
  0
LINE
  5
1FA
330
1DC
100
AcDbEntity
  8
作図レイヤ
  6
Continuous
 62
     7
370
    25
100
AcDbLine
 10
189.2401884309336
 20
208.8398095615068
 30
0.0
 11
189.2401884309336
 21
213.4398095615066
 31
0.0
  0
LINE
  5
1FB
330
1DC
100
AcDbEntity
  8
作図レイヤ
  6
Continuous
 62
     7
370
    25
100
AcDbLine
 10
189.2401884309336
 20
213.4398095615066
 30
0.0
 11
189.2401884309336
 21
218.0398095615066
 31
0.0
  0
LINE
  5
1FC
330
1DC
100
AcDbEntity
  8
作図レイヤ
  6
Continuous
 62
     7
370
    25
100
AcDbLine
 10
199.4489385752716
 20
218.9298095615067
 30
0.0
 11
199.2926884309341
 21
218.6591765615068
 31
0.0
  0
LINE
  5
1FD
330
1DC
100
AcDbEntity
  8
作図レイヤ
  6
Continuous
 62
     7
370
    25
100
AcDbLine
 10
199.167688546404
 20
218.6591765615068
 30
0.0
 11
199.2926884309341
 21
218.6591765615068
 31
0.0
  0
LINE
  5
1FE
330
1DC
100
AcDbEntity
  8
作図レイヤ
  6
Continuous
 62
     7
370
    25
100
AcDbLine
 10
199.167688546404
 20
218.6591765615068
 30
0.0
 11
199.1401884309336
 21
218.706808125507
 31
0.0
  0
LINE
  5
1FF
330
1DC
100
AcDbEntity
  8
作図レイヤ
  6
Continuous
 62
     7
370
    25
100
AcDbLine
 10
190.6401884309337
 20
218.2398095615065
 30
0.0
 11
190.2401884309336
 21
218.2398095615065
 31
0.0
  0
LINE
  5
200
330
1DC
100
AcDbEntity
  8
作図レイヤ
  6
Continuous
 62
     7
370
    25
100
AcDbLine
 10
190.2401884309336
 20
218.2398095615065
 30
0.0
 11
189.2401884309336
 21
218.0398095615066
 31
0.0
  0
LINE
  5
201
330
1DC
100
AcDbEntity
  8
作図レイヤ
  6
Continuous
 62
     7
370
    25
100
AcDbLine
 10
190.2401884309336
 20
218.2398095615065
 30
0.0
 11
190.2401884309336
 21
213.4398095615066
 31
0.0
  0
LINE
  5
202
330
1DC
100
AcDbEntity
  8
作図レイヤ
  6
Continuous
 62
     7
370
    25
100
AcDbLine
 10
199.1401884309336
 20
213.4398095615066
 30
0.0
 11
199.1401884309336
 21
219.1398095615067
 31
0.0
  0
LINE
  5
203
330
1DC
100
AcDbEntity
  8
作図レイヤ
  6
Continuous
 62
     7
370
    25
100
AcDbLine
 10
199.4801884886686
 20
218.9478517011294
 30
0.0
 11
199.7301884886686
 21
207.931767421884
 31
0.0
  0
LINE
  5
204
330
1DC
100
AcDbEntity
  8
作図レイヤ
  6
Continuous
 62
     7
370
    25
100
AcDbLine
 10
199.4489385752716
 20
218.9298095615067
 30
0.0
 11
199.2926884309341
 21
218.6591765615068
 31
0.0
  0
LINE
  5
205
330
1DC
100
AcDbEntity
  8
作図レイヤ
  6
Continuous
 62
     7
370
    25
100
AcDbLine
 10
199.667688546404
 20
218.6591765615068
 30
0.0
 11
199.5114384020664
 21
218.9298095615067
 31
0.0
  0
LINE
  5
206
330
1DC
100
AcDbEntity
  8
作図レイヤ
  6
Continuous
 62
     7
370
    25
100
AcDbLine
 10
199.667688546404
 20
218.6591765615068
 30
0.0
 11
199.792688430934
 21
218.6591765615068
 31
0.0
  0
LINE
  5
207
330
1DC
100
AcDbEntity
  8
作図レイヤ
  6
Continuous
 62
     7
370
    25
100
AcDbLine
 10
199.9801884886686
 20
218.9478517011294
 30
0.0
 11
200.2301884886687
 21
207.931767421884
 31
0.0
  0
LINE
  5
208
330
1DC
100
AcDbEntity
  8
作図レイヤ
  6
Continuous
 62
     7
370
    25
100
AcDbLine
 10
200.167688546404
 20
218.6591765615068
 30
0.0
 11
200.292688430934
 21
218.6591765615068
 31
0.0
  0
LINE
  5
209
330
1DC
100
AcDbEntity
  8
作図レイヤ
  6
Continuous
 62
     7
370
    25
100
AcDbLine
 10
200.167688546404
 20
218.6591765615068
 30
0.0
 11
200.0114384020664
 21
218.9298095615067
 31
0.0
  0
LINE
  5
20A
330
1DC
100
AcDbEntity
  8
作図レイヤ
  6
Continuous
 62
     7
370
    25
100
AcDbLine
 10
199.9489385752716
 20
218.9298095615067
 30
0.0
 11
199.792688430934
 21
218.6591765615068
 31
0.0
  0
LINE
  5
20B
330
1DC
100
AcDbEntity
  8
作図レイヤ
  6
Continuous
 62
     7
370
    25
100
AcDbLine
 10
202.3479560624279
 20
218.6591765615068
 30
0.0
 11
201.667688546404
 21
218.6591765615068
 31
0.0
  0
LINE
  5
20C
330
1DC
100
AcDbEntity
  8
作図レイヤ
  6
Continuous
 62
     7
370
    25
100
AcDbLine
 10
200.4801884886686
 20
218.9478517011294
 30
0.0
 11
200.7301884886687
 21
207.931767421884
 31
0.0
  0
LINE
  5
20D
330
1DC
100
AcDbEntity
  8
作図レイヤ
  6
Continuous
 62
     7
370
    25
100
AcDbLine
 10
200.9801884886686
 20
218.9478517011294
 30
0.0
 11
201.2301884886686
 21
207.931767421884
 31
0.0
  0
LINE
  5
20E
330
1DC
100
AcDbEntity
  8
作図レイヤ
  6
Continuous
 62
     7
370
    25
100
AcDbLine
 10
201.4801884886686
 20
218.9478517011294
 30
0.0
 11
201.7301884886687
 21
207.931767421884
 31
0.0
  0
LINE
  5
20F
330
1DC
100
AcDbEntity
  8
作図レイヤ
  6
Continuous
 62
     7
370
    25
100
AcDbLine
 10
200.667688546404
 20
218.6591765615068
 30
0.0
 11
200.792688430934
 21
218.6591765615068
 31
0.0
  0
LINE
  5
210
330
1DC
100
AcDbEntity
  8
作図レイヤ
  6
Continuous
 62
     7
370
    25
100
AcDbLine
 10
200.4489385752716
 20
218.9298095615067
 30
0.0
 11
200.292688430934
 21
218.6591765615068
 31
0.0
  0
LINE
  5
211
330
1DC
100
AcDbEntity
  8
作図レイヤ
  6
Continuous
 62
     7
370
    25
100
AcDbLine
 10
200.667688546404
 20
218.6591765615068
 30
0.0
 11
200.5114384020664
 21
218.9298095615067
 31
0.0
  0
LINE
  5
212
330
1DC
100
AcDbEntity
  8
作図レイヤ
  6
Continuous
 62
     7
370
    25
100
AcDbLine
 10
200.667688546404
 20
218.6591765615068
 30
0.0
 11
200.792688430934
 21
218.6591765615068
 31
0.0
  0
LINE
  5
213
330
1DC
100
AcDbEntity
  8
作図レイヤ
  6
Continuous
 62
     7
370
    25
100
AcDbLine
 10
201.167688546404
 20
218.6591765615068
 30
0.0
 11
201.292688430934
 21
218.6591765615068
 31
0.0
  0
LINE
  5
214
330
1DC
100
AcDbEntity
  8
作図レイヤ
  6
Continuous
 62
     7
370
    25
100
AcDbLine
 10
200.9489385752716
 20
218.9298095615067
 30
0.0
 11
200.792688430934
 21
218.6591765615068
 31
0.0
  0
LINE
  5
215
330
1DC
100
AcDbEntity
  8
作図レイヤ
  6
Continuous
 62
     7
370
    25
100
AcDbLine
 10
201.167688546404
 20
218.6591765615068
 30
0.0
 11
201.0114384020664
 21
218.9298095615067
 31
0.0
  0
LINE
  5
216
330
1DC
100
AcDbEntity
  8
作図レイヤ
  6
Continuous
 62
     7
370
    25
100
AcDbLine
 10
201.167688546404
 20
218.6591765615068
 30
0.0
 11
201.292688430934
 21
218.6591765615068
 31
0.0
  0
LINE
  5
217
330
1DC
100
AcDbEntity
  8
作図レイヤ
  6
Continuous
 62
     7
370
    25
100
AcDbLine
 10
201.167688546404
 20
218.6591765615068
 30
0.0
 11
201.292688430934
 21
218.6591765615068
 31
0.0
  0
LINE
  5
218
330
1DC
100
AcDbEntity
  8
作図レイヤ
  6
Continuous
 62
     7
370
    25
100
AcDbLine
 10
201.4489385752716
 20
218.9298095615067
 30
0.0
 11
201.292688430934
 21
218.6591765615068
 31
0.0
  0
LINE
  5
219
330
1DC
100
AcDbEntity
  8
作図レイヤ
  6
Continuous
 62
     7
370
    25
100
AcDbLine
 10
201.667688546404
 20
218.6591765615068
 30
0.0
 11
201.5114384020664
 21
218.9298095615067
 31
0.0
  0
LINE
  5
21A
330
1DC
100
AcDbEntity
  8
作図レイヤ
  6
Continuous
 62
     7
370
    25
100
AcDbLine
 10
201.7614384020664
 20
207.9498095615068
 30
0.0
 11
201.917688546404
 21
208.2204425615067
 31
0.0
  0
LINE
  5
21B
330
1DC
100
AcDbEntity
  8
作図レイヤ
  6
Continuous
 62
     7
370
    25
100
AcDbLine
 10
201.5426884309337
 20
208.2204425615067
 30
0.0
 11
201.6989385752714
 21
207.9498095615068
 31
0.0
  0
LINE
  5
21C
330
1DC
100
AcDbEntity
  8
作図レイヤ
  6
Continuous
 62
     7
370
    25
100
AcDbLine
 10
201.5426884309337
 20
208.2204425615067
 30
0.0
 11
201.417688546404
 21
208.2204425615067
 31
0.0
  0
LINE
  5
21D
330
1DC
100
AcDbEntity
  8
作図レイヤ
  6
Continuous
 62
     7
370
    25
100
AcDbLine
 10
201.5426884309337
 20
208.2204425615067
 30
0.0
 11
201.417688546404
 21
208.2204425615067
 31
0.0
  0
LINE
  5
21E
330
1DC
100
AcDbEntity
  8
作図レイヤ
  6
Continuous
 62
     7
370
    25
100
AcDbLine
 10
201.2614384020664
 20
207.9498095615068
 30
0.0
 11
201.417688546404
 21
208.2204425615067
 31
0.0
  0
LINE
  5
21F
330
1DC
100
AcDbEntity
  8
作図レイヤ
  6
Continuous
 62
     7
370
    25
100
AcDbLine
 10
201.0426884309337
 20
208.2204425615067
 30
0.0
 11
201.1989385752714
 21
207.9498095615068
 31
0.0
  0
LINE
  5
220
330
1DC
100
AcDbEntity
  8
作図レイヤ
  6
Continuous
 62
     7
370
    25
100
AcDbLine
 10
201.5426884309337
 20
208.2204425615067
 30
0.0
 11
201.417688546404
 21
208.2204425615067
 31
0.0
  0
LINE
  5
221
330
1DC
100
AcDbEntity
  8
作図レイヤ
  6
Continuous
 62
     7
370
    25
100
AcDbLine
 10
201.0426884309337
 20
208.2204425615067
 30
0.0
 11
200.917688546404
 21
208.2204425615067
 31
0.0
  0
LINE
  5
222
330
1DC
100
AcDbEntity
  8
作図レイヤ
  6
Continuous
 62
     7
370
    25
100
AcDbLine
 10
200.7614384020664
 20
207.9498095615068
 30
0.0
 11
200.917688546404
 21
208.2204425615067
 31
0.0
  0
LINE
  5
223
330
1DC
100
AcDbEntity
  8
作図レイヤ
  6
Continuous
 62
     7
370
    25
100
AcDbLine
 10
200.5426884309337
 20
208.2204425615067
 30
0.0
 11
200.6989385752714
 21
207.9498095615068
 31
0.0
  0
LINE
  5
224
330
1DC
100
AcDbEntity
  8
作図レイヤ
  6
Continuous
 62
     7
370
    25
100
AcDbLine
 10
201.0426884309337
 20
208.2204425615067
 30
0.0
 11
200.917688546404
 21
208.2204425615067
 31
0.0
  0
LINE
  5
225
330
1DC
100
AcDbEntity
  8
作図レイヤ
  6
Continuous
 62
     7
370
    25
100
AcDbLine
 10
200.2614384020664
 20
207.9498095615068
 30
0.0
 11
200.417688546404
 21
208.2204425615067
 31
0.0
  0
LINE
  5
226
330
1DC
100
AcDbEntity
  8
作図レイヤ
  6
Continuous
 62
     7
370
    25
100
AcDbLine
 10
200.0426884309337
 20
208.2204425615067
 30
0.0
 11
200.1989385752716
 21
207.9498095615068
 31
0.0
  0
LINE
  5
227
330
1DC
100
AcDbEntity
  8
作図レイヤ
  6
Continuous
 62
     7
370
    25
100
AcDbLine
 10
200.5426884309337
 20
208.2204425615067
 30
0.0
 11
200.417688546404
 21
208.2204425615067
 31
0.0
  0
LINE
  5
228
330
1DC
100
AcDbEntity
  8
作図レイヤ
  6
Continuous
 62
     7
370
    25
100
AcDbLine
 10
199.7614384020664
 20
207.9498095615068
 30
0.0
 11
199.917688546404
 21
208.2204425615067
 31
0.0
  0
LINE
  5
229
330
1DC
100
AcDbEntity
  8
作図レイヤ
  6
Continuous
 62
     7
370
    25
100
AcDbLine
 10
199.5426884309337
 20
208.2204425615067
 30
0.0
 11
199.6989385752716
 21
207.9498095615068
 31
0.0
  0
LINE
  5
22A
330
1DC
100
AcDbEntity
  8
作図レイヤ
  6
Continuous
 62
     7
370
    25
100
AcDbLine
 10
200.0426884309337
 20
208.2204425615067
 30
0.0
 11
199.917688546404
 21
208.2204425615067
 31
0.0
  0
LINE
  5
22B
330
1DC
100
AcDbEntity
  8
作図レイヤ
  6
Continuous
 62
     7
370
    25
100
AcDbLine
 10
199.2614384020664
 20
207.9498095615068
 30
0.0
 11
199.417688546404
 21
208.2204425615067
 31
0.0
  0
LINE
  5
22C
330
1DC
100
AcDbEntity
  8
作図レイヤ
  6
Continuous
 62
     7
370
    25
100
AcDbLine
 10
199.5426884309337
 20
208.2204425615067
 30
0.0
 11
199.417688546404
 21
208.2204425615067
 31
0.0
  0
LINE
  5
22D
330
1DC
100
AcDbEntity
  8
作図レイヤ
  6
Continuous
 62
     7
370
    25
100
AcDbLine
 10
201.917688546404
 20
208.2204425615067
 30
0.0
 11
202.3426884309341
 21
208.2204425615067
 31
0.0
  0
LINE
  5
22E
330
1DC
100
AcDbEntity
  8
作図レイヤ
  6
Continuous
 62
     7
370
    25
100
AcDbLine
 10
192.3426884309336
 20
213.4398095615066
 30
0.0
 11
192.3426884309336
 21
214.2747460520455
 31
0.0
  0
LINE
  5
22F
330
1DC
100
AcDbEntity
  8
作図レイヤ
  6
Continuous
 62
     7
370
    25
100
AcDbLine
 10
198.8401884309336
 20
213.4398095615066
 30
0.0
 11
198.8401884309336
 21
214.2747460520455
 31
0.0
  0
LINE
  5
230
330
1DC
100
AcDbEntity
  8
作図レイヤ
  6
Continuous
 62
     7
370
    25
100
AcDbLine
 10
192.3426884309336
 20
219.4398095615066
 30
0.0
 11
193.3426884309336
 21
219.4398095615066
 31
0.0
  0
LINE
  5
231
330
1DC
100
AcDbEntity
  8
作図レイヤ
  6
Continuous
 62
     7
370
    25
100
AcDbLine
 10
198.8401884309336
 20
219.4398095615066
 30
0.0
 11
199.1401884309336
 21
219.1398095615067
 31
0.0
  0
LINE
  5
232
330
1DC
100
AcDbEntity
  8
作図レイヤ
  6
Continuous
 62
     7
370
    25
100
AcDbLine
 10
198.8401884309336
 20
219.4398095615066
 30
0.0
 11
197.8401884309336
 21
219.4398095615066
 31
0.0
  0
LINE
  5
233
330
1DC
100
AcDbEntity
  8
作図レイヤ
  6
Continuous
 62
     7
370
    25
100
AcDbLine
 10
190.6401884309337
 20
218.6600415327539
 30
0.0
 11
192.3426884309336
 21
219.4398095615066
 31
0.0
  0
LINE
  5
234
330
1DC
100
AcDbEntity
  8
作図レイヤ
  6
Continuous
 62
     7
370
    25
100
AcDbLine
 10
190.6401884309337
 20
218.6600415327539
 30
0.0
 11
190.6401884309337
 21
213.4398095615066
 31
0.0
  0
LINE
  5
235
330
1DC
100
AcDbEntity
  8
作図レイヤ
  6
Continuous
 62
     7
370
    25
100
AcDbLine
 10
198.8401884309336
 20
214.2747460520455
 30
0.0
 11
192.3426884309336
 21
214.2747460520455
 31
0.0
  0
LINE
  5
236
330
1DC
100
AcDbEntity
  8
作図レイヤ
  6
Continuous
 62
     7
370
    25
100
AcDbLine
 10
198.8401884309336
 20
218.6048730709676
 30
0.0
 11
192.3426884309336
 21
218.6048730709676
 31
0.0
  0
LINE
  5
237
330
1DC
100
AcDbEntity
  8
作図レイヤ
  6
Continuous
 62
     7
370
    25
100
AcDbLine
 10
192.3426884309336
 20
218.6048730709676
 30
0.0
 11
192.3426884309336
 21
219.4398095615066
 31
0.0
  0
LINE
  5
238
330
1DC
100
AcDbEntity
  8
作図レイヤ
  6
Continuous
 62
     7
370
    25
100
AcDbLine
 10
192.3426884309336
 20
219.4398095615066
 30
0.0
 11
198.8401884309336
 21
219.4398095615066
 31
0.0
  0
LINE
  5
239
330
1DC
100
AcDbEntity
  8
作図レイヤ
  6
Continuous
 62
     7
370
    25
100
AcDbLine
 10
198.8401884309336
 20
218.6048730709676
 30
0.0
 11
198.8401884309336
 21
219.4398095615066
 31
0.0
  0
LINE
  5
23A
330
1DC
100
AcDbEntity
  8
作図レイヤ
  6
Continuous
 62
     7
370
    25
100
AcDbLine
 10
204.5426884309341
 20
219.4398095615076
 30
0.0
 11
204.5426884309341
 21
207.4398095615058
 31
0.0
  0
LINE
  5
23B
330
1DC
100
AcDbEntity
  8
作図レイヤ
  6
Continuous
 62
     7
370
    25
100
AcDbLine
 10
204.5426884309341
 20
218.6048730709678
 30
0.0
 11
203.0426884309341
 21
218.6048730709678
 31
0.0
  0
LINE
  5
23C
330
1DC
100
AcDbEntity
  8
作図レイヤ
  6
Continuous
 62
     7
370
    25
100
AcDbLine
 10
203.0426884309341
 20
218.6048730709678
 30
0.0
 11
203.0426884309341
 21
219.4398095615066
 31
0.0
  0
LINE
  5
23D
330
1DC
100
AcDbEntity
  8
作図レイヤ
  6
Continuous
 62
     7
370
    25
100
AcDbLine
 10
202.5426884309341
 20
218.7304960782098
 30
0.0
 11
202.542688430934
 21
213.4398095615066
 31
0.0
  0
LINE
  5
23E
330
1DC
100
AcDbEntity
  8
作図レイヤ
  6
Continuous
 62
     7
370
    25
100
AcDbLine
 10
203.042688430934
 20
214.2747460520455
 30
0.0
 11
203.0426884309341
 21
213.4398095615066
 31
0.0
  0
LINE
  5
23F
330
1DC
100
AcDbEntity
  8
作図レイヤ
  6
Continuous
 62
     7
370
    25
100
AcDbLine
 10
204.5426884309341
 20
214.2747460520447
 30
0.0
 11
203.042688430934
 21
214.2747460520455
 31
0.0
  0
LINE
  5
240
330
1DC
100
AcDbEntity
  8
作図レイヤ
  6
Continuous
 62
     7
370
    25
100
AcDbLine
 10
204.5426884309341
 20
219.4398095615076
 30
0.0
 11
203.0426884309341
 21
219.4398095615066
 31
0.0
  0
LINE
  5
241
330
1DC
100
AcDbEntity
  8
作図レイヤ
  6
Continuous
 62
     7
370
    25
100
AcDbLine
 10
202.542688430934
 20
218.9398095615074
 30
0.0
 11
203.0426884309341
 21
219.4398095615066
 31
0.0
  0
LINE
  5
242
330
1DC
100
AcDbEntity
  8
作図レイヤ
  6
Continuous
 62
     7
370
    25
100
AcDbLine
 10
202.5426884309341
 20
218.7298095615078
 30
0.0
 11
202.542688430934
 21
218.9398095615074
 31
0.0
  0
ARC
  5
243
330
1DC
100
AcDbEntity
  8
作図レイヤ
  6
Continuous
 62
     7
370
    25
100
AcDbCircle
 10
202.3426884309341
 20
218.859176561507
 30
0.0
 40
0.2000000000001947
100
AcDbArc
 50
270.0
 51
0.0
  0
ARC
  5
244
330
1DC
100
AcDbEntity
  8
作図レイヤ
  6
Continuous
 62
     7
370
    25
100
AcDbCircle
 10
202.3426884309341
 20
208.0204425615063
 30
0.0
 40
0.2000000000000028
100
AcDbArc
 50
0.0
 51
90.0
  0
ARC
  5
245
330
1DC
100
AcDbEntity
  8
作図レイヤ
  6
Continuous
 62
     7
370
    25
100
AcDbCircle
 10
207.4801884309241
 20
210.4398095615076
 30
0.0
 40
4.937499999990713
100
AcDbArc
 50
153.9921761143133
 51
206.0078238857059
  0
ARC
  5
246
330
1DC
100
AcDbEntity
  8
作図レイヤ
  6
Continuous
 62
     7
370
    25
100
AcDbCircle
 10
196.7801884309338
 20
210.4398095615066
 30
0.0
 40
4.937500000000183
100
AcDbArc
 50
153.9921761143553
 51
206.0078238856436
  0
ARC
  5
247
330
1DC
100
AcDbEntity
  8
作図レイヤ
  6
Continuous
 62
     7
370
    25
100
AcDbCircle
 10
191.1776884309343
 20
210.4398095615066
 30
0.0
 40
7.962499999999304
100
AcDbArc
 50
344.2221938995037
 51
15.77780610049704
  0
ARC
  5
248
330
1DC
100
AcDbEntity
  8
作図レイヤ
  6
Continuous
 62
     7
370
    25
100
AcDbCircle
 10
199.480188488669
 20
218.9117674030157
 30
0.0
 40
0.03608429811366
100
AcDbArc
 50
30.00001729708277
 51
149.9999827029172
  0
ARC
  5
249
330
1DC
100
AcDbEntity
  8
作図レイヤ
  6
Continuous
 62
     7
370
    25
100
AcDbCircle
 10
199.980188488669
 20
218.9117674030157
 30
0.0
 40
0.03608429811366
100
AcDbArc
 50
30.00001729708277
 51
149.9999827029172
  0
ARC
  5
24A
330
1DC
100
AcDbEntity
  8
作図レイヤ
  6
Continuous
 62
     7
370
    25
100
AcDbCircle
 10
200.480188488669
 20
218.9117674030157
 30
0.0
 40
0.03608429811366
100
AcDbArc
 50
30.00001729708277
 51
149.9999827029172
  0
ARC
  5
24B
330
1DC
100
AcDbEntity
  8
作図レイヤ
  6
Continuous
 62
     7
370
    25
100
AcDbCircle
 10
200.980188488669
 20
218.9117674030157
 30
0.0
 40
0.03608429811366
100
AcDbArc
 50
30.00001729708277
 51
149.9999827029172
  0
ARC
  5
24C
330
1DC
100
AcDbEntity
  8
作図レイヤ
  6
Continuous
 62
     7
370
    25
100
AcDbCircle
 10
201.480188488669
 20
218.9117674030157
 30
0.0
 40
0.03608429811366
100
AcDbArc
 50
30.00001729708277
 51
149.9999827029172
  0
ARC
  5
24D
330
1DC
100
AcDbEntity
  8
作図レイヤ
  6
Continuous
 62
     7
370
    25
100
AcDbCircle
 10
201.730188488669
 20
207.9678517199976
 30
0.0
 40
0.0360842981138385
100
AcDbArc
 50
210.0000172969191
 51
329.9999827029143
  0
ARC
  5
24E
330
1DC
100
AcDbEntity
  8
作図レイヤ
  6
Continuous
 62
     7
370
    25
100
AcDbCircle
 10
201.230188488669
 20
207.9678517199976
 30
0.0
 40
0.0360842981138385
100
AcDbArc
 50
210.0000172969191
 51
329.9999827029143
  0
ARC
  5
24F
330
1DC
100
AcDbEntity
  8
作図レイヤ
  6
Continuous
 62
     7
370
    25
100
AcDbCircle
 10
200.730188488669
 20
207.9678517199976
 30
0.0
 40
0.0360842981138385
100
AcDbArc
 50
210.0000172969191
 51
329.9999827029143
  0
ARC
  5
250
330
1DC
100
AcDbEntity
  8
作図レイヤ
  6
Continuous
 62
     7
370
    25
100
AcDbCircle
 10
200.230188488669
 20
207.9678517199976
 30
0.0
 40
0.0360842981136662
100
AcDbArc
 50
210.0000172970771
 51
329.9999827029229
  0
ARC
  5
251
330
1DC
100
AcDbEntity
  8
作図レイヤ
  6
Continuous
 62
     7
370
    25
100
AcDbCircle
 10
199.730188488669
 20
207.9678517199976
 30
0.0
 40
0.0360842981136662
100
AcDbArc
 50
210.0000172970771
 51
329.9999827029229
  0
ARC
  5
252
330
1DC
100
AcDbEntity
  8
作図レイヤ
  6
Continuous
 62
     7
370
    25
100
AcDbCircle
 10
199.230188488669
 20
207.9678517199976
 30
0.0
 40
0.0360842981136662
100
AcDbArc
 50
210.0000172970771
 51
329.9999827029229
  0
ARC
  5
253
330
1DC
100
AcDbEntity
  8
作図レイヤ
  6
Continuous
 62
     7
370
    25
100
AcDbCircle
 10
191.1776884309343
 20
216.4398095615066
 30
0.0
 40
7.962499999999332
100
AcDbArc
 50
344.2221938995031
 51
15.77780610049628
  0
ARC
  5
254
330
1DC
100
AcDbEntity
  8
作図レイヤ
  6
Continuous
 62
     7
370
    25
100
AcDbCircle
 10
196.7801884309338
 20
216.4398095615066
 30
0.0
 40
4.937500000000136
100
AcDbArc
 50
153.9921761143564
 51
206.0078238856447
  0
ARC
  5
255
330
1DC
100
AcDbEntity
  8
作図レイヤ
  6
Continuous
 62
     7
370
    25
100
AcDbCircle
 10
207.4801884309241
 20
216.4398095615058
 30
0.0
 40
4.937499999991412
100
AcDbArc
 50
153.9921761142941
 51
206.0078238856867
  0
ENDBLK
  5
1DE
330
1DC
100
AcDbEntity
  8
0
100
AcDbBlockEnd
  0
BLOCK
  5
25E
330
25D
100
AcDbEntity
  8
0
100
AcDbBlockBegin
  2
BLKF025
 70
     0
 10
0.0
 20
0.0
 30
0.0
  3
BLKF025
  1

  0
LINE
  5
261
330
25D
100
AcDbEntity
  8
作図レイヤ
  6
Continuous
 62
     7
370
    25
100
AcDbLine
 10
63.32408410556621
 20
219.4398095615066
 30
0.0
 11
68.32408410556621
 21
219.4398095615066
 31
0.0
  0
LINE
  5
262
330
25D
100
AcDbEntity
  8
作図レイヤ
  6
Continuous
 62
     7
370
    25
100
AcDbLine
 10
69.77023652827267
 20
218.6048730709677
 30
0.0
 11
72.27023652827269
 21
214.2747460520455
 31
0.0
  0
LINE
  5
263
330
25D
100
AcDbEntity
  8
作図レイヤ
  6
Continuous
 62
     7
370
    25
100
AcDbLine
 10
72.27023652827269
 20
212.6048730709677
 30
0.0
 11
69.77023652827267
 21
208.2747460520455
 31
0.0
  0
LINE
  5
264
330
25D
100
AcDbEntity
  8
作図レイヤ
  6
Continuous
 62
     7
370
    25
100
AcDbLine
 10
68.32408410556621
 20
207.4398095615066
 30
0.0
 11
63.32408410556621
 21
207.4398095615066
 31
0.0
  0
LINE
  5
265
330
25D
100
AcDbEntity
  8
作図レイヤ
  6
Continuous
 62
     7
370
    25
100
AcDbLine
 10
61.87793168285957
 20
208.2747460520455
 30
0.0
 11
59.37793168285957
 21
212.6048730709677
 31
0.0
  0
LINE
  5
266
330
25D
100
AcDbEntity
  8
作図レイヤ
  6
Continuous
 62
     7
370
    25
100
AcDbLine
 10
59.37793168285957
 20
214.2747460520455
 30
0.0
 11
61.87793168285957
 21
218.6048730709677
 31
0.0
  0
ARC
  5
267
330
25D
100
AcDbEntity
  8
作図レイヤ
  6
Continuous
 62
     7
370
    25
100
AcDbCircle
 10
65.82408410556621
 20
213.4398095615066
 30
0.0
 40
6.499999999999916
100
AcDbArc
 50
52.61986494804143
 51
67.38013505195953
  0
ARC
  5
268
330
25D
100
AcDbEntity
  8
作図レイヤ
  6
Continuous
 62
     7
370
    25
100
AcDbCircle
 10
65.82408410556621
 20
213.4398095615066
 30
0.0
 40
6.499999999999901
100
AcDbArc
 50
0.0
 51
7.380135051959666
  0
ARC
  5
269
330
25D
100
AcDbEntity
  8
作図レイヤ
  6
Continuous
 62
     7
370
    25
100
AcDbCircle
 10
65.82408410556621
 20
213.4398095615066
 30
0.0
 40
6.5
100
AcDbArc
 50
292.6198649480405
 51
307.3801350519585
  0
ARC
  5
26A
330
25D
100
AcDbEntity
  8
作図レイヤ
  6
Continuous
 62
     7
370
    25
100
AcDbCircle
 10
65.82408410556621
 20
213.4398095615066
 30
0.0
 40
6.499999999999992
100
AcDbArc
 50
232.6198649480406
 51
247.3801350519595
  0
ARC
  5
26B
330
25D
100
AcDbEntity
  8
作図レイヤ
  6
Continuous
 62
     7
370
    25
100
AcDbCircle
 10
65.82408410556621
 20
213.4398095615066
 30
0.0
 40
6.500000000000007
100
AcDbArc
 50
180.0
 51
187.3801350519596
  0
ARC
  5
26C
330
25D
100
AcDbEntity
  8
作図レイヤ
  6
Continuous
 62
     7
370
    25
100
AcDbCircle
 10
65.82408410556621
 20
213.4398095615066
 30
0.0
 40
6.5
100
AcDbArc
 50
112.6198649480404
 51
127.3801350519594
  0
ARC
  5
26D
330
25D
100
AcDbEntity
  8
作図レイヤ
  6
Continuous
 62
     7
370
    25
100
AcDbCircle
 10
65.82408410556621
 20
213.4398095615066
 30
0.0
 40
6.499999999999971
100
AcDbArc
 50
172.6198649480405
 51
180.0
  0
ARC
  5
26E
330
25D
100
AcDbEntity
  8
作図レイヤ
  6
Continuous
 62
     7
370
    25
100
AcDbCircle
 10
65.82408410556621
 20
213.4398095615066
 30
0.0
 40
6.499999999999857
100
AcDbArc
 50
352.6198649480403
 51
0.0
  0
CIRCLE
  5
26F
330
25D
100
AcDbEntity
  8
作図レイヤ
  6
Continuous
 62
     7
370
    25
100
AcDbCircle
 10
65.82408410556621
 20
213.4398095615066
 30
0.0
 40
5.2202319712473
  0
CIRCLE
  5
270
330
25D
100
AcDbEntity
  8
作図レイヤ
  6
Continuous
 62
     7
370
    25
100
AcDbCircle
 10
65.82408410556621
 20
213.4398095615066
 30
0.0
 40
4.799999999999798
  0
CIRCLE
  5
271
330
25D
100
AcDbEntity
  8
作図レイヤ
  6
Continuous
 62
     7
370
    25
100
AcDbCircle
 10
65.82408410556621
 20
213.4398095615066
 30
0.0
 40
4.599999999999894
  0
CIRCLE
  5
272
330
25D
100
AcDbEntity
  8
作図レイヤ
  6
Continuous
 62
     7
370
    25
100
AcDbCircle
 10
65.82408410556621
 20
213.4398095615066
 30
0.0
 40
4.099999999999894
  0
ENDBLK
  5
25F
330
25D
100
AcDbEntity
  8
0
100
AcDbBlockEnd
  0
BLOCK
  5
27A
330
279
100
AcDbEntity
  8
0
100
AcDbBlockBegin
  2
BLKF026
 70
     0
 10
0.0
 20
0.0
 30
0.0
  3
BLKF026
  1

  0
ARC
  5
27D
330
279
100
AcDbEntity
  8
作図レイヤ
  6
Continuous
 62
     7
370
    25
100
AcDbCircle
 10
219.542688430934
 20
158.4398095615066
 30
0.0
 40
2.9
100
AcDbArc
 50
270.0
 51
0.0
  0
LINE
  5
27E
330
279
100
AcDbEntity
  8
作図レイヤ
  6
Continuous
 62
     7
370
    25
100
AcDbLine
 10
223.042688430934
 20
169.9398095615066
 30
0.0
 11
216.042688430934
 21
169.9398095615066
 31
0.0
  0
LINE
  5
27F
330
279
100
AcDbEntity
  8
作図レイヤ
  6
Continuous
 62
     7
370
    25
100
AcDbLine
 10
223.582688430934
 20
168.6398095615066
 30
0.0
 11
215.502688430934
 21
168.6398095615066
 31
0.0
  0
LINE
  5
280
330
279
100
AcDbEntity
  8
作図レイヤ
  6
Continuous
 62
     7
370
    25
100
AcDbLine
 10
215.502688430934
 20
163.6398095615066
 30
0.0
 11
223.582688430934
 21
163.6398095615066
 31
0.0
  0
LINE
  5
281
330
279
100
AcDbEntity
  8
作図レイヤ
  6
Continuous
 62
     7
370
    25
100
AcDbLine
 10
223.042688430934
 20
169.6398095615066
 30
0.0
 11
216.042688430934
 21
169.6398095615066
 31
0.0
  0
LINE
  5
282
330
279
100
AcDbEntity
  8
作図レイヤ
  6
DASHDOT
 62
     4
370
    13
100
AcDbLine
 10
192.2143025918123
 20
158.4398095615066
 30
0.0
 11
219.542688430934
 21
158.4398095615066
 31
0.0
  0
LINE
  5
283
330
279
100
AcDbEntity
  8
作図レイヤ
  6
Continuous
 62
     7
370
    25
100
AcDbLine
 10
223.582688430934
 20
163.6398095615066
 30
0.0
 11
223.582688430934
 21
168.6398095615066
 31
0.0
  0
LINE
  5
284
330
279
100
AcDbEntity
  8
作図レイヤ
  6
Continuous
 62
     7
370
    25
100
AcDbLine
 10
223.042688430934
 20
169.9398095615066
 30
0.0
 11
223.042688430934
 21
169.6398095615066
 31
0.0
  0
LINE
  5
285
330
279
100
AcDbEntity
  8
作図レイヤ
  6
Continuous
 62
     7
370
    25
100
AcDbLine
 10
222.992688430934
 20
169.6398095615066
 30
0.0
 11
222.992688430934
 21
168.6398095615066
 31
0.0
  0
LINE
  5
286
330
279
100
AcDbEntity
  8
作図レイヤ
  6
Continuous
 62
     7
370
    25
100
AcDbLine
 10
223.042688430934
 20
161.6398095615066
 30
0.0
 11
222.442688430934
 21
161.2898095615066
 31
0.0
  0
LINE
  5
287
330
279
100
AcDbEntity
  8
作図レイヤ
  6
Continuous
 62
     7
370
    25
100
AcDbLine
 10
223.042688430934
 20
161.6398095615066
 30
0.0
 11
223.042688430934
 21
163.6398095615066
 31
0.0
  0
LINE
  5
288
330
279
100
AcDbEntity
  8
作図レイヤ
  6
Continuous
 62
     7
370
    25
100
AcDbLine
 10
222.442688430934
 20
158.4398095615066
 30
0.0
 11
222.442688430934
 21
161.2898095615066
 31
0.0
  0
LINE
  5
289
330
279
100
AcDbEntity
  8
作図レイヤ
  6
Continuous
 62
     7
370
    25
100
AcDbLine
 10
203.492688430934
 20
164.1398095615066
 30
0.0
 11
203.492688430934
 21
152.7398095615066
 31
0.0
  0
LINE
  5
28A
330
279
100
AcDbEntity
  8
作図レイヤ
  6
Continuous
 62
     7
370
    25
100
AcDbLine
 10
204.992688430934
 20
164.1398095615066
 30
0.0
 11
204.992688430934
 21
152.7398095615066
 31
0.0
  0
LINE
  5
28B
330
279
100
AcDbEntity
  8
作図レイヤ
  6
Continuous
 62
     7
370
    25
100
AcDbLine
 10
205.592688430934
 20
164.2398095615066
 30
0.0
 11
205.592688430934
 21
152.6398095615066
 31
0.0
  0
LINE
  5
28C
330
279
100
AcDbEntity
  8
作図レイヤ
  6
Continuous
 62
     7
370
    25
100
AcDbLine
 10
205.592688430934
 20
161.5798095615066
 30
0.0
 11
204.992688430934
 21
161.5798095615066
 31
0.0
  0
LINE
  5
28D
330
279
100
AcDbEntity
  8
作図レイヤ
  6
Continuous
 62
     7
370
    25
100
AcDbLine
 10
215.502688430934
 20
168.6398095615066
 30
0.0
 11
215.502688430934
 21
163.6398095615066
 31
0.0
  0
LINE
  5
28E
330
279
100
AcDbEntity
  8
作図レイヤ
  6
Continuous
 62
     7
370
    25
100
AcDbLine
 10
216.042688430934
 20
169.9398095615066
 30
0.0
 11
216.042688430934
 21
169.6398095615066
 31
0.0
  0
LINE
  5
28F
330
279
100
AcDbEntity
  8
作図レイヤ
  6
Continuous
 62
     7
370
    25
100
AcDbLine
 10
216.092688430934
 20
163.6398095615066
 30
0.0
 11
216.092688430934
 21
162.6398095615066
 31
0.0
  0
LINE
  5
290
330
279
100
AcDbEntity
  8
作図レイヤ
  6
Continuous
 62
     7
370
    25
100
AcDbLine
 10
216.092688430934
 20
169.6398095615066
 30
0.0
 11
216.092688430934
 21
168.6398095615066
 31
0.0
  0
LINE
  5
291
330
279
100
AcDbEntity
  8
作図レイヤ
  6
Continuous
 62
     7
370
    25
100
AcDbLine
 10
216.092688430934
 20
162.6398095615066
 30
0.0
 11
215.992688430934
 21
162.6398095615066
 31
0.0
  0
LINE
  5
292
330
279
100
AcDbEntity
  8
作図レイヤ
  6
Continuous
 62
     7
370
    25
100
AcDbLine
 10
215.072688430934
 20
164.2398095615066
 30
0.0
 11
205.592688430934
 21
164.2398095615066
 31
0.0
  0
LINE
  5
293
330
279
100
AcDbEntity
  8
作図レイヤ
  6
Continuous
 62
     7
370
    25
100
AcDbLine
 10
203.492688430934
 20
164.1398095615066
 30
0.0
 11
204.992688430934
 21
164.1398095615066
 31
0.0
  0
LINE
  5
294
330
279
100
AcDbEntity
  8
作図レイヤ
  6
Continuous
 62
     7
370
    25
100
AcDbLine
 10
205.592688430934
 20
155.2998095615066
 30
0.0
 11
204.992688430934
 21
155.2998095615066
 31
0.0
  0
LINE
  5
295
330
279
100
AcDbEntity
  8
作図レイヤ
  6
Continuous
 62
     7
370
    25
100
AcDbLine
 10
215.072688430934
 20
152.6398095615066
 30
0.0
 11
205.592688430934
 21
152.6398095615066
 31
0.0
  0
LINE
  5
296
330
279
100
AcDbEntity
  8
作図レイヤ
  6
Continuous
 62
     7
370
    25
100
AcDbLine
 10
215.992688430934
 20
154.2398095615066
 30
0.0
 11
218.242688430934
 21
154.2398095615066
 31
0.0
  0
LINE
  5
297
330
279
100
AcDbEntity
  8
作図レイヤ
  6
Continuous
 62
     7
370
    25
100
AcDbLine
 10
215.072688430934
 20
152.6398095615066
 30
0.0
 11
215.992688430934
 21
154.2398095615066
 31
0.0
  0
LINE
  5
298
330
279
100
AcDbEntity
  8
作図レイヤ
  6
Continuous
 62
     7
370
    25
100
AcDbLine
 10
218.242688430934
 20
154.2398095615066
 30
0.0
 11
218.992688430934
 21
155.5398095615066
 31
0.0
  0
LINE
  5
299
330
279
100
AcDbEntity
  8
作図レイヤ
  6
Continuous
 62
     7
370
    25
100
AcDbLine
 10
219.542688430934
 20
155.5398095615066
 30
0.0
 11
218.992688430934
 21
155.5398095615066
 31
0.0
  0
LINE
  5
29A
330
279
100
AcDbEntity
  8
作図レイヤ
  6
Continuous
 62
     7
370
    25
100
AcDbLine
 10
203.492688430934
 20
152.7398095615066
 30
0.0
 11
204.992688430934
 21
152.7398095615066
 31
0.0
  0
LINE
  5
29B
330
279
100
AcDbEntity
  8
作図レイヤ
  6
Continuous
 62
     7
370
    25
100
AcDbLine
 10
215.992688430934
 20
162.6398095615066
 30
0.0
 11
215.072688430934
 21
164.2398095615066
 31
0.0
  0
ENDBLK
  5
27B
330
279
100
AcDbEntity
  8
0
100
AcDbBlockEnd
  0
BLOCK
  5
2BE
330
2BD
100
AcDbEntity
  8
0
100
AcDbBlockBegin
  2
FXDIM027
 70
     0
 10
0.0
 20
0.0
 30
0.0
  3
FXDIM027
  1

  0
LINE
  5
2C1
330
2BD
100
AcDbEntity
  8
作図レイヤ
  6
Continuous
 62
     4
370
    13
100
AcDbLine
 10
334.7507477401305
 20
182.1494065960468
 30
0.0
 11
353.0534099404393
 21
196.983514799635
 31
0.0
  0
INSERT
  5
2C2
330
2BD
100
AcDbEntity
  8
作図レイヤ
  6
Continuous
 62
     4
370
    13
100
AcDbBlockReference
  2
FXTIP_ARROW_S
 10
334.7507477401305
 20
182.1494065960468
 30
0.0
 41
2.0
 42
2.0
 50
219.0243897848984
  0
LINE
  5
2C3
330
2BD
100
AcDbEntity
  8
作図レイヤ
  6
Continuous
 62
     4
370
    13
100
AcDbLine
 10
353.0534099404393
 20
196.983514799635
 30
0.0
 11
373.0534099404393
 21
196.983514799635
 31
0.0
  0
TEXT
  5
2C4
330
2BD
100
AcDbEntity
  8
作図レイヤ
  6
Continuous
 62
     7
370
    25
100
AcDbText
 10
354.0571345090317
 20
198.5320919363839
 30
0.0
 40
2.666666666666666
  1
\U+FF7A\U+FF9A\U+FF6F\U+FF84：SG6
 41
1.024965800273597
  7
ＭＳ 明朝
 72
     1
 11
363.0534057617188
 21
197.9835205078125
 31
0.0
100
AcDbText
 73
     1
  0
ENDBLK
  5
2BF
330
2BD
100
AcDbEntity
  8
0
100
AcDbBlockEnd
  0
BLOCK
  5
2D4
330
2D3
100
AcDbEntity
  8
0
100
AcDbBlockBegin
  2
BLKF028
 70
     0
 10
0.0
 20
0.0
 30
0.0
  3
BLKF028
  1

  0
CIRCLE
  5
2D7
330
2D3
100
AcDbEntity
  8
作図レイヤ
  6
Continuous
 62
     7
370
    25
100
AcDbCircle
 10
65.8240841055662
 20
158.4398095615066
 30
0.0
 40
5.7
  0
CIRCLE
  5
2D8
330
2D3
100
AcDbEntity
  8
作図レイヤ
  6
Continuous
 62
     7
370
    25
100
AcDbCircle
 10
65.8240841055662
 20
158.4398095615066
 30
0.0
 40
3.1
  0
CIRCLE
  5
2D9
330
2D3
100
AcDbEntity
  8
作図レイヤ
  6
Continuous
 62
     7
370
    25
100
AcDbCircle
 10
65.8240841055662
 20
158.4398095615066
 30
0.0
 40
5.799999999999999
  0
LINE
  5
2DA
330
2D3
100
AcDbEntity
  8
作図レイヤ
  6
Continuous
 62
     7
370
    25
100
AcDbLine
 10
62.32408410556621
 20
163.0598095615067
 30
0.0
 11
62.32408410556621
 21
168.6398095615067
 31
0.0
  0
LINE
  5
2DB
330
2D3
100
AcDbEntity
  8
作図レイヤ
  6
Continuous
 62
     7
370
    25
100
AcDbLine
 10
62.3740841055662
 20
169.6398095615067
 30
0.0
 11
62.3740841055662
 21
168.6398095615067
 31
0.0
  0
LINE
  5
2DC
330
2D3
100
AcDbEntity
  8
作図レイヤ
  6
Continuous
 62
     7
370
    25
100
AcDbLine
 10
68.39408410556622
 20
163.6398095615067
 30
0.0
 11
69.3240841055662
 21
163.6398095615067
 31
0.0
  0
LINE
  5
2DD
330
2D3
100
AcDbEntity
  8
作図レイヤ
  6
Continuous
 62
     7
370
    25
100
AcDbLine
 10
62.32408410556619
 20
169.7933813620244
 30
0.0
 11
62.32408410556621
 21
169.6398095615067
 31
0.0
  0
LINE
  5
2DE
330
2D3
100
AcDbEntity
  8
作図レイヤ
  6
Continuous
 62
     7
370
    25
100
AcDbLine
 10
69.32408410556618
 20
169.7933813620244
 30
0.0
 11
69.3240841055662
 21
169.6398095615067
 31
0.0
  0
LINE
  5
2DF
330
2D3
100
AcDbEntity
  8
作図レイヤ
  6
Continuous
 62
     7
370
    25
100
AcDbLine
 10
69.3240841055662
 20
168.6398095615067
 30
0.0
 11
62.32408410556621
 21
168.6398095615067
 31
0.0
  0
LINE
  5
2E0
330
2D3
100
AcDbEntity
  8
作図レイヤ
  6
Continuous
 62
     7
370
    25
100
AcDbLine
 10
62.32408410556621
 20
163.6398095615067
 30
0.0
 11
63.25408410556621
 21
163.6398095615067
 31
0.0
  0
LINE
  5
2E1
330
2D3
100
AcDbEntity
  8
作図レイヤ
  6
Continuous
 62
     7
370
    25
100
AcDbLine
 10
69.3240841055662
 20
169.6398095615067
 30
0.0
 11
68.46226529722129
 21
169.6398095615067
 31
0.0
  0
LINE
  5
2E2
330
2D3
100
AcDbEntity
  8
作図レイヤ
  6
Continuous
 62
     7
370
    25
100
AcDbLine
 10
69.2740841055662
 20
169.6398095615067
 30
0.0
 11
69.2740841055662
 21
168.6398095615067
 31
0.0
  0
LINE
  5
2E3
330
2D3
100
AcDbEntity
  8
作図レイヤ
  6
Continuous
 62
     7
370
    25
100
AcDbLine
 10
69.3240841055662
 20
163.0698095615067
 30
0.0
 11
69.3240841055662
 21
168.6398095615067
 31
0.0
  0
LINE
  5
2E4
330
2D3
100
AcDbEntity
  8
作図レイヤ
  6
Continuous
 62
     7
370
    25
100
AcDbLine
 10
63.18590291391115
 20
169.6398095615067
 30
0.0
 11
62.32408410556621
 21
169.6398095615067
 31
0.0
  0
ENDBLK
  5
2D5
330
2D3
100
AcDbEntity
  8
0
100
AcDbBlockEnd
  0
BLOCK
  5
2ED
330
2EC
100
AcDbEntity
  8
0
100
AcDbBlockBegin
  2
FXDIM029
 70
     0
 10
0.0
 20
0.0
 30
0.0
  3
FXDIM029
  1

  0
LINE
  5
2F0
330
2EC
100
AcDbEntity
  8
作図レイヤ
  6
Continuous
 62
     4
370
    13
100
AcDbLine
 10
129.7930478170177
 20
183.9398095615065
 30
0.0
 11
120.6402795630438
 21
135.9877227050393
 31
0.0
  0
INSERT
  5
2F1
330
2EC
100
AcDbEntity
  8
作図レイヤ
  6
Continuous
 62
     4
370
    13
100
AcDbBlockReference
  2
FXTIP_ARROW_S
 10
129.7930478170177
 20
183.9398095615065
 30
0.0
 41
2.0
 42
2.0
 50
79.19375317056625
  0
LINE
  5
2F2
330
2EC
100
AcDbEntity
  8
作図レイヤ
  6
Continuous
 62
     4
370
    13
100
AcDbLine
 10
120.6402795630438
 20
135.9877227050393
 30
0.0
 11
86.6402795630438
 21
135.9877227050393
 31
0.0
  0
TEXT
  5
2F3
330
2EC
100
AcDbEntity
  8
作図レイヤ
  6
Continuous
 62
     7
370
    25
100
AcDbText
 10
88.64649625610089
 20
137.5362881033761
 30
0.0
 40
2.666666666666666
  1
\U+FF78\U+FF70\U+FF97\U+FF9D\U+FF84供給部(%%c6)
 41
1.024965800273597
  7
ＭＳ 明朝
 72
     1
 11
103.6402816772461
 21
136.9877166748047
 31
0.0
100
AcDbText
 73
     1
  0
ENDBLK
  5
2EE
330
2EC
100
AcDbEntity
  8
0
100
AcDbBlockEnd
  0
BLOCK
  5
2F5
330
2F4
100
AcDbEntity
  8
0
100
AcDbBlockBegin
  2
FXDIM030
 70
     0
 10
0.0
 20
0.0
 30
0.0
  3
FXDIM030
  1

  0
LINE
  5
2F8
330
2F4
100
AcDbEntity
  8
作図レイヤ
  6
Continuous
 62
     4
370
    13
100
AcDbLine
 10
166.4164715630725
 20
155.4398095615066
 30
0.0
 11
160.4144874360847
 21
135.9877211812304
 31
0.0
  0
INSERT
  5
2F9
330
2F4
100
AcDbEntity
  8
作図レイヤ
  6
Continuous
 62
     4
370
    13
100
AcDbBlockReference
  2
FXTIP_ARROW_S
 10
166.4164715630725
 20
155.4398095615066
 30
0.0
 41
2.0
 42
2.0
 50
72.85227619437366
  0
LINE
  5
2FA
330
2F4
100
AcDbEntity
  8
作図レイヤ
  6
Continuous
 62
     4
370
    13
100
AcDbLine
 10
160.4144874360847
 20
135.9877211812304
 30
0.0
 11
130.4144874360847
 21
135.9877211812304
 31
0.0
  0
TEXT
  5
2FB
330
2F4
100
AcDbEntity
  8
作図レイヤ
  6
Continuous
 62
     7
370
    25
100
AcDbText
 10
132.4198757144346
 20
137.5362881033761
 30
0.0
 40
2.666666666666666
  1
\U+FF78\U+FF70\U+FF97\U+FF9D\U+FF84\U+FF84\U+FF9E\U+FF9A\U+FF9D(%%c6)
 41
1.024965800273597
  7
ＭＳ 明朝
 72
     1
 11
145.4144897460938
 21
136.9877166748047
 31
0.0
100
AcDbText
 73
     1
  0
ENDBLK
  5
2F6
330
2F4
100
AcDbEntity
  8
0
100
AcDbBlockEnd
  0
BLOCK
  5
2FD
330
2FC
100
AcDbEntity
  8
0
100
AcDbBlockBegin
  2
FXDIM031
 70
     0
 10
0.0
 20
0.0
 30
0.0
  3
FXDIM031
  1

  0
LINE
  5
300
330
2FC
100
AcDbEntity
  8
作図レイヤ
  6
Continuous
 62
     4
370
    13
100
AcDbLine
 10
196.2987136265833
 20
155.4398095615066
 30
0.0
 11
202.43710648373
 21
135.9877203875801
 31
0.0
  0
INSERT
  5
301
330
2FC
100
AcDbEntity
  8
作図レイヤ
  6
Continuous
 62
     4
370
    13
100
AcDbBlockReference
  2
FXTIP_ARROW_S
 10
196.2987136265833
 20
155.4398095615066
 30
0.0
 41
2.0
 42
2.0
 50
107.5138573281236
  0
LINE
  5
302
330
2FC
100
AcDbEntity
  8
作図レイヤ
  6
Continuous
 62
     4
370
    13
100
AcDbLine
 10
202.43710648373
 20
135.9877203875801
 30
0.0
 11
230.43710648373
 21
135.9877203875801
 31
0.0
  0
TEXT
  5
303
330
2FC
100
AcDbEntity
  8
作図レイヤ
  6
Continuous
 62
     7
370
    25
100
AcDbText
 10
203.4424892398252
 20
141.5362881033761
 30
0.0
 40
2.666666666666666
  1
冷却\U+FF74\U+FF71\U+FF70入力部
 41
1.024965800273597
  7
ＭＳ 明朝
 72
     1
 11
216.4371032714844
 21
140.9877166748047
 31
0.0
100
AcDbText
 73
     1
  0
TEXT
  5
304
330
2FC
100
AcDbEntity
  8
作図レイヤ
  6
Continuous
 62
     7
370
    25
100
AcDbText
 10
205.4416606293112
 20
137.5362881033761
 30
0.0
 40
2.666666666666666
  1
（外径φ6）
 41
1.024965800273597
  7
ＭＳ 明朝
 72
     1
 11
216.4371032714844
 21
136.9877166748047
 31
0.0
100
AcDbText
 73
     1
  0
ENDBLK
  5
2FE
330
2FC
100
AcDbEntity
  8
0
100
AcDbBlockEnd
  0
BLOCK
  5
306
330
305
100
AcDbEntity
  8
0
100
AcDbBlockBegin
  2
FXDIM032
 70
     0
 10
0.0
 20
0.0
 30
0.0
  3
FXDIM032
  1

  0
LINE
  5
309
330
305
100
AcDbEntity
  8
作図レイヤ
  6
Continuous
 62
     4
370
    13
100
AcDbLine
 10
185.4318674625553
 20
216.5898095615067
 30
0.0
 11
180.2028661398006
 21
226.1479845939847
 31
0.0
  0
INSERT
  5
30A
330
305
100
AcDbEntity
  8
作図レイヤ
  6
Continuous
 62
     4
370
    13
100
AcDbBlockReference
  2
FXTIP_ARROW_S
 10
185.4318674625553
 20
216.5898095615067
 30
0.0
 41
2.0
 42
2.0
 50
298.6817947668389
  0
LINE
  5
30B
330
305
100
AcDbEntity
  8
作図レイヤ
  6
Continuous
 62
     4
370
    13
100
AcDbLine
 10
180.2028661398006
 20
226.1479845939847
 30
0.0
 11
162.2028661398007
 21
226.1479845939847
 31
0.0
  0
TEXT
  5
30C
330
305
100
AcDbEntity
  8
作図レイヤ
  6
Continuous
 62
     7
370
    25
100
AcDbText
 10
163.2061953014309
 20
227.6965511648995
 30
0.0
 40
2.666666666666666
  1
\U+FF93\U+FF70\U+FF80\U+FF79\U+FF70\U+FF8C\U+FF9E\U+FF99
 41
1.024965800273597
  7
ＭＳ 明朝
 72
     1
 11
171.202880859375
 21
227.1479797363281
 31
0.0
100
AcDbText
 73
     1
  0
ENDBLK
  5
307
330
305
100
AcDbEntity
  8
0
100
AcDbBlockEnd
  0
BLOCK
  5
30F
330
30E
100
AcDbEntity
  8
0
100
AcDbBlockBegin
  2
*D30
 70
     1
 10
0.0
 20
0.0
 30
0.0
  3
*D30
  1

  0
TEXT
  5
311
330
30E
100
AcDbEntity
  8
作図レイヤ
  6
Continuous
 62
     7
370
    25
100
AcDbText
 10
320.1655093819754
 20
154.2477592759601
 30
0.0
 40
2.666666666666666
  1
%%c
 50
90.0
 41
1.024965800273597
  7
ＭＳ 明朝
 72
     1
 11
320.7140808105469
 21
155.2473449707031
 31
0.0
100
AcDbText
 73
     1
  0
TEXT
  5
312
330
30E
100
AcDbEntity
  8
作図レイヤ
  6
Continuous
 62
     7
370
    25
100
AcDbText
 10
320.1655093819754
 20
157.248173581217
 30
0.0
 40
2.666666666666666
  1
35
 50
90.0
 41
1.024965800273597
  7
ＭＳ 明朝
 72
     1
 11
320.7140808105469
 21
159.2473449707031
 31
0.0
100
AcDbText
 73
     1
  0
LINE
  5
313
330
30E
100
AcDbEntity
  8
作図レイヤ
  6
Continuous
 62
     4
370
    13
100
AcDbLine
 10
321.7140757959745
 20
169.4398095615065
 30
0.0
 11
321.7140757959745
 21
204.4398095615067
 31
0.0
  0
LINE
  5
314
330
30E
100
AcDbEntity
  8
作図レイヤ
  6
Continuous
 62
     4
370
    13
100
AcDbLine
 10
321.7140757959745
 20
145.0548933240926
 30
0.0
 11
321.7140757959745
 21
169.4398095615065
 31
0.0
  0
INSERT
  5
315
330
30E
100
AcDbEntity
  8
作図レイヤ
  6
Continuous
 62
     4
370
    13
100
AcDbBlockReference
  2
FXTIP_ARROW_E
 10
321.7140757959745
 20
169.4398095615065
 30
0.0
 41
2.0
 42
2.0
 50
90.0
  0
LINE
  5
316
330
30E
100
AcDbEntity
  8
作図レイヤ
  6
Continuous
 62
     4
370
    13
100
AcDbLine
 10
321.7140757959745
 20
204.4398095615067
 30
0.0
 11
321.7140757959745
 21
210.4398095615067
 31
0.0
  0
INSERT
  5
317
330
30E
100
AcDbEntity
  8
作図レイヤ
  6
Continuous
 62
     4
370
    13
100
AcDbBlockReference
  2
FXTIP_ARROW_S
 10
321.7140757959745
 20
204.4398095615067
 30
0.0
 41
2.0
 42
2.0
 50
270.0
  0
ENDBLK
  5
310
330
30E
100
AcDbEntity
  8
0
100
AcDbBlockEnd
  0
BLOCK
  5
31A
330
319
100
AcDbEntity
  8
0
100
AcDbBlockBegin
  2
*D31
 70
     1
 10
0.0
 20
0.0
 30
0.0
  3
*D31
  1

  0
TEXT
  5
31C
330
319
100
AcDbEntity
  8
作図レイヤ
  6
Continuous
 62
     7
370
    25
100
AcDbText
 10
236.5439370074721
 20
257.5334957444543
 30
0.0
 40
2.666666666666666
  1
176
 50
0.0000000099999999
 41
1.024965800273597
  7
ＭＳ 明朝
 72
     1
 11
239.5426940917969
 21
256.9849243164062
 31
0.0
100
AcDbText
 73
     1
  0
LINE
  5
31D
330
319
100
AcDbEntity
  8
作図レイヤ
  6
Continuous
 62
     4
370
    13
100
AcDbLine
 10
151.542688430934
 20
255.9849171068909
 30
0.0
 11
327.5426884309345
 21
255.9849171068909
 31
0.0
  0
INSERT
  5
31E
330
319
100
AcDbEntity
  8
作図レイヤ
  6
Continuous
 62
     4
370
    13
100
AcDbBlockReference
  2
FXTIP_ARROW_S
 10
151.542688430934
 20
255.9849171068909
 30
0.0
 41
2.0
 42
2.0
 50
180.0
  0
INSERT
  5
31F
330
319
100
AcDbEntity
  8
作図レイヤ
  6
Continuous
 62
     4
370
    13
100
AcDbBlockReference
  2
FXTIP_ARROW_E
 10
327.5426884309345
 20
255.9849171068909
 30
0.0
 41
2.0
 42
2.0
  0
LINE
  5
320
330
319
100
AcDbEntity
  8
作図レイヤ
  6
Continuous
 62
     4
370
    13
100
AcDbLine
 10
151.542688430934
 20
204.9398095615065
 30
0.0
 11
151.542688430934
 21
256.984917106891
 31
0.0
  0
ENDBLK
  5
31B
330
319
100
AcDbEntity
  8
0
100
AcDbBlockEnd
  0
BLOCK
  5
323
330
322
100
AcDbEntity
  8
0
100
AcDbBlockBegin
  2
*D32
 70
     1
 10
0.0
 20
0.0
 30
0.0
  3
*D32
  1

  0
TEXT
  5
325
330
322
100
AcDbEntity
  8
作図レイヤ
  6
Continuous
 62
     7
370
    25
100
AcDbText
 10
329.1943452092134
 20
257.5334957442798
 30
0.0
 40
2.666666666666666
  1
11.3
 50
0.0000000099999999
 41
1.024965800273597
  7
ＭＳ 明朝
 72
     1
 11
333.1926879882812
 21
256.9849243164062
 31
0.0
100
AcDbText
 73
     1
  0
LINE
  5
326
330
322
100
AcDbEntity
  8
作図レイヤ
  6
Continuous
 62
     4
370
    13
100
AcDbLine
 10
327.5426884309348
 20
255.9849171068909
 30
0.0
 11
338.8426884309347
 21
255.9849171068909
 31
0.0
  0
INSERT
  5
327
330
322
100
AcDbEntity
  8
作図レイヤ
  6
Continuous
 62
     4
370
    13
100
AcDbBlockReference
  2
FXTIP_ARROW_S
 10
327.5426884309348
 20
255.9849171068909
 30
0.0
 41
2.0
 42
2.0
 50
180.0
  0
INSERT
  5
328
330
322
100
AcDbEntity
  8
作図レイヤ
  6
Continuous
 62
     4
370
    13
100
AcDbBlockReference
  2
FXTIP_ARROW_E
 10
338.8426884309347
 20
255.9849171068909
 30
0.0
 41
2.0
 42
2.0
  0
LINE
  5
329
330
322
100
AcDbEntity
  8
作図レイヤ
  6
Continuous
 62
     4
370
    13
100
AcDbLine
 10
327.5426884309345
 20
204.9398095615066
 30
0.0
 11
327.5426884309348
 21
256.9849171068909
 31
0.0
  0
LINE
  5
32A
330
322
100
AcDbEntity
  8
作図レイヤ
  6
Continuous
 62
     4
370
    13
100
AcDbLine
 10
338.8426884309343
 20
193.9398095615067
 30
0.0
 11
338.8426884309347
 21
256.9849171068909
 31
0.0
  0
ENDBLK
  5
324
330
322
100
AcDbEntity
  8
0
100
AcDbBlockEnd
  0
BLOCK
  5
32D
330
32C
100
AcDbEntity
  8
0
100
AcDbBlockBegin
  2
*D33
 70
     1
 10
0.0
 20
0.0
 30
0.0
  3
*D33
  1

  0
TEXT
  5
32F
330
32C
100
AcDbEntity
  8
作図レイヤ
  6
Continuous
 62
     7
370
    25
100
AcDbText
 10
216.5435227022151
 20
241.5983455981444
 30
0.0
 40
2.666666666666666
  1
28
 50
0.0000000099999999
 41
1.024965800273597
  7
ＭＳ 明朝
 72
     1
 11
218.5426940917969
 21
241.0497741699219
 31
0.0
100
AcDbText
 73
     1
  0
LINE
  5
330
330
32C
100
AcDbEntity
  8
作図レイヤ
  6
Continuous
 62
     4
370
    13
100
AcDbLine
 10
204.5426884309341
 20
240.0497705019428
 30
0.0
 11
232.5426884309341
 21
240.0497705019428
 31
0.0
  0
INSERT
  5
331
330
32C
100
AcDbEntity
  8
作図レイヤ
  6
Continuous
 62
     4
370
    13
100
AcDbBlockReference
  2
FXTIP_ARROW_S
 10
204.5426884309341
 20
240.0497705019428
 30
0.0
 41
2.0
 42
2.0
 50
180.0
  0
INSERT
  5
332
330
32C
100
AcDbEntity
  8
作図レイヤ
  6
Continuous
 62
     4
370
    13
100
AcDbBlockReference
  2
FXTIP_ARROW_E
 10
232.5426884309341
 20
240.0497705019428
 30
0.0
 41
2.0
 42
2.0
  0
LINE
  5
333
330
32C
100
AcDbEntity
  8
作図レイヤ
  6
Continuous
 62
     4
370
    13
100
AcDbLine
 10
204.5426884309341
 20
223.9398095615066
 30
0.0
 11
204.5426884309341
 21
241.0497705019428
 31
0.0
  0
TEXT
  5
334
330
32C
100
AcDbEntity
  8
作図レイヤ
  6
Continuous
 62
     7
370
    25
100
AcDbText
 10
214.5431083969581
 20
241.5983455983189
 30
0.0
 40
2.666666666666666
  1
(
 50
0.0000000099999999
 41
1.024965800273597
  7
ＭＳ 明朝
 72
     1
 11
215.5426940917969
 21
241.0497741699219
 31
0.0
100
AcDbText
 73
     1
  0
TEXT
  5
335
330
32C
100
AcDbEntity
  8
作図レイヤ
  6
Continuous
 62
     7
370
    25
100
AcDbText
 10
220.5431083969581
 20
241.5983455983189
 30
0.0
 40
2.666666666666666
  1
)
 50
0.0000000099999999
 41
1.024965800273597
  7
ＭＳ 明朝
 72
     1
 11
221.5426940917969
 21
241.0497741699219
 31
0.0
100
AcDbText
 73
     1
  0
ENDBLK
  5
32E
330
32C
100
AcDbEntity
  8
0
100
AcDbBlockEnd
  0
BLOCK
  5
338
330
337
100
AcDbEntity
  8
0
100
AcDbBlockBegin
  2
*D34
 70
     1
 10
0.0
 20
0.0
 30
0.0
  3
*D34
  1

  0
TEXT
  5
33A
330
337
100
AcDbEntity
  8
作図レイヤ
  6
Continuous
 62
     7
370
    25
100
AcDbText
 10
278.0435227022152
 20
241.5983455981444
 30
0.0
 40
2.666666666666666
  1
95
 50
0.0000000099999999
 41
1.024965800273597
  7
ＭＳ 明朝
 72
     1
 11
280.0426940917969
 21
241.0497741699219
 31
0.0
100
AcDbText
 73
     1
  0
LINE
  5
33B
330
337
100
AcDbEntity
  8
作図レイヤ
  6
Continuous
 62
     4
370
    13
100
AcDbLine
 10
232.5426884309341
 20
240.0497705019428
 30
0.0
 11
327.5426884309346
 21
240.0497705019428
 31
0.0
  0
INSERT
  5
33C
330
337
100
AcDbEntity
  8
作図レイヤ
  6
Continuous
 62
     4
370
    13
100
AcDbBlockReference
  2
FXTIP_ARROW_S
 10
232.5426884309341
 20
240.0497705019428
 30
0.0
 41
2.0
 42
2.0
 50
180.0
  0
INSERT
  5
33D
330
337
100
AcDbEntity
  8
作図レイヤ
  6
Continuous
 62
     4
370
    13
100
AcDbBlockReference
  2
FXTIP_ARROW_E
 10
327.5426884309346
 20
240.0497705019428
 30
0.0
 41
2.0
 42
2.0
  0
LINE
  5
33E
330
337
100
AcDbEntity
  8
作図レイヤ
  6
Continuous
 62
     4
370
    13
100
AcDbLine
 10
232.5426884309341
 20
223.9398095615066
 30
0.0
 11
232.5426884309341
 21
241.0497705019428
 31
0.0
  0
LINE
  5
33F
330
337
100
AcDbEntity
  8
作図レイヤ
  6
Continuous
 62
     4
370
    13
100
AcDbLine
 10
327.5426884309345
 20
204.9398095615066
 30
0.0
 11
327.5426884309346
 21
241.0497705019428
 31
0.0
  0
ENDBLK
  5
339
330
337
100
AcDbEntity
  8
0
100
AcDbBlockEnd
  0
BLOCK
  5
342
330
341
100
AcDbEntity
  8
0
100
AcDbBlockBegin
  2
*D35
 70
     1
 10
0.0
 20
0.0
 30
0.0
  3
*D35
  1

  0
TEXT
  5
344
330
341
100
AcDbEntity
  8
作図レイヤ
  6
Continuous
 62
     7
370
    25
100
AcDbText
 10
32.49533192225865
 20
199.1902183824054
 30
0.0
 40
2.666666666666666
  1
(
 50
90.0
 41
1.024965800273597
  7
ＭＳ 明朝
 72
     1
 11
33.04390335083008
 21
200.1898040771484
 31
0.0
100
AcDbText
 73
     1
  0
TEXT
  5
345
330
341
100
AcDbEntity
  8
作図レイヤ
  6
Continuous
 62
     7
370
    25
100
AcDbText
 10
32.49533192225865
 20
201.1914612981763
 30
0.0
 40
2.666666666666666
  1
36.5
 50
90.0
 41
1.024965800273597
  7
ＭＳ 明朝
 72
     1
 11
33.04390335083008
 21
205.1898040771484
 31
0.0
100
AcDbText
 73
     1
  0
TEXT
  5
346
330
341
100
AcDbEntity
  8
作図レイヤ
  6
Continuous
 62
     7
370
    25
100
AcDbText
 10
32.49533192225865
 20
209.1902183824054
 30
0.0
 40
2.666666666666666
  1
)
 50
90.0
 41
1.024965800273597
  7
ＭＳ 明朝
 72
     1
 11
33.04390335083008
 21
210.1898040771484
 31
0.0
100
AcDbText
 73
     1
  0
LINE
  5
347
330
341
100
AcDbEntity
  8
作図レイヤ
  6
Continuous
 62
     4
370
    13
100
AcDbLine
 10
34.04390442975851
 20
186.9398095615066
 30
0.0
 11
34.04390442975851
 21
223.4398095615066
 31
0.0
  0
INSERT
  5
348
330
341
100
AcDbEntity
  8
作図レイヤ
  6
Continuous
 62
     4
370
    13
100
AcDbBlockReference
  2
FXTIP_ARROW_S
 10
34.04390442975851
 20
186.9398095615066
 30
0.0
 41
2.0
 42
2.0
 50
270.0
  0
INSERT
  5
349
330
341
100
AcDbEntity
  8
作図レイヤ
  6
Continuous
 62
     4
370
    13
100
AcDbBlockReference
  2
FXTIP_ARROW_E
 10
34.04390442975851
 20
223.4398095615066
 30
0.0
 41
2.0
 42
2.0
 50
90.0
  0
LINE
  5
34A
330
341
100
AcDbEntity
  8
作図レイヤ
  6
Continuous
 62
     4
370
    13
100
AcDbLine
 10
41.6556202291541
 20
186.9398095615066
 30
0.0
 11
33.04390442975851
 21
186.9398095615066
 31
0.0
  0
LINE
  5
34B
330
341
100
AcDbEntity
  8
作図レイヤ
  6
Continuous
 62
     4
370
    13
100
AcDbLine
 10
56.32408410556621
 20
223.4398095615066
 30
0.0
 11
33.04390442975851
 21
223.4398095615066
 31
0.0
  0
ENDBLK
  5
343
330
341
100
AcDbEntity
  8
0
100
AcDbBlockEnd
  0
BLOCK
  5
34E
330
34D
100
AcDbEntity
  8
0
100
AcDbBlockBegin
  2
*D36
 70
     1
 10
0.0
 20
0.0
 30
0.0
  3
*D36
  1

  0
TEXT
  5
350
330
34D
100
AcDbEntity
  8
作図レイヤ
  6
Continuous
 62
     7
370
    25
100
AcDbText
 10
32.49533192225865
 20
163.790224485921
 30
0.0
 40
2.666666666666666
  1
(
 50
90.0
 41
1.024965800273597
  7
ＭＳ 明朝
 72
     1
 11
33.04390335083008
 21
164.7898101806641
 31
0.0
100
AcDbText
 73
     1
  0
TEXT
  5
351
330
34D
100
AcDbEntity
  8
作図レイヤ
  6
Continuous
 62
     7
370
    25
100
AcDbText
 10
32.49533192225865
 20
165.791467401692
 30
0.0
 40
2.666666666666666
  1
34.3
 50
90.0
 41
1.024965800273597
  7
ＭＳ 明朝
 72
     1
 11
33.04390335083008
 21
169.7898101806641
 31
0.0
100
AcDbText
 73
     1
  0
TEXT
  5
352
330
34D
100
AcDbEntity
  8
作図レイヤ
  6
Continuous
 62
     7
370
    25
100
AcDbText
 10
32.49533192225865
 20
173.7902244859211
 30
0.0
 40
2.666666666666666
  1
)
 50
90.0
 41
1.024965800273597
  7
ＭＳ 明朝
 72
     1
 11
33.04390335083008
 21
174.7898101806641
 31
0.0
100
AcDbText
 73
     1
  0
LINE
  5
353
330
34D
100
AcDbEntity
  8
作図レイヤ
  6
Continuous
 62
     4
370
    13
100
AcDbLine
 10
34.04390442975851
 20
152.6398095615066
 30
0.0
 11
34.04390442975851
 21
186.9398095615066
 31
0.0
  0
INSERT
  5
354
330
34D
100
AcDbEntity
  8
作図レイヤ
  6
Continuous
 62
     4
370
    13
100
AcDbBlockReference
  2
FXTIP_ARROW_S
 10
34.04390442975851
 20
152.6398095615066
 30
0.0
 41
2.0
 42
2.0
 50
270.0
  0
INSERT
  5
355
330
34D
100
AcDbEntity
  8
作図レイヤ
  6
Continuous
 62
     4
370
    13
100
AcDbBlockReference
  2
FXTIP_ARROW_E
 10
34.04390442975851
 20
186.9398095615066
 30
0.0
 41
2.0
 42
2.0
 50
90.0
  0
LINE
  5
356
330
34D
100
AcDbEntity
  8
作図レイヤ
  6
Continuous
 62
     4
370
    13
100
AcDbLine
 10
64.82408410556621
 20
152.6398095615067
 30
0.0
 11
33.04390442975851
 21
152.6398095615066
 31
0.0
  0
ENDBLK
  5
34F
330
34D
100
AcDbEntity
  8
0
100
AcDbBlockEnd
  0
BLOCK
  5
358
330
357
100
AcDbEntity
  8
0
100
AcDbBlockBegin
  2
FXDIM040
 70
     0
 10
0.0
 20
0.0
 30
0.0
  3
FXDIM040
  1

  0
LINE
  5
35B
330
357
100
AcDbEntity
  8
作図レイヤ
  6
Continuous
 62
     4
370
    13
100
AcDbLine
 10
334.4403510344108
 20
193.9398095615067
 30
0.0
 11
352.629497392876
 21
209.3118874933673
 31
0.0
  0
INSERT
  5
35C
330
357
100
AcDbEntity
  8
作図レイヤ
  6
Continuous
 62
     4
370
    13
100
AcDbBlockReference
  2
FXTIP_ARROW_S
 10
334.4403510344108
 20
193.9398095615067
 30
0.0
 41
2.0
 42
2.0
 50
220.2019432976734
  0
LINE
  5
35D
330
357
100
AcDbEntity
  8
作図レイヤ
  6
Continuous
 62
     4
370
    13
100
AcDbLine
 10
352.629497392876
 20
209.3118874933673
 30
0.0
 11
372.629497392876
 21
209.3118874933673
 31
0.0
  0
TEXT
  5
35E
330
357
100
AcDbEntity
  8
作図レイヤ
  6
Continuous
 62
     7
370
    25
100
AcDbText
 10
353.6332148312973
 20
210.8604610770089
 30
0.0
 40
2.666666666666666
  1
M14×P1.0
 41
1.024965800273597
  7
ＭＳ 明朝
 72
     1
 11
362.6294860839844
 21
210.3118896484375
 31
0.0
100
AcDbText
 73
     1
  0
ENDBLK
  5
359
330
357
100
AcDbEntity
  8
0
100
AcDbBlockEnd
  0
BLOCK
  5
41F
330
41D
100
AcDbEntity
  8
0
100
AcDbBlockBegin
  2
GENAXEH
 70
     0
 10
0.0
 20
0.0
 30
0.0
  3
GENAXEH
  1

  0
LINE
  5
41E
330
41D
100
AcDbEntity
  8
0
100
AcDbLine
 10
-1.0
 20
0.0
 30
0.0
 11
1.0
 21
0.0
 31
0.0
  0
ENDBLK
  5
420
330
41D
100
AcDbEntity
  8
0
100
AcDbBlockEnd
  0
BLOCK
  5
4CF
330
4CE
100
AcDbEntity
  8
0
100
AcDbBlockBegin
  2
*D40
 70
     1
 10
0.0
 20
0.0
 30
0.0
  3
*D40
  1

  0
LINE
  5
719
330
4CE
100
AcDbEntity
  8
作図レイヤ
  6
Continuous
 62
     4
370
    -2
100
AcDbLine
 10
-288.0325690763621
 20
169.4398095615067
 30
0.0
 11
-354.0228937761821
 21
169.4398095615067
 31
0.0
  0
LINE
  5
71A
330
4CE
100
AcDbEntity
  8
作図レイヤ
  6
Continuous
 62
     4
370
    -2
100
AcDbLine
 10
-288.0325690763621
 20
204.439809561507
 30
0.0
 11
-354.0228937761821
 21
204.439809561507
 31
0.0
  0
LINE
  5
71B
330
4CE
100
AcDbEntity
  8
作図レイヤ
  6
Continuous
 62
     4
370
    -2
100
AcDbLine
 10
-353.0228937761821
 20
171.4398095615067
 30
0.0
 11
-353.0228937761821
 21
202.439809561507
 31
0.0
  0
INSERT
  5
71C
330
4CE
100
AcDbEntity
  8
作図レイヤ
  6
Continuous
 62
     4
370
    -2
100
AcDbBlockReference
  2
FXTIP_ARROW_S
 10
-353.0228937761821
 20
169.4398095615067
 30
0.0
 41
2.0
 42
2.0
 43
2.0
 50
270.0
  0
INSERT
  5
71D
330
4CE
100
AcDbEntity
  8
作図レイヤ
  6
Continuous
 62
     4
370
    -2
100
AcDbBlockReference
  2
FXTIP_ARROW_E
 10
-353.0228937761821
 20
204.439809561507
 30
0.0
 41
2.0
 42
2.0
 43
2.0
 50
90.0
  0
MTEXT
  5
71E
330
4CE
100
AcDbEntity
  8
作図レイヤ
  6
Continuous
 62
     7
370
    13
100
AcDbMText
 10
-356.1028937761819
 20
188.4162862763427
 30
0.0
 40
4.0
 41
0.0
 71
     5
 72
     1
  1
\A1;Φ35
  7
ＭＳ 明朝
 11
0.0000000000000001
 21
1.0
 31
0.0
 73
     1
 44
1.0
1001
ACAD
1000
MTEXTBEGIN
1070
    73
1070
     1
1070
    44
1040
1.0
1070
    74
1070
     0
1000
MTEXTEND
  0
POINT
  5
71F
330
4CE
100
AcDbEntity
  8
Defpoints
  6
Continuous
 62
     0
100
AcDbPoint
 10
-287.0325690763621
 20
169.4398095615067
 30
0.0
  0
POINT
  5
720
330
4CE
100
AcDbEntity
  8
Defpoints
  6
Continuous
 62
     0
100
AcDbPoint
 10
-287.0325690763621
 20
204.439809561507
 30
0.0
  0
POINT
  5
721
330
4CE
100
AcDbEntity
  8
Defpoints
  6
Continuous
 62
     0
100
AcDbPoint
 10
-353.0228937761821
 20
204.439809561507
 30
0.0
  0
ENDBLK
  5
4D0
330
4CE
100
AcDbEntity
  8
0
100
AcDbBlockEnd
  0
BLOCK
  5
4DB
330
4DA
100
AcDbEntity
  8
0
100
AcDbBlockBegin
  2
*D41
 70
     1
 10
0.0
 20
0.0
 30
0.0
  3
*D41
  1

  0
LINE
  5
52C
330
4DA
100
AcDbEntity
  8
作図レイヤ
  6
Continuous
 62
     4
370
    -2
100
AcDbLine
 10
-136.4552188071719
 20
204.9398095615066
 30
0.0
 11
-136.4552188071719
 21
256.984917106891
 31
0.0
  0
LINE
  5
52D
330
4DA
100
AcDbEntity
  8
作図レイヤ
  6
Continuous
 62
     4
370
    -2
100
AcDbLine
 10
-312.4552188071725
 20
204.9398095615067
 30
0.0
 11
-312.4552188071724
 21
256.9849171068911
 31
0.0
  0
LINE
  5
52E
330
4DA
100
AcDbEntity
  8
作図レイヤ
  6
Continuous
 62
     4
370
    -2
100
AcDbLine
 10
-138.4552188071719
 20
255.9849171068909
 30
0.0
 11
-310.4552188071724
 21
255.9849171068911
 31
0.0
  0
INSERT
  5
52F
330
4DA
100
AcDbEntity
  8
作図レイヤ
  6
Continuous
 62
     4
370
    -2
100
AcDbBlockReference
  2
FXTIP_ARROW_S
 10
-136.4552188071719
 20
255.9849171068909
 30
0.0
 41
2.0
 42
2.0
 43
2.0
 50
360.0
  0
INSERT
  5
530
330
4DA
100
AcDbEntity
  8
作図レイヤ
  6
Continuous
 62
     4
370
    -2
100
AcDbBlockReference
  2
FXTIP_ARROW_E
 10
-312.4552188071724
 20
255.9849171068911
 30
0.0
 41
2.0
 42
2.0
 43
2.0
 50
179.9999999999999
  0
MTEXT
  5
531
330
4DA
100
AcDbEntity
  8
作図レイヤ
  6
Continuous
 62
     7
370
    13
100
AcDbMText
 10
-224.4552188071721
 20
258.9849171068911
 30
0.0
 40
4.0
 41
0.0
 71
     5
 72
     1
  1
\A1;176
  7
ＭＳ 明朝
 73
     1
 44
1.0
1001
ACAD
1000
MTEXTBEGIN
1070
    73
1070
     1
1070
    44
1040
1.0
1070
    74
1070
     0
1000
MTEXTEND
  0
POINT
  5
532
330
4DA
100
AcDbEntity
  8
Defpoints
  6
Continuous
 62
     0
100
AcDbPoint
 10
-136.4552188071719
 20
203.9398095615066
 30
0.0
  0
POINT
  5
533
330
4DA
100
AcDbEntity
  8
Defpoints
  6
Continuous
 62
     0
100
AcDbPoint
 10
-312.4552188071725
 20
203.9398095615068
 30
0.0
  0
POINT
  5
534
330
4DA
100
AcDbEntity
  8
Defpoints
  6
Continuous
 62
     0
100
AcDbPoint
 10
-312.4552188071724
 20
255.9849171068911
 30
0.0
  0
ENDBLK
  5
4DC
330
4DA
100
AcDbEntity
  8
0
100
AcDbBlockEnd
  0
BLOCK
  5
4E7
330
4E6
100
AcDbEntity
  8
0
100
AcDbBlockBegin
  2
*D42
 70
     1
 10
0.0
 20
0.0
 30
0.0
  3
*D42
  1

  0
LINE
  5
535
330
4E6
100
AcDbEntity
  8
作図レイヤ
  6
Continuous
 62
     4
370
    -2
100
AcDbLine
 10
-312.4552188071725
 20
204.9398095615067
 30
0.0
 11
-312.4552188071725
 21
256.9849171068911
 31
0.0
  0
LINE
  5
536
330
4E6
100
AcDbEntity
  8
作図レイヤ
  6
Continuous
 62
     4
370
    -2
100
AcDbLine
 10
-323.7552188071723
 20
193.9398095615069
 30
0.0
 11
-323.7552188071723
 21
256.9849171068911
 31
0.0
  0
LINE
  5
537
330
4E6
100
AcDbEntity
  8
作図レイヤ
  6
Continuous
 62
     4
370
    -2
100
AcDbLine
 10
-314.4552188071724
 20
255.9849171068911
 30
0.0
 11
-321.7552188071723
 21
255.9849171068911
 31
0.0
  0
LINE
  5
538
330
4E6
100
AcDbEntity
  8
作図レイヤ
  6
Continuous
 62
     4
370
    -2
100
AcDbLine
 10
-323.7552188071723
 20
255.9849171068911
 30
0.0
 11
-338.4295045214579
 21
255.9849171068911
 31
0.0
  0
INSERT
  5
539
330
4E6
100
AcDbEntity
  8
作図レイヤ
  6
Continuous
 62
     4
370
    -2
100
AcDbBlockReference
  2
FXTIP_ARROW_S
 10
-312.4552188071725
 20
255.9849171068911
 30
0.0
 41
2.0
 42
2.0
 43
2.0
  0
INSERT
  5
53A
330
4E6
100
AcDbEntity
  8
作図レイヤ
  6
Continuous
 62
     4
370
    -2
100
AcDbBlockReference
  2
FXTIP_ARROW_E
 10
-323.7552188071723
 20
255.9849171068911
 30
0.0
 41
2.0
 42
2.0
 43
2.0
 50
180.0
  0
MTEXT
  5
53B
330
4E6
100
AcDbEntity
  8
作図レイヤ
  6
Continuous
 62
     7
370
    13
100
AcDbMText
 10
-332.0923616643151
 20
258.9849171068911
 30
0.0
 40
4.0
 41
0.0
 71
     5
 72
     1
  1
\A1;11.3
  7
ＭＳ 明朝
 73
     1
 44
1.0
1001
ACAD
1000
MTEXTBEGIN
1070
    73
1070
     1
1070
    44
1040
1.0
1070
    74
1070
     0
1000
MTEXTEND
  0
POINT
  5
53C
330
4E6
100
AcDbEntity
  8
Defpoints
  6
Continuous
 62
     0
100
AcDbPoint
 10
-312.4552188071725
 20
203.9398095615068
 30
0.0
  0
POINT
  5
53D
330
4E6
100
AcDbEntity
  8
Defpoints
  6
Continuous
 62
     0
100
AcDbPoint
 10
-323.7552188071723
 20
192.9398095615069
 30
0.0
  0
POINT
  5
53E
330
4E6
100
AcDbEntity
  8
Defpoints
  6
Continuous
 62
     0
100
AcDbPoint
 10
-323.7552188071723
 20
255.9849171068911
 30
0.0
  0
ENDBLK
  5
4E8
330
4E6
100
AcDbEntity
  8
0
100
AcDbBlockEnd
  0
BLOCK
  5
4F4
330
4F3
100
AcDbEntity
  8
0
100
AcDbBlockBegin
  2
*D43
 70
     1
 10
0.0
 20
0.0
 30
0.0
  3
*D43
  1

  0
LINE
  5
53F
330
4F3
100
AcDbEntity
  8
作図レイヤ
  6
Continuous
 62
     4
370
    -2
100
AcDbLine
 10
-189.455218807172
 20
223.9398095615067
 30
0.0
 11
-189.455218807172
 21
241.049770501943
 31
0.0
  0
LINE
  5
540
330
4F3
100
AcDbEntity
  8
作図レイヤ
  6
Continuous
 62
     4
370
    -2
100
AcDbLine
 10
-217.4552188071721
 20
223.9398095615067
 30
0.0
 11
-217.4552188071721
 21
241.049770501943
 31
0.0
  0
LINE
  5
541
330
4F3
100
AcDbEntity
  8
作図レイヤ
  6
Continuous
 62
     4
370
    -2
100
AcDbLine
 10
-191.455218807172
 20
240.049770501943
 30
0.0
 11
-215.4552188071721
 21
240.049770501943
 31
0.0
  0
INSERT
  5
542
330
4F3
100
AcDbEntity
  8
作図レイヤ
  6
Continuous
 62
     4
370
    -2
100
AcDbBlockReference
  2
FXTIP_ARROW_S
 10
-189.455218807172
 20
240.049770501943
 30
0.0
 41
2.0
 42
2.0
 43
2.0
  0
INSERT
  5
543
330
4F3
100
AcDbEntity
  8
作図レイヤ
  6
Continuous
 62
     4
370
    -2
100
AcDbBlockReference
  2
FXTIP_ARROW_E
 10
-217.4552188071721
 20
240.049770501943
 30
0.0
 41
2.0
 42
2.0
 43
2.0
 50
180.0
  0
MTEXT
  5
544
330
4F3
100
AcDbEntity
  8
作図レイヤ
  6
Continuous
 62
     7
370
    13
100
AcDbMText
 10
-203.4552188071721
 20
243.049770501943
 30
0.0
 40
4.0
 41
0.0
 71
     5
 72
     1
  1
\A1;28
  7
ＭＳ 明朝
 73
     1
 44
1.0
1001
ACAD
1000
MTEXTBEGIN
1070
    73
1070
     1
1070
    44
1040
1.0
1070
    74
1070
     0
1000
MTEXTEND
  0
POINT
  5
545
330
4F3
100
AcDbEntity
  8
Defpoints
  6
Continuous
 62
     0
100
AcDbPoint
 10
-189.455218807172
 20
222.9398095615067
 30
0.0
  0
POINT
  5
546
330
4F3
100
AcDbEntity
  8
Defpoints
  6
Continuous
 62
     0
100
AcDbPoint
 10
-217.4552188071721
 20
222.9398095615067
 30
0.0
  0
POINT
  5
547
330
4F3
100
AcDbEntity
  8
Defpoints
  6
Continuous
 62
     0
100
AcDbPoint
 10
-217.4552188071721
 20
240.049770501943
 30
0.0
  0
ENDBLK
  5
4F5
330
4F3
100
AcDbEntity
  8
0
100
AcDbBlockEnd
  0
BLOCK
  5
500
330
4FF
100
AcDbEntity
  8
0
100
AcDbBlockBegin
  2
*D44
 70
     1
 10
0.0
 20
0.0
 30
0.0
  3
*D44
  1

  0
LINE
  5
548
330
4FF
100
AcDbEntity
  8
作図レイヤ
  6
Continuous
 62
     4
370
    -2
100
AcDbLine
 10
-217.4552188071721
 20
223.9398095615067
 30
0.0
 11
-217.4552188071721
 21
241.049770501943
 31
0.0
  0
LINE
  5
549
330
4FF
100
AcDbEntity
  8
作図レイヤ
  6
Continuous
 62
     4
370
    -2
100
AcDbLine
 10
-312.4552188071725
 20
204.9398095615067
 30
0.0
 11
-312.4552188071725
 21
241.049770501943
 31
0.0
  0
LINE
  5
54A
330
4FF
100
AcDbEntity
  8
作図レイヤ
  6
Continuous
 62
     4
370
    -2
100
AcDbLine
 10
-219.4552188071721
 20
240.049770501943
 30
0.0
 11
-310.4552188071725
 21
240.049770501943
 31
0.0
  0
INSERT
  5
54B
330
4FF
100
AcDbEntity
  8
作図レイヤ
  6
Continuous
 62
     4
370
    -2
100
AcDbBlockReference
  2
FXTIP_ARROW_S
 10
-217.4552188071721
 20
240.049770501943
 30
0.0
 41
2.0
 42
2.0
 43
2.0
  0
INSERT
  5
54C
330
4FF
100
AcDbEntity
  8
作図レイヤ
  6
Continuous
 62
     4
370
    -2
100
AcDbBlockReference
  2
FXTIP_ARROW_E
 10
-312.4552188071725
 20
240.049770501943
 30
0.0
 41
2.0
 42
2.0
 43
2.0
 50
180.0
  0
MTEXT
  5
54D
330
4FF
100
AcDbEntity
  8
作図レイヤ
  6
Continuous
 62
     7
370
    13
100
AcDbMText
 10
-264.9552188071723
 20
243.049770501943
 30
0.0
 40
4.0
 41
0.0
 71
     5
 72
     1
  1
\A1;95
  7
ＭＳ 明朝
 73
     1
 44
1.0
1001
ACAD
1000
MTEXTBEGIN
1070
    73
1070
     1
1070
    44
1040
1.0
1070
    74
1070
     0
1000
MTEXTEND
  0
POINT
  5
54E
330
4FF
100
AcDbEntity
  8
Defpoints
  6
Continuous
 62
     0
100
AcDbPoint
 10
-217.4552188071721
 20
222.9398095615067
 30
0.0
  0
POINT
  5
54F
330
4FF
100
AcDbEntity
  8
Defpoints
  6
Continuous
 62
     0
100
AcDbPoint
 10
-312.4552188071725
 20
203.9398095615068
 30
0.0
  0
POINT
  5
550
330
4FF
100
AcDbEntity
  8
Defpoints
  6
Continuous
 62
     0
100
AcDbPoint
 10
-312.4552188071725
 20
240.049770501943
 30
0.0
  0
ENDBLK
  5
501
330
4FF
100
AcDbEntity
  8
0
100
AcDbBlockEnd
  0
BLOCK
  5
50C
330
50B
100
AcDbEntity
  8
0
100
AcDbBlockBegin
  2
*D45
 70
     1
 10
0.0
 20
0.0
 30
0.0
  3
*D45
  1

  0
LINE
  5
551
330
50B
100
AcDbEntity
  8
作図レイヤ
  6
Continuous
 62
     4
370
    -2
100
AcDbLine
 10
-26.56815060539208
 20
186.9398095615066
 30
0.0
 11
-17.95643480599646
 21
186.9398095615066
 31
0.0
  0
LINE
  5
552
330
50B
100
AcDbEntity
  8
作図レイヤ
  6
Continuous
 62
     4
370
    -2
100
AcDbLine
 10
-41.23661448180416
 20
223.4398095615067
 30
0.0
 11
-17.95643480599647
 21
223.4398095615067
 31
0.0
  0
LINE
  5
553
330
50B
100
AcDbEntity
  8
作図レイヤ
  6
Continuous
 62
     4
370
    -2
100
AcDbLine
 10
-18.95643480599646
 20
188.9398095615066
 30
0.0
 11
-18.95643480599647
 21
221.4398095615067
 31
0.0
  0
INSERT
  5
554
330
50B
100
AcDbEntity
  8
作図レイヤ
  6
Continuous
 62
     4
370
    -2
100
AcDbBlockReference
  2
FXTIP_ARROW_S
 10
-18.95643480599646
 20
186.9398095615066
 30
0.0
 41
2.0
 42
2.0
 43
2.0
 50
270.0
  0
INSERT
  5
555
330
50B
100
AcDbEntity
  8
作図レイヤ
  6
Continuous
 62
     4
370
    -2
100
AcDbBlockReference
  2
FXTIP_ARROW_E
 10
-18.95643480599647
 20
223.4398095615067
 30
0.0
 41
2.0
 42
2.0
 43
2.0
 50
90.0
  0
MTEXT
  5
556
330
50B
100
AcDbEntity
  8
作図レイヤ
  6
Continuous
 62
     7
370
    13
100
AcDbMText
 10
-21.9564348059964
 20
205.1898095615066
 30
0.0
 40
4.0
 41
0.0
 71
     5
 72
     1
  1
\A1;36.5
  7
ＭＳ 明朝
 11
0.0000000000000001
 21
1.0
 31
0.0
 73
     1
 44
1.0
1001
ACAD
1000
MTEXTBEGIN
1070
    73
1070
     1
1070
    44
1040
1.0
1070
    74
1070
     0
1000
MTEXTEND
  0
POINT
  5
557
330
50B
100
AcDbEntity
  8
Defpoints
  6
Continuous
 62
     0
100
AcDbPoint
 10
-27.56815060539208
 20
186.9398095615066
 30
0.0
  0
POINT
  5
558
330
50B
100
AcDbEntity
  8
Defpoints
  6
Continuous
 62
     0
100
AcDbPoint
 10
-42.23661448180417
 20
223.4398095615067
 30
0.0
  0
POINT
  5
559
330
50B
100
AcDbEntity
  8
Defpoints
  6
Continuous
 62
     0
100
AcDbPoint
 10
-18.95643480599647
 20
223.4398095615067
 30
0.0
  0
ENDBLK
  5
50D
330
50B
100
AcDbEntity
  8
0
100
AcDbBlockEnd
  0
BLOCK
  5
518
330
517
100
AcDbEntity
  8
0
100
AcDbBlockBegin
  2
*D46
 70
     1
 10
0.0
 20
0.0
 30
0.0
  3
*D46
  1

  0
LINE
  5
55A
330
517
100
AcDbEntity
  8
作図レイヤ
  6
Continuous
 62
     4
370
    -2
100
AcDbLine
 10
-49.73661448180422
 20
152.6398095615068
 30
0.0
 11
-17.95643480599648
 21
152.6398095615068
 31
0.0
  0
LINE
  5
55B
330
517
100
AcDbEntity
  8
作図レイヤ
  6
Continuous
 62
     4
370
    -2
100
AcDbLine
 10
-26.56815060539208
 20
186.9398095615066
 30
0.0
 11
-17.95643480599649
 21
186.9398095615066
 31
0.0
  0
LINE
  5
55C
330
517
100
AcDbEntity
  8
作図レイヤ
  6
Continuous
 62
     4
370
    -2
100
AcDbLine
 10
-18.95643480599648
 20
154.6398095615067
 30
0.0
 11
-18.95643480599649
 21
184.9398095615066
 31
0.0
  0
INSERT
  5
55D
330
517
100
AcDbEntity
  8
作図レイヤ
  6
Continuous
 62
     4
370
    -2
100
AcDbBlockReference
  2
FXTIP_ARROW_S
 10
-18.95643480599648
 20
152.6398095615068
 30
0.0
 41
2.0
 42
2.0
 43
2.0
 50
270.0
  0
INSERT
  5
55E
330
517
100
AcDbEntity
  8
作図レイヤ
  6
Continuous
 62
     4
370
    -2
100
AcDbBlockReference
  2
FXTIP_ARROW_E
 10
-18.95643480599649
 20
186.9398095615066
 30
0.0
 41
2.0
 42
2.0
 43
2.0
 50
90.0
  0
MTEXT
  5
55F
330
517
100
AcDbEntity
  8
作図レイヤ
  6
Continuous
 62
     7
370
    13
100
AcDbMText
 10
-21.95643480599644
 20
169.7898095615066
 30
0.0
 40
4.0
 41
0.0
 71
     5
 72
     1
  1
\A1;34.3
  7
ＭＳ 明朝
 11
0.0000000000000001
 21
1.0
 31
0.0
 73
     1
 44
1.0
1001
ACAD
1000
MTEXTBEGIN
1070
    73
1070
     1
1070
    44
1040
1.0
1070
    74
1070
     0
1000
MTEXTEND
  0
POINT
  5
560
330
517
100
AcDbEntity
  8
Defpoints
  6
Continuous
 62
     0
100
AcDbPoint
 10
-50.73661448180422
 20
152.6398095615068
 30
0.0
  0
POINT
  5
561
330
517
100
AcDbEntity
  8
Defpoints
  6
Continuous
 62
     0
100
AcDbPoint
 10
-27.56815060539208
 20
186.9398095615066
 30
0.0
  0
POINT
  5
562
330
517
100
AcDbEntity
  8
Defpoints
  6
Continuous
 62
     0
100
AcDbPoint
 10
-18.95643480599649
 20
186.9398095615066
 30
0.0
  0
ENDBLK
  5
519
330
517
100
AcDbEntity
  8
0
100
AcDbBlockEnd
  0
ENDSEC
  0
SECTION
  2
ENTITIES
  0
LINE
  5
442
330
1F
100
AcDbEntity
  8
作図レイヤ
  6
Continuous
 62
     7
370
    25
100
AcDbLine
 10
-287.032569076362
 20
204.4398095615069
 30
0.0
 11
-310.4552188071726
 21
204.4398095615069
 31
0.0
  0
LINE
  5
443
330
1F
100
AcDbEntity
  8
作図レイヤ
  6
Continuous
 62
     7
370
    25
100
AcDbLine
 10
-136.9552188071719
 20
204.4398095615067
 30
0.0
 11
-188.955218807172
 21
204.4398095615067
 31
0.0
  0
LINE
  5
444
330
1F
100
AcDbEntity
  8
作図レイヤ
  6
Continuous
 62
     7
370
    25
100
AcDbLine
 10
-136.9552188071719
 20
169.4398095615067
 30
0.0
 11
-167.4552188071719
 21
169.4398095615067
 31
0.0
  0
LINE
  5
445
330
1F
100
AcDbEntity
  8
作図レイヤ
  6
Continuous
 62
     7
370
    25
100
AcDbLine
 10
-136.4552188071719
 20
169.9398095615066
 30
0.0
 11
-136.4552188071719
 21
203.9398095615066
 31
0.0
  0
LINE
  5
446
330
1F
100
AcDbEntity
  8
作図レイヤ
  6
Continuous
 62
     7
370
    25
100
AcDbLine
 10
-136.9552188071719
 20
169.4398095615067
 30
0.0
 11
-136.4552188071719
 21
169.9398095615066
 31
0.0
  0
LINE
  5
447
330
1F
100
AcDbEntity
  8
作図レイヤ
  6
Continuous
 62
     7
370
    25
100
AcDbLine
 10
-136.9552188071719
 20
204.4398095615066
 30
0.0
 11
-136.4552188071719
 21
203.9398095615066
 31
0.0
  0
LINE
  5
448
330
1F
100
AcDbEntity
  8
作図レイヤ
  6
Continuous
 62
     7
370
    20
100
AcDbLine
 10
-278.4552188071722
 20
203.4398095615069
 30
0.0
 11
-286.4552188071722
 21
203.4398095615069
 31
0.0
  0
LINE
  5
449
330
1F
100
AcDbEntity
  8
作図レイヤ
  6
Continuous
 62
     7
370
    20
100
AcDbLine
 10
-287.032569076362
 20
204.4398095615069
 30
0.0
 11
-286.4552188071722
 21
203.4398095615069
 31
0.0
  0
LINE
  5
44A
330
1F
100
AcDbEntity
  8
作図レイヤ
  6
Continuous
 62
     7
370
    20
100
AcDbLine
 10
-277.8778685379827
 20
204.4398095615069
 30
0.0
 11
-278.4552188071722
 21
203.4398095615069
 31
0.0
  0
LINE
  5
44B
330
1F
100
AcDbEntity
  8
作図レイヤ
  6
Continuous
 62
     7
370
    25
100
AcDbLine
 10
-310.4552188071726
 20
202.9398095615069
 30
0.0
 11
-310.6052188071726
 21
202.9398095615069
 31
0.0
  0
LINE
  5
44C
330
1F
100
AcDbEntity
  8
作図レイヤ
  6
Continuous
 62
     7
370
    25
100
AcDbLine
 10
-310.4552188071726
 20
204.4398095615069
 30
0.0
 11
-310.4552188071726
 21
186.9398095615068
 31
0.0
  0
LINE
  5
44D
330
1F
100
AcDbEntity
  8
作図レイヤ
  6
Continuous
 62
     7
370
    25
100
AcDbLine
 10
-312.4552188071722
 20
193.9398095615068
 30
0.0
 11
-322.7552188071722
 21
193.9398095615069
 31
0.0
  0
LINE
  5
44E
330
1F
100
AcDbEntity
  8
作図レイヤ
  6
Continuous
 62
     7
370
    25
100
AcDbLine
 10
-323.7552188071723
 20
192.9398095615069
 30
0.0
 11
-323.7552188071723
 21
186.9398095615069
 31
0.0
  0
LINE
  5
44F
330
1F
100
AcDbEntity
  8
作図レイヤ
  6
Continuous
 62
     7
370
    25
100
AcDbLine
 10
-322.7552188071722
 20
193.9398095615069
 30
0.0
 11
-323.7552188071723
 21
192.9398095615069
 31
0.0
  0
LINE
  5
450
330
1F
100
AcDbEntity
  8
作図レイヤ
  6
Continuous
 62
     6
370
    13
100
AcDbLine
 10
-316.7552188071722
 20
193.9398095615069
 30
0.0
 11
-316.7552188071722
 21
179.9398095615068
 31
0.0
  0
LINE
  5
451
330
1F
100
AcDbEntity
  8
作図レイヤ
  6
Continuous
 62
     6
370
    13
100
AcDbLine
 10
-316.7552188071722
 20
193.6398095615069
 30
0.0
 11
-323.0552188071723
 21
193.6398095615069
 31
0.0
  0
LINE
  5
452
330
1F
100
AcDbEntity
  8
作図レイヤ
  6
Continuous
 62
     6
370
    13
100
AcDbLine
 10
-316.7552188071722
 20
193.6398095615069
 30
0.0
 11
-316.2356035649016
 21
193.9398095615069
 31
0.0
  0
LINE
  5
453
330
1F
100
AcDbEntity
  8
作図レイヤ
  6
DASHED
 62
     8
370
    13
100
AcDbLine
 10
-323.7552188071723
 20
191.9348095615069
 30
0.0
 11
-310.2552188071722
 21
191.2598095615069
 31
0.0
  0
LINE
  5
454
330
1F
100
AcDbEntity
  8
作図レイヤ
  6
Continuous
 62
     7
370
    25
100
AcDbLine
 10
-312.4552188071721
 20
186.9398095615068
 30
0.0
 11
-312.4552188071725
 21
203.9398095615068
 31
0.0
  0
LINE
  5
455
330
1F
100
AcDbEntity
  8
作図レイヤ
  6
Continuous
 62
     7
370
    25
100
AcDbLine
 10
-310.6052188071726
 20
204.4398095615069
 30
0.0
 11
-311.9552188071724
 21
204.4398095615069
 31
0.0
  0
LINE
  5
456
330
1F
100
AcDbEntity
  8
作図レイヤ
  6
Continuous
 62
     7
370
    25
100
AcDbLine
 10
-310.6052188071726
 20
204.4398095615069
 30
0.0
 11
-310.6052188071726
 21
186.9398095615068
 31
0.0
  0
LINE
  5
457
330
1F
100
AcDbEntity
  8
作図レイヤ
  6
Continuous
 62
     7
370
    25
100
AcDbLine
 10
-226.3552188071721
 20
204.4398095615067
 30
0.0
 11
-226.355218807172
 21
186.9398095615067
 31
0.0
  0
LINE
  5
458
330
1F
100
AcDbEntity
  8
作図レイヤ
  6
Continuous
 62
     7
370
    25
100
AcDbLine
 10
-225.3552188071716
 20
204.4398095615067
 30
0.0
 11
-225.355218807174
 21
186.9398095615067
 31
0.0
  0
LINE
  5
459
330
1F
100
AcDbEntity
  8
作図レイヤ
  6
Continuous
 62
     7
370
    25
100
AcDbLine
 10
-226.3552188071721
 20
169.4398095615067
 30
0.0
 11
-226.3552188071721
 21
186.9398095615067
 31
0.0
  0
LINE
  5
45A
330
1F
100
AcDbEntity
  8
作図レイヤ
  6
Continuous
 62
     7
370
    25
100
AcDbLine
 10
-225.3552188071716
 20
169.4398095615067
 30
0.0
 11
-225.355218807174
 21
186.9398095615067
 31
0.0
  0
LINE
  5
45B
330
1F
100
AcDbEntity
  8
作図レイヤ
  6
Continuous
 62
     7
370
    25
100
AcDbLine
 10
-180.9552188071719
 20
186.9398095615067
 30
0.0
 11
-180.9552188071719
 21
204.4398095615067
 31
0.0
  0
LINE
  5
45C
330
1F
100
AcDbEntity
  8
作図レイヤ
  6
Continuous
 62
     7
370
    25
100
AcDbLine
 10
-181.9552188071719
 20
186.9398095615067
 30
0.0
 11
-181.9552188071719
 21
204.4398095615067
 31
0.0
  0
LINE
  5
45D
330
1F
100
AcDbEntity
  8
作図レイヤ
  6
Continuous
 62
     7
370
    25
100
AcDbLine
 10
-306.2552188071726
 20
186.9398095615068
 30
0.0
 11
-306.2552188071726
 21
204.4398095615069
 31
0.0
  0
LINE
  5
45E
330
1F
100
AcDbEntity
  8
作図レイヤ
  6
Continuous
 62
     7
370
    25
100
AcDbLine
 10
-311.9552188071724
 20
204.4398095615069
 30
0.0
 11
-312.4552188071723
 21
203.9398095615068
 31
0.0
  0
LINE
  5
45F
330
1F
100
AcDbEntity
  8
作図レイヤ
  6
DASHED
 62
     8
370
    13
100
AcDbLine
 10
-323.7552188071723
 20
181.9448095615068
 30
0.0
 11
-310.2552188071722
 21
182.6198095615067
 31
0.0
  0
LINE
  5
460
330
1F
100
AcDbEntity
  8
作図レイヤ
  6
Continuous
 62
     7
370
    25
100
AcDbLine
 10
-287.032569076362
 20
169.4398095615067
 30
0.0
 11
-310.4552188071726
 21
169.4398095615067
 31
0.0
  0
LINE
  5
461
330
1F
100
AcDbEntity
  8
作図レイヤ
  6
Continuous
 62
     7
370
    25
100
AcDbLine
 10
-310.4552188071726
 20
170.9398095615068
 30
0.0
 11
-310.6052188071726
 21
170.9398095615068
 31
0.0
  0
LINE
  5
462
330
1F
100
AcDbEntity
  8
作図レイヤ
  6
Continuous
 62
     7
370
    25
100
AcDbLine
 10
-310.4552188071726
 20
169.4398095615068
 30
0.0
 11
-310.4552188071726
 21
186.9398095615068
 31
0.0
  0
LINE
  5
463
330
1F
100
AcDbEntity
  8
作図レイヤ
  6
Continuous
 62
     7
370
    25
100
AcDbLine
 10
-312.4552188071723
 20
179.9398095615067
 30
0.0
 11
-322.7552188071722
 21
179.9398095615068
 31
0.0
  0
LINE
  5
464
330
1F
100
AcDbEntity
  8
作図レイヤ
  6
Continuous
 62
     7
370
    25
100
AcDbLine
 10
-323.7552188071723
 20
180.9398095615068
 30
0.0
 11
-323.7552188071723
 21
186.9398095615068
 31
0.0
  0
LINE
  5
465
330
1F
100
AcDbEntity
  8
作図レイヤ
  6
Continuous
 62
     7
370
    25
100
AcDbLine
 10
-322.7552188071722
 20
179.9398095615068
 30
0.0
 11
-323.7552188071723
 21
180.9398095615068
 31
0.0
  0
LINE
  5
466
330
1F
100
AcDbEntity
  8
作図レイヤ
  6
Continuous
 62
     6
370
    13
100
AcDbLine
 10
-316.7552188071722
 20
180.2398095615068
 30
0.0
 11
-323.0552188071723
 21
180.2398095615068
 31
0.0
  0
LINE
  5
467
330
1F
100
AcDbEntity
  8
作図レイヤ
  6
Continuous
 62
     6
370
    13
100
AcDbLine
 10
-316.7552188071722
 20
180.2398095615068
 30
0.0
 11
-316.2356035649016
 21
179.9398095615068
 31
0.0
  0
LINE
  5
468
330
1F
100
AcDbEntity
  8
作図レイヤ
  6
Continuous
 62
     7
370
    25
100
AcDbLine
 10
-312.4552188071721
 20
186.9398095615068
 30
0.0
 11
-312.4552188071725
 21
169.9398095615068
 31
0.0
  0
LINE
  5
469
330
1F
100
AcDbEntity
  8
作図レイヤ
  6
Continuous
 62
     7
370
    25
100
AcDbLine
 10
-310.6052188071726
 20
169.4398095615067
 30
0.0
 11
-311.9552188071724
 21
169.4398095615067
 31
0.0
  0
LINE
  5
46A
330
1F
100
AcDbEntity
  8
作図レイヤ
  6
Continuous
 62
     7
370
    25
100
AcDbLine
 10
-310.6052188071726
 20
169.4398095615068
 30
0.0
 11
-310.6052188071726
 21
186.9398095615068
 31
0.0
  0
LINE
  5
46B
330
1F
100
AcDbEntity
  8
作図レイヤ
  6
Continuous
 62
     7
370
    25
100
AcDbLine
 10
-180.9552188071719
 20
186.9398095615067
 30
0.0
 11
-180.9552188071719
 21
169.4398095615067
 31
0.0
  0
LINE
  5
46C
330
1F
100
AcDbEntity
  8
作図レイヤ
  6
Continuous
 62
     7
370
    25
100
AcDbLine
 10
-181.9552188071719
 20
186.9398095615067
 30
0.0
 11
-181.9552188071719
 21
169.4398095615067
 31
0.0
  0
LINE
  5
46D
330
1F
100
AcDbEntity
  8
作図レイヤ
  6
Continuous
 62
     7
370
    25
100
AcDbLine
 10
-306.2552188071726
 20
186.9398095615068
 30
0.0
 11
-306.2552188071726
 21
169.4398095615067
 31
0.0
  0
LINE
  5
46E
330
1F
100
AcDbEntity
  8
作図レイヤ
  6
Continuous
 62
     7
370
    25
100
AcDbLine
 10
-311.9552188071724
 20
169.4398095615068
 30
0.0
 11
-312.4552188071723
 21
169.9398095615068
 31
0.0
  0
LINE
  5
46F
330
1F
100
AcDbEntity
  8
作図レイヤ
  6
Continuous
 62
     7
370
    25
100
AcDbLine
 10
-134.9232188071713
 20
191.9298095615067
 30
0.0
 11
-136.4552188071719
 21
191.8819345615066
 31
0.0
  0
LINE
  5
470
330
1F
100
AcDbEntity
  8
作図レイヤ
  6
Continuous
 62
     7
370
    25
100
AcDbLine
 10
-134.9232188071713
 20
181.9498095615067
 30
0.0
 11
-136.4552188071719
 21
181.9976845615066
 31
0.0
  0
LINE
  5
471
330
1F
100
AcDbEntity
  8
作図レイヤ
  6
Continuous
 62
     7
370
    25
100
AcDbLine
 10
-134.9232188071713
 20
181.0398095615066
 30
0.0
 11
-134.9232188071713
 21
192.8398095615066
 31
0.0
  0
LINE
  5
472
330
1F
100
AcDbEntity
  8
作図レイヤ
  6
Continuous
 62
     7
370
    25
100
AcDbLine
 10
-122.6232188071713
 20
181.0398095615066
 30
0.0
 11
-134.9232188071713
 21
181.0398095615066
 31
0.0
  0
LINE
  5
473
330
1F
100
AcDbEntity
  8
作図レイヤ
  6
Continuous
 62
     7
370
    25
100
AcDbLine
 10
-122.6232188071713
 20
192.8398095615066
 30
0.0
 11
-134.9232188071713
 21
192.8398095615066
 31
0.0
  0
LINE
  5
474
330
1F
100
AcDbEntity
  8
作図レイヤ
  6
Continuous
 62
     7
370
    25
100
AcDbLine
 10
-122.6232188071713
 20
181.0398095615066
 30
0.0
 11
-122.6232188071713
 21
192.8398095615066
 31
0.0
  0
LINE
  5
475
330
1F
100
AcDbEntity
  8
作図レイヤ
  6
Continuous
 62
     7
370
    25
100
AcDbLine
 10
-122.1232188071713
 20
181.4398095615066
 30
0.0
 11
-122.6232188071713
 21
181.4398095615066
 31
0.0
  0
LINE
  5
476
330
1F
100
AcDbEntity
  8
作図レイヤ
  6
Continuous
 62
     7
370
    25
100
AcDbLine
 10
-122.1232188071713
 20
192.4398095615066
 30
0.0
 11
-122.6232188071713
 21
192.4398095615066
 31
0.0
  0
LINE
  5
477
330
1F
100
AcDbEntity
  8
作図レイヤ
  6
Continuous
 62
     7
370
    25
100
AcDbLine
 10
-120.4232188071713
 20
183.4398095615066
 30
0.0
 11
-122.1232188071713
 21
183.4398095615066
 31
0.0
  0
LINE
  5
478
330
1F
100
AcDbEntity
  8
作図レイヤ
  6
Continuous
 62
     7
370
    25
100
AcDbLine
 10
-120.4232188071713
 20
190.4398095615066
 30
0.0
 11
-122.1232188071713
 21
190.4398095615066
 31
0.0
  0
LINE
  5
479
330
1F
100
AcDbEntity
  8
作図レイヤ
  6
Continuous
 62
     7
370
    25
100
AcDbLine
 10
-118.9232188071713
 20
181.1898095615066
 30
0.0
 11
-120.4232188071713
 21
181.1898095615066
 31
0.0
  0
LINE
  5
47A
330
1F
100
AcDbEntity
  8
作図レイヤ
  6
Continuous
 62
     7
370
    25
100
AcDbLine
 10
-118.9232188071713
 20
192.6898095615066
 30
0.0
 11
-120.4232188071713
 21
192.6898095615066
 31
0.0
  0
LINE
  5
47B
330
1F
100
AcDbEntity
  8
作図レイヤ
  6
Continuous
 62
     7
370
    25
100
AcDbLine
 10
-122.1232188071713
 20
181.4398095615066
 30
0.0
 11
-122.1232188071713
 21
192.4398095615066
 31
0.0
  0
LINE
  5
47C
330
1F
100
AcDbEntity
  8
作図レイヤ
  6
Continuous
 62
     7
370
    25
100
AcDbLine
 10
-120.4232188071713
 20
181.1898095615066
 30
0.0
 11
-120.4232188071713
 21
192.6898095615066
 31
0.0
  0
LINE
  5
47D
330
1F
100
AcDbEntity
  8
作図レイヤ
  6
Continuous
 62
     7
370
    25
100
AcDbLine
 10
-118.9232188071713
 20
181.1898095615066
 30
0.0
 11
-118.9232188071713
 21
192.6898095615066
 31
0.0
  0
LINE
  5
47E
330
1F
100
AcDbEntity
  8
作図レイヤ
  6
DASHDOT
 62
     4
370
    13
100
AcDbLine
 10
-108.9050783582163
 20
186.9398095615066
 30
0.0
 11
-332.1131715928307
 21
186.9398095615068
 31
0.0
  0
LINE
  5
47F
330
1F
100
AcDbEntity
  8
作図レイヤ
  6
Continuous
 62
     7
370
    25
100
AcDbLine
 10
-110.6333749592468
 20
189.9398095615066
 30
0.0
 11
-118.9232188071712
 21
189.9398095615066
 31
0.0
  0
LINE
  5
480
330
1F
100
AcDbEntity
  8
作図レイヤ
  6
Continuous
 62
     7
370
    25
100
AcDbLine
 10
-110.6333749592468
 20
183.9398095615066
 30
0.0
 11
-118.9232188071712
 21
183.9398095615066
 31
0.0
  0
LINE
  5
481
330
1F
100
AcDbEntity
  8
作図レイヤ
  6
Continuous
 62
     7
370
    20
100
AcDbLine
 10
-278.4552188071722
 20
170.4398095615067
 30
0.0
 11
-286.4552188071722
 21
170.4398095615067
 31
0.0
  0
LINE
  5
482
330
1F
100
AcDbEntity
  8
作図レイヤ
  6
Continuous
 62
     7
370
    20
100
AcDbLine
 10
-287.032569076362
 20
169.4398095615068
 30
0.0
 11
-286.4552188071722
 21
170.4398095615067
 31
0.0
  0
LINE
  5
483
330
1F
100
AcDbEntity
  8
作図レイヤ
  6
Continuous
 62
     7
370
    20
100
AcDbLine
 10
-277.8778685379827
 20
169.4398095615068
 30
0.0
 11
-278.4552188071722
 21
170.4398095615067
 31
0.0
  0
INSERT
  5
484
330
1F
100
AcDbEntity
  8
作図レイヤ
  6
Continuous
 62
     7
370
    25
100
AcDbBlockReference
  2
BLKF023
 10
15.08746962376192
 20
0.0
 30
0.0
 41
-1.0
  0
LINE
  5
485
330
1F
100
AcDbEntity
  8
作図レイヤ
  6
Continuous
 62
     7
370
    25
100
AcDbLine
 10
-167.4552188071719
 20
169.9398095615067
 30
0.0
 11
-175.4552188071719
 21
169.9398095615067
 31
0.0
  0
LINE
  5
486
330
1F
100
AcDbEntity
  8
作図レイヤ
  6
DASHDOT
 62
     4
370
    13
100
AcDbLine
 10
-171.4552188071719
 20
158.4398095615067
 30
0.0
 11
-171.4552188071719
 21
173.4398095615067
 31
0.0
  0
LINE
  5
487
330
1F
100
AcDbEntity
  8
作図レイヤ
  6
Continuous
 62
     7
370
    25
100
AcDbLine
 10
-175.4552188071719
 20
169.4398095615067
 30
0.0
 11
-175.4552188071719
 21
169.9398095615067
 31
0.0
  0
LINE
  5
488
330
1F
100
AcDbEntity
  8
作図レイヤ
  6
Continuous
 62
     7
370
    25
100
AcDbLine
 10
-167.4552188071719
 20
169.4398095615067
 30
0.0
 11
-167.4552188071719
 21
169.9398095615067
 31
0.0
  0
LINE
  5
489
330
1F
100
AcDbEntity
  8
作図レイヤ
  6
Continuous
 62
     7
370
    25
100
AcDbLine
 10
-175.4552188071719
 20
169.4398095615067
 30
0.0
 11
-277.8778685379827
 21
169.4398095615068
 31
0.0
  0
LINE
  5
48A
330
1F
100
AcDbEntity
  8
作図レイヤ
  6
Continuous
 62
     7
370
    25
100
AcDbLine
 10
-145.8027780628995
 20
161.4398095615067
 30
0.0
 11
-155.4052188071719
 21
161.4398095615067
 31
0.0
  0
LINE
  5
48B
330
1F
100
AcDbEntity
  8
作図レイヤ
  6
Continuous
 62
     7
370
    25
100
AcDbLine
 10
-145.8027780628995
 20
155.4398095615067
 30
0.0
 11
-155.4052188071719
 21
155.4398095615067
 31
0.0
  0
INSERT
  5
48C
330
1F
100
AcDbEntity
  8
作図レイヤ
  6
Continuous
 62
     7
370
    25
100
AcDbBlockReference
  2
BLKF024
 10
15.08746962376192
 20
0.0
 30
0.0
 41
-1.0
  0
LINE
  5
48D
330
1F
100
AcDbEntity
  8
作図レイヤ
  6
DASHDOT
 62
     4
370
    13
100
AcDbLine
 10
-50.7366144818042
 20
147.0341255821372
 30
0.0
 11
-50.73661448180414
 21
232.4497684302501
 31
0.0
  0
LINE
  5
48E
330
1F
100
AcDbEntity
  8
作図レイヤ
  6
DASHDOT
 62
     4
370
    13
100
AcDbLine
 10
-73.90507835821629
 20
186.9398095615066
 30
0.0
 11
-27.56815060539206
 21
186.9398095615066
 31
0.0
  0
LINE
  5
48F
330
1F
100
AcDbEntity
  8
作図レイヤ
  6
Continuous
 62
     7
370
    25
100
AcDbLine
 10
-189.455218807172
 20
201.9481395615067
 30
0.0
 11
-189.455218807172
 21
222.9398095615067
 31
0.0
  0
LINE
  5
490
330
1F
100
AcDbEntity
  8
作図レイヤ
  6
Continuous
 62
     7
370
    25
100
AcDbLine
 10
-189.955218807172
 20
223.4398095615067
 30
0.0
 11
-216.9552188071721
 21
223.4398095615067
 31
0.0
  0
LINE
  5
491
330
1F
100
AcDbEntity
  8
作図レイヤ
  6
Continuous
 62
     7
370
    25
100
AcDbLine
 10
-217.4552188071721
 20
201.9481395615067
 30
0.0
 11
-217.4552188071721
 21
222.9398095615067
 31
0.0
  0
LINE
  5
492
330
1F
100
AcDbEntity
  8
作図レイヤ
  6
DASHDOT
 62
     4
370
    13
100
AcDbLine
 10
-66.95453919529263
 20
213.4398095615066
 30
0.0
 11
-34.51868976831567
 21
213.4398095615066
 31
0.0
  0
LINE
  5
493
330
1F
100
AcDbEntity
  8
作図レイヤ
  6
Continuous
 62
     7
370
    25
100
AcDbLine
 10
-42.23661448180415
 20
223.4398095615066
 30
0.0
 11
-59.23661448180414
 21
223.4398095615066
 31
0.0
  0
INSERT
  5
494
330
1F
100
AcDbEntity
  8
作図レイヤ
  6
Continuous
 62
     7
370
    25
100
AcDbBlockReference
  2
BLKF025
 10
15.08746962376192
 20
0.0
 30
0.0
 41
-1.0
  0
LINE
  5
495
330
1F
100
AcDbEntity
  8
作図レイヤ
  6
Continuous
 62
     7
370
    25
100
AcDbLine
 10
-59.73661448180415
 20
201.9481405813102
 30
0.0
 11
-59.73661448180414
 21
222.9398095615066
 31
0.0
  0
LINE
  5
496
330
1F
100
AcDbEntity
  8
作図レイヤ
  6
Continuous
 62
     7
370
    25
100
AcDbLine
 10
-41.73661448180417
 20
201.9481405813102
 30
0.0
 11
-41.73661448180415
 21
222.9398095615066
 31
0.0
  0
LINE
  5
497
330
1F
100
AcDbEntity
  8
作図レイヤ
  6
Continuous
 62
     7
370
    25
100
AcDbLine
 10
-188.955218807172
 20
201.9481395615068
 30
0.0
 11
-217.9552188071721
 21
201.9481395615067
 31
0.0
  0
LINE
  5
498
330
1F
100
AcDbEntity
  8
作図レイヤ
  6
Continuous
 62
     7
370
    25
100
AcDbLine
 10
-217.9552188071721
 20
201.9481395615067
 30
0.0
 11
-217.9552188071721
 21
204.4398095615067
 31
0.0
  0
LINE
  5
499
330
1F
100
AcDbEntity
  8
作図レイヤ
  6
Continuous
 62
     7
370
    25
100
AcDbLine
 10
-188.955218807172
 20
201.9481395615067
 30
0.0
 11
-188.955218807172
 21
204.4398095615067
 31
0.0
  0
LINE
  5
49A
330
1F
100
AcDbEntity
  8
作図レイヤ
  6
Continuous
 62
     7
370
    25
100
AcDbLine
 10
-217.9552188071721
 20
204.4398095615067
 30
0.0
 11
-277.8778685379827
 21
204.4398095615069
 31
0.0
  0
INSERT
  5
49B
330
1F
100
AcDbEntity
  8
作図レイヤ
  6
Continuous
 62
     7
370
    25
100
AcDbBlockReference
  2
BLKF026
 10
15.08746962376192
 20
0.0
 30
0.0
 41
-1.0
  0
LINE
  5
49C
330
1F
100
AcDbEntity
  8
作図レイヤ
  6
Continuous
 62
     7
370
    25
100
AcDbLine
 10
-200.4552188071719
 20
169.9398095615067
 30
0.0
 11
-208.4552188071719
 21
169.9398095615067
 31
0.0
  0
LINE
  5
49D
330
1F
100
AcDbEntity
  8
作図レイヤ
  6
DASHDOT
 62
     4
370
    13
100
AcDbLine
 10
-204.4552188071719
 20
158.4398095615067
 30
0.0
 11
-204.4552188071719
 21
173.4398095615067
 31
0.0
  0
LINE
  5
49E
330
1F
100
AcDbEntity
  8
作図レイヤ
  6
Continuous
 62
     7
370
    25
100
AcDbLine
 10
-208.4552188071719
 20
169.4398095615067
 30
0.0
 11
-208.4552188071719
 21
169.9398095615067
 31
0.0
  0
LINE
  5
49F
330
1F
100
AcDbEntity
  8
作図レイヤ
  6
Continuous
 62
     7
370
    25
100
AcDbLine
 10
-200.4552188071719
 20
169.4398095615067
 30
0.0
 11
-200.4552188071719
 21
169.9398095615067
 31
0.0
  0
LINE
  5
4A0
330
1F
100
AcDbEntity
  8
作図レイヤ
  6
Continuous
 62
     7
370
    25
100
AcDbLine
 10
-178.8027780628995
 20
161.4398095615067
 30
0.0
 11
-188.4052188071719
 21
161.4398095615067
 31
0.0
  0
LINE
  5
4A1
330
1F
100
AcDbEntity
  8
作図レイヤ
  6
Continuous
 62
     7
370
    25
100
AcDbLine
 10
-178.8027780628995
 20
155.4398095615067
 30
0.0
 11
-188.4052188071719
 21
155.4398095615067
 31
0.0
  0
LINE
  5
4A2
330
1F
100
AcDbEntity
  8
作図レイヤ
  6
破線１
 62
     8
370
    13
100
AcDbLine
 10
-312.4552188071723
 20
193.439809561507
 30
0.0
 11
-316.4552188071724
 21
193.439809561507
 31
0.0
  0
LINE
  5
4A3
330
1F
100
AcDbEntity
  8
作図レイヤ
  6
破線１
 62
     8
370
    13
100
AcDbLine
 10
-316.4552188071724
 20
193.4398095615072
 30
0.0
 11
-316.4552188071724
 21
193.9398095615069
 31
0.0
  0
LINE
  5
4A4
330
1F
100
AcDbEntity
  8
作図レイヤ
  6
破線１
 62
     8
370
    13
100
AcDbLine
 10
-312.4552188071723
 20
193.4398095615071
 30
0.0
 11
-312.4552188071723
 21
193.9398095615067
 31
0.0
  0
LINE
  5
4A5
330
1F
100
AcDbEntity
  8
作図レイヤ
  6
破線１
 62
     8
370
    13
100
AcDbLine
 10
-312.4552188071723
 20
180.4398095615067
 30
0.0
 11
-316.4552188071724
 21
180.4398095615067
 31
0.0
  0
LINE
  5
4A6
330
1F
100
AcDbEntity
  8
作図レイヤ
  6
破線１
 62
     8
370
    13
100
AcDbLine
 10
-316.4552188071724
 20
180.4398095615064
 30
0.0
 11
-316.4552188071724
 21
179.9398095615068
 31
0.0
  0
LINE
  5
4A7
330
1F
100
AcDbEntity
  8
作図レイヤ
  6
破線１
 62
     8
370
    13
100
AcDbLine
 10
-312.4552188071723
 20
180.4398095615065
 30
0.0
 11
-312.4552188071723
 21
179.9398095615068
 31
0.0
  0
LINE
  5
4A8
330
1F
100
AcDbEntity
  8
作図レイヤ
  6
Continuous
 62
     7
370
    25
100
AcDbLine
 10
-163.917287596397
 20
216.5898095615068
 30
0.0
 11
-174.1527188071716
 21
216.5898095615068
 31
0.0
  0
LINE
  5
4A9
330
1F
100
AcDbEntity
  8
作図レイヤ
  6
Continuous
 62
     7
370
    25
100
AcDbLine
 10
-163.917287596397
 20
210.2898095615067
 30
0.0
 11
-174.1527188071715
 21
210.2898095615067
 31
0.0
  0
LINE
  5
4AB
330
1F
100
AcDbEntity
  8
作図レイヤ
  6
Continuous
 62
     7
370
    25
100
AcDbLine
 10
-136.9552188071719
 20
204.4398095615067
 30
0.0
 11
-136.9552188071719
 21
169.4398095615067
 31
0.0
  0
LINE
  5
4AC
330
1F
100
AcDbEntity
  8
作図レイヤ
  6
Continuous
 62
     7
370
    25
100
AcDbLine
 10
-312.4552188071722
 20
184.341733350154
 30
0.0
 11
-316.4552188071724
 21
184.341733350154
 31
0.0
  0
LINE
  5
4AD
330
1F
100
AcDbEntity
  8
作図レイヤ
  6
Continuous
 62
     7
370
    25
100
AcDbLine
 10
-312.4552188071721
 20
189.5378857728596
 30
0.0
 11
-316.4552188071724
 21
189.5378857728596
 31
0.0
  0
LINE
  5
4AE
330
1F
100
AcDbEntity
  8
作図レイヤ
  6
Continuous
 62
     7
370
    25
100
AcDbLine
 10
-316.4552188071724
 20
189.5378857728596
 30
0.0
 11
-316.4552188071724
 21
184.341733350154
 31
0.0
  0
LINE
  5
4AF
330
1F
100
AcDbEntity
  8
作図レイヤ
  6
Continuous
 62
     8
370
    13
100
AcDbLine
 10
-316.4552188071724
 20
189.5378857728595
 30
0.0
 11
-312.4552188071722
 21
184.341733350154
 31
0.0
  0
LINE
  5
4B0
330
1F
100
AcDbEntity
  8
作図レイヤ
  6
Continuous
 62
     8
370
    13
100
AcDbLine
 10
-316.4552188071724
 20
184.341733350154
 30
0.0
 11
-312.4552188071721
 21
189.5378857728596
 31
0.0
  0
CIRCLE
  5
4B1
330
1F
100
AcDbEntity
  8
作図レイヤ
  6
Continuous
 62
     7
370
    25
100
AcDbCircle
 10
-50.73661448180418
 20
186.9398095615066
 30
0.0
 40
17.5
  0
CIRCLE
  5
4B2
330
1F
100
AcDbEntity
  8
作図レイヤ
  6
Continuous
 62
     7
370
    25
100
AcDbCircle
 10
-50.73661448180418
 20
186.9398095615066
 30
0.0
 40
17.0
  0
CIRCLE
  5
4B3
330
1F
100
AcDbEntity
  8
作図レイヤ
  6
Continuous
 62
     7
370
    25
100
AcDbCircle
 10
-50.73661448180418
 20
186.9398095615066
 30
0.0
 40
5.9
  0
CIRCLE
  5
4B4
330
1F
100
AcDbEntity
  8
作図レイヤ
  6
Continuous
 62
     7
370
    25
100
AcDbCircle
 10
-50.73661448180418
 20
186.9398095615066
 30
0.0
 40
3.0
  0
LINE
  5
4B5
330
1F
100
AcDbEntity
  8
作図レイヤ
  6
Continuous
 62
     7
370
    25
100
AcDbLine
 10
-216.9552188071721
 20
223.4398095615067
 30
0.0
 11
-217.4552188071721
 21
222.9398095615067
 31
0.0
  0
LINE
  5
4B6
330
1F
100
AcDbEntity
  8
作図レイヤ
  6
Continuous
 62
     7
370
    25
100
AcDbLine
 10
-189.955218807172
 20
223.4398095615067
 30
0.0
 11
-189.455218807172
 21
222.9398095615067
 31
0.0
  0
LINE
  5
4B7
330
1F
100
AcDbEntity
  8
作図レイヤ
  6
Continuous
 62
     7
370
    25
100
AcDbLine
 10
-59.23661448180414
 20
223.4398095615066
 30
0.0
 11
-59.73661448180414
 21
222.9398095615066
 31
0.0
  0
LINE
  5
4B8
330
1F
100
AcDbEntity
  8
作図レイヤ
  6
Continuous
 62
     7
370
    25
100
AcDbLine
 10
-42.23661448180415
 20
223.4398095615066
 30
0.0
 11
-41.73661448180415
 21
222.9398095615066
 31
0.0
  0
INSERT
  5
4B9
330
1F
100
AcDbEntity
  8
作図レイヤ
  6
Continuous
 62
     7
370
    25
100
AcDbBlockReference
  2
BLKF028
 10
15.08746962376192
 20
0.0
 30
0.0
 41
-1.0
  0
LINE
  5
4BA
330
1F
100
AcDbEntity
  8
作図レイヤ
  6
Continuous
 62
     7
370
    25
100
AcDbLine
 10
-42.23661448180417
 20
202.2410581254411
 30
0.0
 11
-42.23661448180415
 21
223.4398095615066
 31
0.0
  0
LINE
  5
4BB
330
1F
100
AcDbEntity
  8
作図レイヤ
  6
Continuous
 62
     7
370
    25
100
AcDbLine
 10
-41.73661448180415
 20
222.9398095615066
 30
0.0
 11
-59.73661448180417
 21
222.9398095615066
 31
0.0
  0
LINE
  5
4BC
330
1F
100
AcDbEntity
  8
作図レイヤ
  6
Continuous
 62
     7
370
    25
100
AcDbLine
 10
-59.23661448180415
 20
202.2368681022851
 30
0.0
 11
-59.23661448180414
 21
223.4398095615066
 31
0.0
  0
LINE
  5
4BD
330
1F
100
AcDbEntity
  8
作図レイヤ
  6
Continuous
 62
     7
370
    25
100
AcDbLine
 10
-189.455218807172
 20
222.9398095615068
 30
0.0
 11
-217.4552188071719
 21
222.9398095615067
 31
0.0
  0
LINE
  5
4BE
330
1F
100
AcDbEntity
  8
作図レイヤ
  6
Continuous
 62
     7
370
    25
100
AcDbLine
 10
-189.955218807172
 20
201.9481395615067
 30
0.0
 11
-189.955218807172
 21
223.4398095615067
 31
0.0
  0
LINE
  5
4BF
330
1F
100
AcDbEntity
  8
作図レイヤ
  6
Continuous
 62
     7
370
    25
100
AcDbLine
 10
-216.9552188071721
 20
201.9481395615067
 30
0.0
 11
-216.9552188071721
 21
223.4398095615067
 31
0.0
  0
DIMENSION
  5
4C4
330
1F
100
AcDbEntity
  8
作図レイヤ
  6
Continuous
 62
     4
370
    13
100
AcDbDimension
  2
*D40
 10
-353.0228937761821
 20
204.439809561507
 30
0.0
 11
-353.0228937761819
 21
188.4162862763427
 31
0.0
 70
   161
  1
Φ<>
 71
     5
 42
35.0000000000002
  3
FX_DIMINFO
100
AcDbAlignedDimension
 13
-287.032569076362
 23
169.4398095615067
 33
0.0
 14
-287.032569076362
 24
204.4398095615069
 34
0.0
1001
ACAD_DSTYLE_DIMINSPECT
1070
   396
1000
100%
1070
   395
1000

1070
   394
1070
    33
1070
   393
1070
     0
1001
ACAD
1000
DSTYLE
1002
{
1070
     3
1000

1002
}
  0
DIMENSION
  5
4C5
330
1F
100
AcDbEntity
  8
作図レイヤ
  6
Continuous
 62
     4
370
    13
100
AcDbDimension
  2
*D41
 10
-312.4552188071724
 20
255.9849171068911
 30
0.0
 11
-224.4552188071721
 21
258.9849171068911
 31
0.0
 70
    33
 71
     5
 42
176.0000000000005
  3
FX_DIMINFO
100
AcDbAlignedDimension
 13
-136.4552188071719
 23
203.9398095615066
 33
0.0
 14
-312.4552188071725
 24
203.9398095615068
 34
0.0
1001
ACAD
1000
DSTYLE
1002
{
1070
   173
1070
     1
1070
   344
1005
7E
1070
   343
1005
78
1070
   178
1070
     7
1002
}
  0
DIMENSION
  5
4C7
330
1F
100
AcDbEntity
  8
作図レイヤ
  6
Continuous
 62
     4
370
    13
100
AcDbDimension
  2
*D43
 10
-217.4552188071721
 20
240.049770501943
 30
0.0
 11
-203.4552188071721
 21
243.049770501943
 31
0.0
 70
    33
 71
     5
 42
28.0
  3
FX_DIMINFO
100
AcDbAlignedDimension
 13
-189.455218807172
 23
222.9398095615067
 33
0.0
 14
-217.4552188071721
 24
222.9398095615067
 34
0.0
1001
ACAD
1000
DSTYLE
1002
{
1070
   173
1070
     1
1070
   344
1005
7E
1070
   343
1005
78
1070
   178
1070
     7
1002
}
  0
DIMENSION
  5
4C8
330
1F
100
AcDbEntity
  8
作図レイヤ
  6
Continuous
 62
     4
370
    13
100
AcDbDimension
  2
*D44
 10
-312.4552188071725
 20
240.049770501943
 30
0.0
 11
-264.9552188071723
 21
243.049770501943
 31
0.0
 70
    32
 71
     5
 42
95.0000000000004
  3
FX_DIMINFO
100
AcDbAlignedDimension
 13
-217.4552188071721
 23
222.9398095615067
 33
0.0
 14
-312.4552188071725
 24
203.9398095615068
 34
0.0
 50
180.0
100
AcDbRotatedDimension
1001
ACAD
1000
DSTYLE
1002
{
1070
   173
1070
     1
1070
   344
1005
7E
1070
   343
1005
78
1070
   178
1070
     7
1002
}
  0
LINE
  5
4CC
330
1F
100
AcDbEntity
  8
作図レイヤ
  6
Continuous
 62
     7
370
    25
100
AcDbLine
 10
-311.9552188071724
 20
204.4398095615069
 30
0.0
 11
-311.9552188071724
 21
169.4398095615067
 31
0.0
  0
LINE
  5
4CD
330
1F
100
AcDbEntity
  8
作図レイヤ
  6
Continuous
 62
     7
370
    25
100
AcDbLine
 10
-322.7552188071722
 20
193.9398095615069
 30
0.0
 11
-322.7552188071722
 21
179.9398095615068
 31
0.0
  0
LINE
  5
615
330
1F
100
AcDbEntity
  8
作図レイヤ
  6
Continuous
 62
     3
370
    13
100
AcDbLine
 10
-330.0552188071721
 20
199.4398095615069
 30
0.0
 11
-330.0552188071721
 21
174.4398095615069
 31
0.0
  0
LINE
  5
616
330
1F
100
AcDbEntity
  8
作図レイヤ
  6
Continuous
 62
     3
370
    13
100
AcDbLine
 10
-324.6309548071721
 20
173.9398095615069
 30
0.0
 11
-329.5552188071721
 21
173.9398095615069
 31
0.0
  0
LINE
  5
617
330
1F
100
AcDbEntity
  8
作図レイヤ
  6
Continuous
 62
     3
370
    13
100
AcDbLine
 10
-322.4665438071722
 20
186.9398095615069
 30
0.0
 11
-322.4665438071722
 21
174.2398095615068
 31
0.0
  0
LINE
  5
618
330
1F
100
AcDbEntity
  8
作図レイヤ
  6
Continuous
 62
     3
370
    13
100
AcDbLine
 10
-322.7552188071722
 20
186.9398095615069
 30
0.0
 11
-322.7552188071722
 21
174.7398095615068
 31
0.0
  0
LINE
  5
619
330
1F
100
AcDbEntity
  8
作図レイヤ
  6
Continuous
 62
     3
370
    13
100
AcDbLine
 10
-324.0430868071722
 20
174.5276775615068
 30
0.0
 11
-324.0430868071722
 21
186.9398095615069
 31
0.0
  0
LINE
  5
61A
330
1F
100
AcDbEntity
  8
作図レイヤ
  6
Continuous
 62
     3
370
    13
100
AcDbLine
 10
-324.6309548071721
 20
173.9398095615069
 30
0.0
 11
-324.6309548071721
 21
186.9398095615069
 31
0.0
  0
LINE
  5
61B
330
1F
100
AcDbEntity
  8
作図レイヤ
  6
Continuous
 62
     3
370
    13
100
AcDbLine
 10
-318.2552188071722
 20
174.2398095615068
 30
0.0
 11
-318.2552188071722
 21
184.9398095615069
 31
0.0
  0
LINE
  5
61C
330
1F
100
AcDbEntity
  8
作図レイヤ
  6
Continuous
 62
     3
370
    13
100
AcDbLine
 10
-317.7552188071723
 20
186.9398095615069
 30
0.0
 11
-317.7552188071723
 21
174.7398095615068
 31
0.0
  0
LINE
  5
61D
330
1F
100
AcDbEntity
  8
作図レイヤ
  6
Continuous
 62
     3
370
    13
100
AcDbLine
 10
-322.4665438071722
 20
174.2398095615068
 30
0.0
 11
-318.2552188071722
 21
174.2398095615068
 31
0.0
  0
LINE
  5
61E
330
1F
100
AcDbEntity
  8
作図レイヤ
  6
Continuous
 62
     3
370
    13
100
AcDbLine
 10
-317.7552188071723
 20
174.7398095615068
 30
0.0
 11
-318.2552188071722
 21
174.2398095615068
 31
0.0
  0
LINE
  5
61F
330
1F
100
AcDbEntity
  8
作図レイヤ
  6
Continuous
 62
     3
370
    13
100
AcDbLine
 10
-324.0430868071722
 20
174.5276775615068
 30
0.0
 11
-324.6309548071721
 21
173.9398095615069
 31
0.0
  0
LINE
  5
620
330
1F
100
AcDbEntity
  8
作図レイヤ
  6
Continuous
 62
     3
370
    13
100
AcDbLine
 10
-322.7552188071722
 20
174.7398095615068
 30
0.0
 11
-322.4665438071722
 21
174.2398095615068
 31
0.0
  0
LINE
  5
621
330
1F
100
AcDbEntity
  8
作図レイヤ
  6
Continuous
 62
     3
370
    13
100
AcDbLine
 10
-322.7552188071722
 20
174.7398095615068
 30
0.0
 11
-324.0430868071722
 21
174.7398095615068
 31
0.0
  0
LINE
  5
622
330
1F
100
AcDbEntity
  8
作図レイヤ
  6
Continuous
 62
     3
370
    13
100
AcDbLine
 10
-320.4665438071722
 20
184.9398095615069
 30
0.0
 11
-317.7552188071723
 21
184.9398095615069
 31
0.0
  0
ARC
  5
623
330
1F
100
AcDbEntity
  8
作図レイヤ
  6
Continuous
 62
     3
370
    13
100
AcDbCircle
 10
-320.4665438071722
 20
186.9398095615069
 30
0.0
 40
2.0
100
AcDbArc
 50
180.0
 51
270.0
  0
ARC
  5
624
330
1F
100
AcDbEntity
  8
作図レイヤ
  6
Continuous
 62
     3
370
    13
100
AcDbCircle
 10
-329.5552188071721
 20
174.4398095615069
 30
0.0
 40
0.5
100
AcDbArc
 50
180.0
 51
270.0
  0
LINE
  5
625
330
1F
100
AcDbEntity
  8
作図レイヤ
  6
Continuous
 62
     3
370
    13
100
AcDbLine
 10
-324.6309548071721
 20
199.9398095615069
 30
0.0
 11
-329.5552188071721
 21
199.9398095615069
 31
0.0
  0
LINE
  5
626
330
1F
100
AcDbEntity
  8
作図レイヤ
  6
Continuous
 62
     3
370
    13
100
AcDbLine
 10
-322.4665438071722
 20
186.9398095615069
 30
0.0
 11
-322.4665438071722
 21
199.6398095615069
 31
0.0
  0
LINE
  5
627
330
1F
100
AcDbEntity
  8
作図レイヤ
  6
Continuous
 62
     3
370
    13
100
AcDbLine
 10
-322.7552188071722
 20
186.9398095615069
 30
0.0
 11
-322.7552188071722
 21
199.1398095615069
 31
0.0
  0
LINE
  5
628
330
1F
100
AcDbEntity
  8
作図レイヤ
  6
Continuous
 62
     3
370
    13
100
AcDbLine
 10
-324.0430868071722
 20
199.3519415615068
 30
0.0
 11
-324.0430868071722
 21
186.9398095615069
 31
0.0
  0
LINE
  5
629
330
1F
100
AcDbEntity
  8
作図レイヤ
  6
Continuous
 62
     3
370
    13
100
AcDbLine
 10
-324.6309548071721
 20
199.9398095615069
 30
0.0
 11
-324.6309548071721
 21
186.9398095615069
 31
0.0
  0
LINE
  5
62A
330
1F
100
AcDbEntity
  8
作図レイヤ
  6
Continuous
 62
     3
370
    13
100
AcDbLine
 10
-318.2552188071722
 20
199.6398095615069
 30
0.0
 11
-318.2552188071722
 21
188.9398095615069
 31
0.0
  0
LINE
  5
62B
330
1F
100
AcDbEntity
  8
作図レイヤ
  6
Continuous
 62
     3
370
    13
100
AcDbLine
 10
-317.7552188071723
 20
186.9398095615069
 30
0.0
 11
-317.7552188071723
 21
199.1398095615069
 31
0.0
  0
LINE
  5
62C
330
1F
100
AcDbEntity
  8
作図レイヤ
  6
Continuous
 62
     3
370
    13
100
AcDbLine
 10
-322.4665438071722
 20
199.6398095615069
 30
0.0
 11
-318.2552188071722
 21
199.6398095615069
 31
0.0
  0
LINE
  5
62D
330
1F
100
AcDbEntity
  8
作図レイヤ
  6
Continuous
 62
     3
370
    13
100
AcDbLine
 10
-317.7552188071723
 20
199.1398095615069
 30
0.0
 11
-318.2552188071722
 21
199.6398095615069
 31
0.0
  0
LINE
  5
62E
330
1F
100
AcDbEntity
  8
作図レイヤ
  6
Continuous
 62
     3
370
    13
100
AcDbLine
 10
-324.0430868071722
 20
199.3519415615068
 30
0.0
 11
-324.6309548071721
 21
199.9398095615069
 31
0.0
  0
LINE
  5
62F
330
1F
100
AcDbEntity
  8
作図レイヤ
  6
Continuous
 62
     3
370
    13
100
AcDbLine
 10
-322.7552188071722
 20
199.1398095615069
 30
0.0
 11
-322.4665438071722
 21
199.6398095615069
 31
0.0
  0
LINE
  5
630
330
1F
100
AcDbEntity
  8
作図レイヤ
  6
Continuous
 62
     3
370
    13
100
AcDbLine
 10
-322.7552188071722
 20
199.1398095615069
 30
0.0
 11
-324.0430868071722
 21
199.1398095615069
 31
0.0
  0
LINE
  5
631
330
1F
100
AcDbEntity
  8
作図レイヤ
  6
Continuous
 62
     3
370
    13
100
AcDbLine
 10
-320.4665438071722
 20
188.9398095615069
 30
0.0
 11
-317.7552188071723
 21
188.9398095615069
 31
0.0
  0
ARC
  5
632
330
1F
100
AcDbEntity
  8
作図レイヤ
  6
Continuous
 62
     3
370
    13
100
AcDbCircle
 10
-320.4665438071722
 20
186.9398095615069
 30
0.0
 40
2.0
100
AcDbArc
 50
90.0
 51
180.0
  0
ARC
  5
633
330
1F
100
AcDbEntity
  8
作図レイヤ
  6
Continuous
 62
     3
370
    13
100
AcDbCircle
 10
-329.5552188071721
 20
199.4398095615069
 30
0.0
 40
0.5
100
AcDbArc
 50
90.0
 51
180.0
  0
ENDSEC
  0
SECTION
  2
OBJECTS
  0
DICTIONARY
  5
C
330
0
100
AcDbDictionary
281
     1
  3
ACAD_CIP_PREVIOUS_PRODUCT_INFO
350
3C4
  3
ACAD_COLOR
350
3BA
  3
ACAD_DETAILVIEWSTYLE
350
3BD
  3
ACAD_FIELDLIST
350
430
  3
ACAD_GROUP
350
D
  3
ACAD_LAYOUT
350
1A
  3
ACAD_MATERIAL
350
43
  3
ACAD_MLEADERSTYLE
350
6B
  3
ACAD_MLINESTYLE
350
17
  3
ACAD_PLOTSETTINGS
350
19
  3
ACAD_PLOTSTYLENAME
350
E
  3
ACAD_SCALELIST
350
47
  3
ACAD_SECTIONVIEWSTYLE
350
3BB
  3
ACAD_TABLESTYLE
350
69
  3
ACAD_VISUALSTYLE
350
2A
  3
ACDB_RECOMPOSE_DATA
350
77F
  3
AcDbVariableDictionary
350
370
  3
AcmDictionary
350
3F1
  3
AEC_PROPERTY_SET_DEFS
350
599
  3
AMG
350
3C5
  3
AMGSNAPSETTINGS
350
43A
  3
ASE_INDEX_DICTIONARY
350
636
  3
DWGPROPS
350
780
  0
DICTIONARY
  5
772
330
10
100
AcDbDictionary
280
     1
281
     1
  3
ADSK_XREC_LAYER_RECONCILED
360
773
  0
DICTIONARY
  5
774
330
E2
100
AcDbDictionary
280
     1
281
     1
  3
ADSK_XREC_LAYER_RECONCILED
360
775
  0
XRECORD
  5
3C4
102
{ACAD_REACTORS
330
C
102
}
330
C
100
AcDbXrecord
280
     1
300
AMECH_PP
300
2020
300
AMECH_PP_F_S
  0
DICTIONARY
  5
3BA
102
{ACAD_REACTORS
330
C
102
}
330
C
100
AcDbDictionary
281
     1
  0
DICTIONARY
  5
3BD
102
{ACAD_REACTORS
330
C
102
}
330
C
100
AcDbDictionary
281
     1
  3
Metric50
350
3BE
  0
FIELDLIST
  5
430
102
{ACAD_REACTORS
330
C
102
}
330
C
100
AcDbIdSet
 90
        3
330
42E
330
42F
330
431
100
AcDbFieldList
  0
DICTIONARY
  5
D
102
{ACAD_REACTORS
330
C
102
}
330
C
100
AcDbDictionary
281
     1
  0
DICTIONARY
  5
1A
102
{ACAD_REACTORS
330
C
102
}
330
C
100
AcDbDictionary
281
     1
  3
Layout1
350
1E
  3
Layout2
350
26
  3
Model
350
22
  0
DICTIONARY
  5
43
102
{ACAD_REACTORS
330
C
102
}
330
C
100
AcDbDictionary
281
     1
  3
ByBlock
350
45
  3
ByLayer
350
44
  3
Global
350
46
  0
DICTIONARY
  5
6B
102
{ACAD_REACTORS
330
C
102
}
330
C
100
AcDbDictionary
281
     1
  3
Standard
350
6C
  0
DICTIONARY
  5
17
102
{ACAD_REACTORS
330
C
102
}
330
C
100
AcDbDictionary
281
     1
  3
Standard
350
18
  0
DICTIONARY
  5
19
102
{ACAD_REACTORS
330
C
102
}
330
C
100
AcDbDictionary
281
     1
  0
ACDBDICTIONARYWDFLT
  5
E
102
{ACAD_REACTORS
330
C
102
}
330
C
100
AcDbDictionary
281
     1
  3
Normal
350
F
100
AcDbDictionaryWithDefault
340
F
  0
DICTIONARY
  5
47
102
{ACAD_REACTORS
330
C
102
}
330
C
100
AcDbDictionary
281
     1
  3
A0
350
48
  3
A1
350
49
  3
A2
350
4A
  3
A3
350
4B
  3
A4
350
4C
  3
A5
350
4D
  3
A6
350
4E
  3
A7
350
4F
  3
A8
350
50
  3
A9
350
51
  3
B0
350
52
  3
B1
350
53
  3
B2
350
54
  3
B3
350
55
  3
B4
350
56
  3
B5
350
57
  3
B6
350
58
  3
B7
350
59
  3
B8
350
5A
  3
B9
350
5B
  3
C0
350
5C
  3
C1
350
5D
  3
C2
350
5E
  3
C3
350
5F
  3
C4
350
60
  3
C5
350
61
  3
C6
350
62
  3
C7
350
63
  3
C8
350
64
  3
C9
350
65
  3
D0
350
66
  3
D1
350
67
  3
D2
350
68
  0
DICTIONARY
  5
3BB
102
{ACAD_REACTORS
330
C
102
}
330
C
100
AcDbDictionary
281
     1
  3
Metric50
350
3BC
  0
DICTIONARY
  5
69
102
{ACAD_REACTORS
330
C
102
}
330
C
100
AcDbDictionary
281
     1
  3
Standard
350
6A
  0
DICTIONARY
  5
2A
102
{ACAD_REACTORS
330
C
102
}
330
C
100
AcDbDictionary
281
     1
  3
2dWireframe
350
2F
  3
Basic
350
32
  3
Brighten
350
36
  3
ColorChange
350
3A
  3
Conceptual
350
34
  3
Dim
350
35
  3
EdgeColorOff
350
3D
  3
Facepattern
350
39
  3
Flat
350
2B
  3
FlatWithEdges
350
2C
  3
Gouraud
350
2D
  3
GouraudWithEdges
350
2E
  3
Hidden
350
31
  3
JitterOff
350
3B
  3
Linepattern
350
38
  3
OverhangOff
350
3C
  3
Realistic
350
33
  3
Shaded
350
42
  3
Shaded with edges
350
41
  3
Shades of Gray
350
3E
  3
Sketchy
350
3F
  3
Thicken
350
37
  3
Wireframe
350
30
  3
X-Ray
350
40
  0
XRECORD
  5
77F
102
{ACAD_REACTORS
330
C
102
}
330
C
100
AcDbXrecord
280
     1
 90
        1
330
6A
  0
DICTIONARY
  5
370
102
{ACAD_REACTORS
330
C
102
}
330
C
100
AcDbDictionary
281
     1
  3
CANNOSCALE
350
37C
  3
CMLEADERSTYLE
350
372
  3
CTABLESTYLE
350
371
  3
CVIEWDETAILSTYLE
350
776
  3
CVIEWSECTIONSTYLE
350
777
  3
DIMASSOC
350
378
  3
HIDETEXT
350
379
  3
INDEXCTL
350
779
  3
MSLTSCALE
350
37D
  3
PSOLHEIGHT
350
77B
  3
PSOLWIDTH
350
77A
  3
SECTIONTHICKNESSINC
350
377
  3
SORTENTS
350
778
  3
XCLIPFRAME
350
77C
  0
DICTIONARY
  5
3F1
102
{ACAD_REACTORS
330
C
102
}
330
C
100
AcDbDictionary
281
     1
  3
AcmStdDictionary
350
3F8
  0
DICTIONARY
  5
599
102
{ACAD_REACTORS
330
C
102
}
330
C
100
AcDbDictionary
281
     1
  0
DICTIONARY
  5
3C5
102
{ACAD_REACTORS
330
C
102
}
330
C
100
AcDbDictionary
281
     1
  0
DICTIONARY
  5
43A
102
{ACAD_REACTORS
330
C
102
}
330
C
100
AcDbDictionary
281
     1
  0
DICTIONARY
  5
636
102
{ACAD_REACTORS
330
C
102
}
330
C
100
AcDbDictionary
281
     1
  3
ASEBlockHierarchyIndexRecord
350
637
1001
DCO15
1040
2022557534.0
  0
XRECORD
  5
780
102
{ACAD_REACTORS
330
C
102
}
330
C
100
AcDbXrecord
280
     1
  1
DWGPROPS COOKIE
  2

  3

  4

  6

  7

  8
zoomc3
  9

300
=
301
=
302
=
303
=
304
=
305
=
306
=
307
=
308
=
309
=
 40
0.0080208449074074
 41
2457735.380636574
 42
2459212.442569445
  1

 90
        0
  0
XRECORD
  5
773
102
{ACAD_REACTORS
330
772
102
}
330
772
100
AcDbXrecord
280
     1
290
     1
  0
XRECORD
  5
775
102
{ACAD_REACTORS
330
774
102
}
330
774
100
AcDbXrecord
280
     1
290
     1
  0
ACDBDETAILVIEWSTYLE
  5
3BE
102
{ACAD_XDICTIONARY
360
7BA
102
}
102
{ACAD_REACTORS
330
3BD
330
424
102
}
330
3BD
100
AcDbModelDocViewStyle
 70
     0
  3
Metric50
290
     0
100
AcDbDetailViewStyle
 70
     0
 71
     0
 90
        3
 71
     1
340
11
 40
5.0
340
0
 40
5.0
300

 40
0.0
280
     1
 71
     2
340
16
 90
       25
 71
     3
340
11
 40
5.0
 90
        0
 40
15.0
 90
        1
300
%<\AcVar ViewDetailId>% (%<\AcVar ViewScale \f "%sn">%)
 71
     4
340
16
 90
       25
340
16
 90
       25
280
     0
  0
LAYOUT
  5
1E
102
{ACAD_XDICTIONARY
360
781
102
}
102
{ACAD_REACTORS
330
1A
102
}
330
1A
100
AcDbPlotSettings
  1

  2
none_device
  4

  6

 40
0.0
 41
0.0
 42
0.0
 43
0.0
 44
0.0
 45
0.0
 46
0.0
 47
0.0
 48
0.0
 49
0.0
140
0.0
141
0.0
142
1.0
143
1.0
 70
   688
 72
     1
 73
     0
 74
     5
  7

 75
    16
147
1.0
148
0.0
149
0.0
100
AcDbLayout
  1
Layout1
 70
     1
 71
     1
 10
0.0
 20
0.0
 11
420.0
 21
297.0
 12
0.0
 22
0.0
 32
0.0
 14
1.000000000000000E+20
 24
1.000000000000000E+20
 34
1.000000000000000E+20
 15
-1.000000000000000E+20
 25
-1.000000000000000E+20
 35
-1.000000000000000E+20
146
0.0
 13
0.0
 23
0.0
 33
0.0
 16
1.0
 26
0.0
 36
0.0
 17
0.0
 27
1.0
 37
0.0
 76
     0
330
1B
  0
LAYOUT
  5
26
102
{ACAD_XDICTIONARY
360
785
102
}
102
{ACAD_REACTORS
330
1A
102
}
330
1A
100
AcDbPlotSettings
  1

  2
none_device
  4

  6

 40
0.0
 41
0.0
 42
0.0
 43
0.0
 44
0.0
 45
0.0
 46
0.0
 47
0.0
 48
0.0
 49
0.0
140
0.0
141
0.0
142
1.0
143
1.0
 70
   688
 72
     1
 73
     0
 74
     5
  7

 75
    16
147
1.0
148
0.0
149
0.0
100
AcDbLayout
  1
Layout2
 70
     1
 71
     2
 10
0.0
 20
0.0
 11
0.0
 21
0.0
 12
0.0
 22
0.0
 32
0.0
 14
0.0
 24
0.0
 34
0.0
 15
0.0
 25
0.0
 35
0.0
146
0.0
 13
0.0
 23
0.0
 33
0.0
 16
1.0
 26
0.0
 36
0.0
 17
0.0
 27
1.0
 37
0.0
 76
     0
330
23
  0
LAYOUT
  5
22
102
{ACAD_XDICTIONARY
360
783
102
}
102
{ACAD_REACTORS
330
1A
102
}
330
1A
100
AcDbPlotSettings
  1

  2
none_device
  4
Letter_(8.50_x_11.00_Inches)
  6

 40
6.349999999999999
 41
6.349999999999999
 42
6.350005079999999
 43
6.350005079999999
 44
215.9
 45
279.4
 46
0.0
 47
0.0
 48
0.0
 49
0.0
140
0.0
141
0.0
142
1.0
143
1.0
 70
  1712
 72
     1
 73
     0
 74
     0
  7

 75
     0
147
1.0
148
0.0
149
0.0
100
AcDbLayout
  1
Model
 70
     1
 71
     0
 10
0.0
 20
0.0
 11
420.0
 21
297.0
 12
0.0
 22
0.0
 32
0.0
 14
0.0
 24
0.0
 34
0.0
 15
420.0
 25
297.0
 35
0.0
146
0.0
 13
0.0
 23
0.0
 33
0.0
 16
1.0
 26
0.0
 36
0.0
 17
0.0
 27
1.0
 37
0.0
 76
     0
330
1F
331
29
  0
MATERIAL
  5
45
102
{ACAD_XDICTIONARY
360
3B0
102
}
102
{ACAD_REACTORS
330
43
102
}
330
43
100
AcDbMaterial
  1
ByBlock
  0
MATERIAL
  5
44
102
{ACAD_XDICTIONARY
360
3AE
102
}
102
{ACAD_REACTORS
330
43
102
}
330
43
100
AcDbMaterial
  1
ByLayer
  0
MATERIAL
  5
46
102
{ACAD_XDICTIONARY
360
3B2
102
}
102
{ACAD_REACTORS
330
43
102
}
330
43
100
AcDbMaterial
  1
Global
  0
MLEADERSTYLE
  5
6C
102
{ACAD_REACTORS
330
6B
102
}
330
6B
100
AcDbMLeaderStyle
170
     2
171
     1
172
     0
 90
        2
 40
0.0
 41
0.0
173
     1
 91
-1056964608
340
14
 92
       -2
290
     1
 42
2.0
291
     1
 43
8.0
  3
Standard
 44
4.0
300

342
11
174
     1
178
     6
175
     1
176
     0
 93
-1056964608
 45
4.0
292
     0
297
     0
 46
4.0
 94
-1056964608
 47
1.0
 49
1.0
140
1.0
293
     1
141
0.0
294
     1
177
     0
142
1.0
295
     0
296
     0
143
3.75
1001
ACAD_MLEADERVER
1070
     2
  0
MLINESTYLE
  5
18
102
{ACAD_REACTORS
330
17
102
}
330
17
100
AcDbMlineStyle
  2
STANDARD
 70
     0
  3

 62
   256
 51
90.0
 52
90.0
 71
     2
 49
0.5
 62
   256
  6
BYLAYER
 49
-0.5
 62
   256
  6
BYLAYER
  0
ACDBPLACEHOLDER
  5
F
102
{ACAD_REACTORS
330
E
102
}
330
E
  0
SCALE
  5
48
102
{ACAD_REACTORS
330
47
102
}
330
47
100
AcDbScale
 70
     0
300
1:1
140
1.0
141
1.0
290
     1
  0
SCALE
  5
49
102
{ACAD_REACTORS
330
47
102
}
330
47
100
AcDbScale
 70
     0
300
1:2
140
1.0
141
2.0
290
     0
  0
SCALE
  5
4A
102
{ACAD_REACTORS
330
47
102
}
330
47
100
AcDbScale
 70
     0
300
1:4
140
1.0
141
4.0
290
     0
  0
SCALE
  5
4B
102
{ACAD_REACTORS
330
47
102
}
330
47
100
AcDbScale
 70
     0
300
1:5
140
1.0
141
5.0
290
     0
  0
SCALE
  5
4C
102
{ACAD_REACTORS
330
47
102
}
330
47
100
AcDbScale
 70
     0
300
1:8
140
1.0
141
8.0
290
     0
  0
SCALE
  5
4D
102
{ACAD_REACTORS
330
47
102
}
330
47
100
AcDbScale
 70
     0
300
1:10
140
1.0
141
10.0
290
     0
  0
SCALE
  5
4E
102
{ACAD_REACTORS
330
47
102
}
330
47
100
AcDbScale
 70
     0
300
1:16
140
1.0
141
16.0
290
     0
  0
SCALE
  5
4F
102
{ACAD_REACTORS
330
47
102
}
330
47
100
AcDbScale
 70
     0
300
1:20
140
1.0
141
20.0
290
     0
  0
SCALE
  5
50
102
{ACAD_REACTORS
330
47
102
}
330
47
100
AcDbScale
 70
     0
300
1:30
140
1.0
141
30.0
290
     0
  0
SCALE
  5
51
102
{ACAD_REACTORS
330
47
102
}
330
47
100
AcDbScale
 70
     0
300
1:40
140
1.0
141
40.0
290
     0
  0
SCALE
  5
52
102
{ACAD_REACTORS
330
47
102
}
330
47
100
AcDbScale
 70
     0
300
1:50
140
1.0
141
50.0
290
     0
  0
SCALE
  5
53
102
{ACAD_REACTORS
330
47
102
}
330
47
100
AcDbScale
 70
     0
300
1:100
140
1.0
141
100.0
290
     0
  0
SCALE
  5
54
102
{ACAD_REACTORS
330
47
102
}
330
47
100
AcDbScale
 70
     0
300
2:1
140
2.0
141
1.0
290
     0
  0
SCALE
  5
55
102
{ACAD_REACTORS
330
47
102
}
330
47
100
AcDbScale
 70
     0
300
4:1
140
4.0
141
1.0
290
     0
  0
SCALE
  5
56
102
{ACAD_REACTORS
330
47
102
}
330
47
100
AcDbScale
 70
     0
300
8:1
140
8.0
141
1.0
290
     0
  0
SCALE
  5
57
102
{ACAD_REACTORS
330
47
102
}
330
47
100
AcDbScale
 70
     0
300
10:1
140
10.0
141
1.0
290
     0
  0
SCALE
  5
58
102
{ACAD_REACTORS
330
47
102
}
330
47
100
AcDbScale
 70
     0
300
100:1
140
100.0
141
1.0
290
     0
  0
SCALE
  5
59
102
{ACAD_REACTORS
330
47
102
}
330
47
100
AcDbScale
 70
     0
300
1/128" = 1'-0"
140
0.0078125
141
12.0
290
     0
  0
SCALE
  5
5A
102
{ACAD_REACTORS
330
47
102
}
330
47
100
AcDbScale
 70
     0
300
1/64" = 1'-0"
140
0.015625
141
12.0
290
     0
  0
SCALE
  5
5B
102
{ACAD_REACTORS
330
47
102
}
330
47
100
AcDbScale
 70
     0
300
1/32" = 1'-0"
140
0.03125
141
12.0
290
     0
  0
SCALE
  5
5C
102
{ACAD_REACTORS
330
47
102
}
330
47
100
AcDbScale
 70
     0
300
1/16" = 1'-0"
140
0.0625
141
12.0
290
     0
  0
SCALE
  5
5D
102
{ACAD_REACTORS
330
47
102
}
330
47
100
AcDbScale
 70
     0
300
3/32" = 1'-0"
140
0.09375
141
12.0
290
     0
  0
SCALE
  5
5E
102
{ACAD_REACTORS
330
47
102
}
330
47
100
AcDbScale
 70
     0
300
1/8" = 1'-0"
140
0.125
141
12.0
290
     0
  0
SCALE
  5
5F
102
{ACAD_REACTORS
330
47
102
}
330
47
100
AcDbScale
 70
     0
300
3/16" = 1'-0"
140
0.1875
141
12.0
290
     0
  0
SCALE
  5
60
102
{ACAD_REACTORS
330
47
102
}
330
47
100
AcDbScale
 70
     0
300
1/4" = 1'-0"
140
0.25
141
12.0
290
     0
  0
SCALE
  5
61
102
{ACAD_REACTORS
330
47
102
}
330
47
100
AcDbScale
 70
     0
300
3/8" = 1'-0"
140
0.375
141
12.0
290
     0
  0
SCALE
  5
62
102
{ACAD_REACTORS
330
47
102
}
330
47
100
AcDbScale
 70
     0
300
1/2" = 1'-0"
140
0.5
141
12.0
290
     0
  0
SCALE
  5
63
102
{ACAD_REACTORS
330
47
102
}
330
47
100
AcDbScale
 70
     0
300
3/4" = 1'-0"
140
0.75
141
12.0
290
     0
  0
SCALE
  5
64
102
{ACAD_REACTORS
330
47
102
}
330
47
100
AcDbScale
 70
     0
300
1" = 1'-0"
140
1.0
141
12.0
290
     0
  0
SCALE
  5
65
102
{ACAD_REACTORS
330
47
102
}
330
47
100
AcDbScale
 70
     0
300
1-1/2" = 1'-0"
140
1.5
141
12.0
290
     0
  0
SCALE
  5
66
102
{ACAD_REACTORS
330
47
102
}
330
47
100
AcDbScale
 70
     0
300
3" = 1'-0"
140
3.0
141
12.0
290
     0
  0
SCALE
  5
67
102
{ACAD_REACTORS
330
47
102
}
330
47
100
AcDbScale
 70
     0
300
6" = 1'-0"
140
6.0
141
12.0
290
     0
  0
SCALE
  5
68
102
{ACAD_REACTORS
330
47
102
}
330
47
100
AcDbScale
 70
     0
300
1'-0" = 1'-0"
140
12.0
141
12.0
290
     0
  0
ACDBSECTIONVIEWSTYLE
  5
3BC
102
{ACAD_XDICTIONARY
360
7B8
102
}
102
{ACAD_REACTORS
330
3BB
330
423
102
}
330
3BB
100
AcDbModelDocViewStyle
 70
     0
  3
Metric50
290
     0
100
AcDbSectionViewStyle
 70
     0
 71
     0
 90
      102
 71
     1
340
11
 40
5.0
340
0
340
0
 40
5.0
300
I, O, Q, S, X, Z
 40
10.0
 90
        0
 40
2.5
 90
        0
 71
     2
340
16
 90
       25
340
16
 90
       50
 40
5.0
 40
2.5
 40
5.0
 71
     3
340
11
 40
5.0
 90
        0
 40
15.0
 90
        1
300
%<\AcVar ViewSectionStartId>%-%<\AcVar ViewSectionEndId>% (%<\AcVar ViewScale \f "%sn">%)
 71
     4
300
ANSI31
 40
1.0
 90
        0
290
     0
290
     0
 90
        6
 40
0.0
 40
1.570796326794896
 40
0.2617993877991494
 40
1.308996938995747
 40
-0.2617993877991494
 40
1.832595714594046
  0
TABLESTYLE
  5
6A
102
{ACAD_XDICTIONARY
360
77D
102
}
102
{ACAD_REACTORS
330
69
102
}
330
69
100
AcDbTableStyle
  3
Standard
 70
     0
 71
     0
 40
1.5
 41
1.5
280
     0
281
     0
  7
Standard
140
4.5
170
     2
 62
     0
 63
     7
283
     0
274
    -2
284
     1
 64
     0
275
    -2
285
     1
 65
     0
276
    -2
286
     1
 66
     0
277
    -2
287
     1
 67
     0
278
    -2
288
     1
 68
     0
279
    -2
289
     1
 69
     0
  7
Standard
140
6.0
170
     5
 62
     0
 63
     7
283
     0
274
    -2
284
     1
 64
     0
275
    -2
285
     1
 65
     0
276
    -2
286
     1
 66
     0
277
    -2
287
     1
 67
     0
278
    -2
288
     1
 68
     0
279
    -2
289
     1
 69
     0
  7
Standard
140
4.5
170
     5
 62
     0
 63
     7
283
     0
274
    -2
284
     1
 64
     0
275
    -2
285
     1
 65
     0
276
    -2
286
     1
 66
     0
277
    -2
287
     1
 67
     0
278
    -2
288
     1
 68
     0
279
    -2
289
     1
 69
     0
  0
VISUALSTYLE
  5
2F
102
{ACAD_XDICTIONARY
360
78F
102
}
102
{ACAD_REACTORS
330
2A
102
}
330
2A
100
AcDbVisualStyle
  2

 70
     4
 71
     0
 72
     2
 73
     0
 90
        0
 40
-0.6
 41
-30.0
 62
     5
 63
     7
 74
     1
 91
        4
 64
     7
 65
   257
 75
     1
175
     1
 42
1.0
 92
        0
 66
   257
 43
1.0
 76
     1
 77
     6
 78
     2
 67
     7
 79
     5
170
     0
171
     0
290
     0
174
     0
 93
        1
 44
0.0
173
     0
291
     0
 45
0.0
1001
ACAD
1000
AcDbSavedByObjectVersion
1070
     0
  0
VISUALSTYLE
  5
32
102
{ACAD_XDICTIONARY
360
795
102
}
102
{ACAD_REACTORS
330
2A
102
}
330
2A
100
AcDbVisualStyle
  2

 70
     7
 71
     1
 72
     0
 73
     1
 90
        0
 40
-0.6
 41
-30.0
 62
     5
 63
     7
 74
     0
 91
        4
 64
     7
 65
   257
 75
     1
175
     1
 42
1.0
 92
        8
 66
     7
 43
1.0
 76
     1
 77
     6
 78
     2
 67
     7
 79
     5
170
     0
171
     0
290
     0
174
     0
 93
        1
 44
0.0
173
     0
291
     1
 45
0.0
1001
ACAD
1000
AcDbSavedByObjectVersion
1070
     0
  0
VISUALSTYLE
  5
36
102
{ACAD_XDICTIONARY
360
79D
102
}
102
{ACAD_REACTORS
330
2A
102
}
330
2A
100
AcDbVisualStyle
  2

 70
    12
 71
     2
 72
     2
 73
     0
 90
        0
 40
-0.6
 41
-30.0
 62
     5
 63
     7
 74
     1
 91
        4
 64
     7
 65
   257
 75
     1
175
     1
 42
1.0
 92
        8
 66
     7
 43
1.0
 76
     1
 77
     6
 78
     2
 67
     7
 79
     5
170
     0
171
     0
290
     0
174
     0
 93
        1
 44
50.0
173
     0
291
     1
 45
0.0
1001
ACAD
1000
AcDbSavedByObjectVersion
1070
     0
  0
VISUALSTYLE
  5
3A
102
{ACAD_XDICTIONARY
360
7A5
102
}
102
{ACAD_REACTORS
330
2A
102
}
330
2A
100
AcDbVisualStyle
  2

 70
    16
 71
     2
 72
     2
 73
     3
 90
        0
 40
-0.6
 41
-30.0
 62
     5
 63
     8
 74
     1
 91
        4
 64
     7
 65
   257
 75
     1
175
     1
 42
1.0
 92
        8
 66
     8
 43
1.0
 76
     1
 77
     6
 78
     2
 67
     7
 79
     5
170
     0
171
     0
290
     0
174
     0
 93
        1
 44
0.0
173
     0
291
     1
 45
0.0
1001
ACAD
1000
AcDbSavedByObjectVersion
1070
     0
  0
VISUALSTYLE
  5
34
102
{ACAD_XDICTIONARY
360
799
102
}
102
{ACAD_REACTORS
330
2A
102
}
330
2A
100
AcDbVisualStyle
  2

 70
     9
 71
     3
 72
     2
 73
     0
 90
        0
 40
-0.6
 41
-30.0
 62
     5
 63
     7
 74
     2
 91
        2
 64
     7
 65
   257
 75
     1
175
     1
 42
179.0
 92
        8
 66
     7
 43
1.0
 76
     1
 77
     6
 78
     2
 67
     7
 79
     3
170
     0
171
     0
290
     0
174
     0
 93
        1
 44
0.0
173
     0
291
     0
 45
0.0
1001
ACAD
1000
AcDbSavedByObjectVersion
1070
     0
  0
VISUALSTYLE
  5
35
102
{ACAD_XDICTIONARY
360
79B
102
}
102
{ACAD_REACTORS
330
2A
102
}
330
2A
100
AcDbVisualStyle
  2

 70
    11
 71
     2
 72
     2
 73
     0
 90
        0
 40
-0.6
 41
-30.0
 62
     5
 63
     7
 74
     1
 91
        4
 64
     7
 65
   257
 75
     1
175
     1
 42
1.0
 92
        8
 66
     7
 43
1.0
 76
     1
 77
     6
 78
     2
 67
     7
 79
     5
170
     0
171
     0
290
     0
174
     0
 93
        1
 44
-50.0
173
     0
291
     1
 45
0.0
1001
ACAD
1000
AcDbSavedByObjectVersion
1070
     0
  0
VISUALSTYLE
  5
3D
102
{ACAD_XDICTIONARY
360
7AB
102
}
102
{ACAD_REACTORS
330
2A
102
}
330
2A
100
AcDbVisualStyle
  2

 70
    22
 71
     2
 72
     2
 73
     0
 90
        0
 40
-0.6
 41
-30.0
 62
     5
 63
     7
 74
     1
 91
        4
 64
     7
 65
   257
 75
     1
175
     1
 42
1.0
 92
        8
 66
     7
 43
1.0
 76
     1
 77
     6
 78
     2
 67
     7
 79
     5
170
     0
171
     0
290
     0
174
     0
 93
        1
 44
0.0
173
     0
291
     1
 45
0.0
1001
ACAD
1000
AcDbSavedByObjectVersion
1070
     0
  0
VISUALSTYLE
  5
39
102
{ACAD_XDICTIONARY
360
7A3
102
}
102
{ACAD_REACTORS
330
2A
102
}
330
2A
100
AcDbVisualStyle
  2

 70
    15
 71
     2
 72
     2
 73
     0
 90
        0
 40
-0.6
 41
-30.0
 62
     5
 63
     7
 74
     1
 91
        4
 64
     7
 65
   257
 75
     1
175
     1
 42
1.0
 92
        8
 66
     7
 43
1.0
 76
     1
 77
     6
 78
     2
 67
     7
 79
     5
170
     0
171
     0
290
     0
174
     0
 93
        1
 44
0.0
173
     0
291
     1
 45
0.0
1001
ACAD
1000
AcDbSavedByObjectVersion
1070
     0
  0
VISUALSTYLE
  5
2B
102
{ACAD_XDICTIONARY
360
787
102
}
102
{ACAD_REACTORS
330
2A
102
}
330
2A
100
AcDbVisualStyle
  2

 70
     0
 71
     2
 72
     1
 73
     1
 90
        2
 40
-0.6
 41
30.0
 62
     5
 63
     7
 74
     0
 91
        0
 64
     7
 65
   257
 75
     1
175
     1
 42
1.0
 92
        8
 66
     7
 43
1.0
 76
     1
 77
     6
 78
     2
 67
     7
 79
     5
170
     0
171
     0
290
     0
174
     0
 93
       13
 44
0.0
173
     0
291
     1
 45
0.0
1001
ACAD
1000
AcDbSavedByObjectVersion
1070
     0
  0
VISUALSTYLE
  5
2C
102
{ACAD_XDICTIONARY
360
789
102
}
102
{ACAD_REACTORS
330
2A
102
}
330
2A
100
AcDbVisualStyle
  2

 70
     1
 71
     2
 72
     1
 73
     1
 90
        2
 40
-0.6
 41
30.0
 62
     5
 63
     7
 74
     1
 91
        0
 64
     7
 65
   257
 75
     1
175
     1
 42
1.0
 92
        0
 66
   257
 43
1.0
 76
     1
 77
     6
 78
     2
 67
     7
 79
     5
170
     0
171
     0
290
     0
174
     0
 93
       13
 44
0.0
173
     0
291
     1
 45
0.0
1001
ACAD
1000
AcDbSavedByObjectVersion
1070
     0
  0
VISUALSTYLE
  5
2D
102
{ACAD_XDICTIONARY
360
78B
102
}
102
{ACAD_REACTORS
330
2A
102
}
330
2A
100
AcDbVisualStyle
  2

 70
     2
 71
     2
 72
     2
 73
     1
 90
        2
 40
-0.6
 41
30.0
 62
     5
 63
     7
 74
     0
 91
        0
 64
     7
 65
   257
 75
     1
175
     1
 42
1.0
 92
        0
 66
     7
 43
1.0
 76
     1
 77
     6
 78
     2
 67
     7
 79
     5
170
     0
171
     0
290
     0
174
     0
 93
       13
 44
0.0
173
     0
291
     1
 45
0.0
1001
ACAD
1000
AcDbSavedByObjectVersion
1070
     0
  0
VISUALSTYLE
  5
2E
102
{ACAD_XDICTIONARY
360
78D
102
}
102
{ACAD_REACTORS
330
2A
102
}
330
2A
100
AcDbVisualStyle
  2

 70
     3
 71
     2
 72
     2
 73
     1
 90
        2
 40
-0.6
 41
30.0
 62
     5
 63
     7
 74
     1
 91
        0
 64
     7
 65
   257
 75
     1
175
     1
 42
1.0
 92
        0
 66
   257
 43
1.0
 76
     1
 77
     6
 78
     2
 67
     7
 79
     5
170
     0
171
     0
290
     0
174
     0
 93
       13
 44
0.0
173
     0
291
     1
 45
0.0
1001
ACAD
1000
AcDbSavedByObjectVersion
1070
     0
  0
VISUALSTYLE
  5
31
102
{ACAD_XDICTIONARY
360
793
102
}
102
{ACAD_REACTORS
330
2A
102
}
330
2A
100
AcDbVisualStyle
  2

 70
     6
 71
     1
 72
     2
 73
     2
 90
        0
 40
-0.6
 41
-30.0
 62
     5
 63
     7
 74
     2
 91
        2
 64
     7
 65
   257
 75
     2
175
     1
 42
40.0
 92
        0
 66
   257
 43
1.0
 76
     1
 77
     6
 78
     2
 67
     7
 79
     3
170
     0
171
     0
290
     0
174
     0
 93
        1
 44
0.0
173
     0
291
     0
 45
0.0
1001
ACAD
1000
AcDbSavedByObjectVersion
1070
     0
  0
VISUALSTYLE
  5
3B
102
{ACAD_XDICTIONARY
360
7A7
102
}
102
{ACAD_REACTORS
330
2A
102
}
330
2A
100
AcDbVisualStyle
  2

 70
    20
 71
     2
 72
     2
 73
     0
 90
        0
 40
-0.6
 41
-30.0
 62
     5
 63
     7
 74
     1
 91
        4
 64
     7
 65
   257
 75
     1
175
     1
 42
1.0
 92
       10
 66
     7
 43
1.0
 76
     1
 77
     6
 78
     2
 67
     7
 79
     5
170
     0
171
     0
290
     0
174
     0
 93
        1
 44
0.0
173
     0
291
     1
 45
0.0
1001
ACAD
1000
AcDbSavedByObjectVersion
1070
     0
  0
VISUALSTYLE
  5
38
102
{ACAD_XDICTIONARY
360
7A1
102
}
102
{ACAD_REACTORS
330
2A
102
}
330
2A
100
AcDbVisualStyle
  2

 70
    14
 71
     2
 72
     2
 73
     0
 90
        0
 40
-0.6
 41
-30.0
 62
     5
 63
     7
 74
     1
 91
        4
 64
     7
 65
   257
 75
     7
175
     7
 42
1.0
 92
        8
 66
     7
 43
1.0
 76
     1
 77
     6
 78
     2
 67
     7
 79
     5
170
     0
171
     0
290
     0
174
     0
 93
        1
 44
0.0
173
     0
291
     1
 45
0.0
1001
ACAD
1000
AcDbSavedByObjectVersion
1070
     0
  0
VISUALSTYLE
  5
3C
102
{ACAD_XDICTIONARY
360
7A9
102
}
102
{ACAD_REACTORS
330
2A
102
}
330
2A
100
AcDbVisualStyle
  2

 70
    21
 71
     2
 72
     2
 73
     0
 90
        0
 40
-0.6
 41
-30.0
 62
     5
 63
     7
 74
     1
 91
        4
 64
     7
 65
   257
 75
     1
175
     1
 42
1.0
 92
        9
 66
     7
 43
1.0
 76
     1
 77
     6
 78
     2
 67
     7
 79
     5
170
     0
171
     0
290
     0
174
     0
 93
        1
 44
0.0
173
     0
291
     1
 45
0.0
1001
ACAD
1000
AcDbSavedByObjectVersion
1070
     0
  0
VISUALSTYLE
  5
33
102
{ACAD_XDICTIONARY
360
797
102
}
102
{ACAD_REACTORS
330
2A
102
}
330
2A
100
AcDbVisualStyle
  2

 70
     8
 71
     2
 72
     3
 73
     0
 90
        2
 40
-0.6
 41
30.0
 62
     5
 63
     7
 74
     0
 91
        0
 64
     7
 65
   257
 75
     1
175
     1
 42
1.0
 92
        8
 66
   257
 43
1.0
 76
     1
 77
     6
 78
     2
 67
     7
 79
     3
170
     0
171
     0
290
     0
174
     0
 93
       13
 44
0.0
173
     0
291
     0
 45
0.0
1001
ACAD
1000
AcDbSavedByObjectVersion
1070
     0
  0
VISUALSTYLE
  5
42
102
{ACAD_XDICTIONARY
360
7B5
102
}
102
{ACAD_REACTORS
330
2A
102
}
330
2A
100
AcDbVisualStyle
  2

 70
    27
 71
     2
 72
     2
 73
     1
 90
        2
 40
-0.6
 41
30.0
 62
     5
 63
     7
 74
     0
 91
        4
 64
     7
 65
   257
 75
     1
175
     1
 42
1.0
 92
        8
 66
   257
 43
1.0
 76
     1
 77
     6
 78
     2
 67
     8
 79
     3
170
     0
171
     0
290
     0
174
     0
 93
        5
 44
0.0
173
     0
291
     0
 45
0.0
1001
ACAD
1000
AcDbSavedByObjectVersion
1070
     0
  0
VISUALSTYLE
  5
41
102
{ACAD_XDICTIONARY
360
7B3
102
}
102
{ACAD_REACTORS
330
2A
102
}
330
2A
100
AcDbVisualStyle
  2

 70
    26
 71
     2
 72
     2
 73
     1
 90
        2
 40
-0.6
 41
30.0
 62
     5
 63
     7
 74
     1
 91
        2
 64
     7
 65
   257
 75
     2
175
     1
 42
1.0
 92
        8
 66
   257
 43
1.0
 76
     1
 77
     6
 78
     2
 67
     7
 79
     3
170
     0
171
     0
290
     0
174
     0
 93
        5
 44
0.0
173
     0
291
     0
 45
0.0
1001
ACAD
1000
AcDbSavedByObjectVersion
1070
     0
  0
VISUALSTYLE
  5
3E
102
{ACAD_XDICTIONARY
360
7AD
102
}
102
{ACAD_REACTORS
330
2A
102
}
330
2A
100
AcDbVisualStyle
  2

 70
    23
 71
     2
 72
     2
 73
     3
 90
        0
 40
-0.6
 41
-30.0
 62
     5
 63
     7
 74
     2
 91
        2
 64
     7
 65
     7
 75
     1
175
     1
 42
40.0
 92
        8
 66
     7
 43
1.0
 76
     1
 77
     6
 78
     2
 67
     7
 79
     3
170
     0
171
     0
290
     0
174
     0
 93
        1
 44
0.0
173
     0
291
     0
 45
0.0
1001
ACAD
1000
AcDbSavedByObjectVersion
1070
     0
  0
VISUALSTYLE
  5
3F
102
{ACAD_XDICTIONARY
360
7AF
102
}
102
{ACAD_REACTORS
330
2A
102
}
330
2A
100
AcDbVisualStyle
  2

 70
    24
 71
     1
 72
     2
 73
     2
 90
        0
 40
-0.6
 41
-30.0
 62
     5
 63
     7
 74
     2
 91
        2
 64
     7
 65
     7
 75
     1
175
     1
 42
40.0
 92
       11
 66
     7
 43
1.0
 76
     1
 77
     6
 78
     2
 67
     7
 79
     6
170
     0
171
     0
290
     0
174
     0
 93
        1
 44
0.0
173
     0
291
     0
 45
0.0
1001
ACAD
1000
AcDbSavedByObjectVersion
1070
     0
  0
VISUALSTYLE
  5
37
102
{ACAD_XDICTIONARY
360
79F
102
}
102
{ACAD_REACTORS
330
2A
102
}
330
2A
100
AcDbVisualStyle
  2

 70
    13
 71
     2
 72
     2
 73
     0
 90
        0
 40
-0.6
 41
-30.0
 62
     5
 63
     7
 74
     1
 91
        4
 64
     7
 65
   257
 75
     1
175
     1
 42
1.0
 92
       12
 66
     7
 43
1.0
 76
     1
 77
     6
 78
     2
 67
     7
 79
     5
170
     0
171
     0
290
     0
174
     0
 93
        1
 44
0.0
173
     0
291
     1
 45
0.0
1001
ACAD
1000
AcDbSavedByObjectVersion
1070
     0
  0
VISUALSTYLE
  5
30
102
{ACAD_XDICTIONARY
360
791
102
}
102
{ACAD_REACTORS
330
2A
102
}
330
2A
100
AcDbVisualStyle
  2

 70
     5
 71
     0
 72
     2
 73
     0
 90
        0
 40
-0.6
 41
-30.0
 62
     5
 63
     7
 74
     1
 91
        4
 64
     7
 65
   257
 75
     1
175
     1
 42
1.0
 92
        0
 66
   257
 43
1.0
 76
     1
 77
     6
 78
     2
 67
     7
 79
     3
170
     0
171
     0
290
     0
174
     0
 93
        1
 44
0.0
173
     0
291
     0
 45
0.0
1001
ACAD
1000
AcDbSavedByObjectVersion
1070
     0
  0
VISUALSTYLE
  5
40
102
{ACAD_XDICTIONARY
360
7B1
102
}
102
{ACAD_REACTORS
330
2A
102
}
330
2A
100
AcDbVisualStyle
  2

 70
    25
 71
     2
 72
     2
 73
     1
 90
        1
 40
0.5
 41
-30.0
 62
     5
 63
     7
 74
     1
 91
        0
 64
     7
 65
   257
 75
     1
175
     1
 42
1.0
 92
        8
 66
     7
 43
1.0
 76
     1
 77
     6
 78
     2
 67
     7
 79
     3
170
     0
171
     0
290
     0
174
     0
 93
       13
 44
0.0
173
     0
291
     0
 45
0.0
1001
ACAD
1000
AcDbSavedByObjectVersion
1070
     0
  0
DICTIONARYVAR
  5
37C
102
{ACAD_REACTORS
330
370
102
}
330
370
100
DictionaryVariables
280
     0
  1
1:1
  0
DICTIONARYVAR
  5
372
102
{ACAD_REACTORS
330
370
102
}
330
370
100
DictionaryVariables
280
     0
  1
STANDARD
  0
DICTIONARYVAR
  5
371
102
{ACAD_REACTORS
330
370
102
}
330
370
100
DictionaryVariables
280
     0
  1
STANDARD
  0
DICTIONARYVAR
  5
776
102
{ACAD_REACTORS
330
370
102
}
330
370
100
DictionaryVariables
280
     0
  1
Metric50
  0
DICTIONARYVAR
  5
777
102
{ACAD_REACTORS
330
370
102
}
330
370
100
DictionaryVariables
280
     0
  1
Metric50
  0
DICTIONARYVAR
  5
378
102
{ACAD_REACTORS
330
370
102
}
330
370
100
DictionaryVariables
280
     0
  1
2
  0
DICTIONARYVAR
  5
379
102
{ACAD_REACTORS
330
370
102
}
330
370
100
DictionaryVariables
280
     0
  1
1
  0
DICTIONARYVAR
  5
779
102
{ACAD_REACTORS
330
370
102
}
330
370
100
DictionaryVariables
280
     0
  1
0
  0
DICTIONARYVAR
  5
37D
102
{ACAD_REACTORS
330
370
102
}
330
370
100
DictionaryVariables
280
     0
  1
1
  0
DICTIONARYVAR
  5
77B
102
{ACAD_REACTORS
330
370
102
}
330
370
100
DictionaryVariables
280
     0
  1
80.000000
  0
DICTIONARYVAR
  5
77A
102
{ACAD_REACTORS
330
370
102
}
330
370
100
DictionaryVariables
280
     0
  1
5.000000
  0
DICTIONARYVAR
  5
377
102
{ACAD_REACTORS
330
370
102
}
330
370
100
DictionaryVariables
280
     0
  1
6.000000
  0
DICTIONARYVAR
  5
778
102
{ACAD_REACTORS
330
370
102
}
330
370
100
DictionaryVariables
280
     0
  1
127
  0
DICTIONARYVAR
  5
77C
102
{ACAD_REACTORS
330
370
102
}
330
370
100
DictionaryVariables
280
     0
  1
2
  0
DICTIONARY
  5
3F8
102
{ACAD_REACTORS
330
3F1
102
}
330
3F1
100
AcDbDictionary
281
     1
  0
XRECORD
  5
637
102
{ACAD_REACTORS
330
636
102
}
330
636
100
AcDbXrecord
280
     1
330
484
330
48C
330
494
330
49B
330
4B9
330
2C2
330
2F1
330
2F9
330
301
330
30A
330
315
330
317
330
31E
330
31F
330
327
330
328
330
331
330
332
330
33C
330
33D
330
348
330
349
330
354
330
355
330
35C
330
71C
330
71D
330
52F
330
530
330
539
330
53A
330
542
330
543
330
54B
330
54C
330
554
330
555
330
55D
330
55E
  0
DICTIONARY
  5
7BA
330
3BE
100
AcDbDictionary
280
     1
281
     1
  3
ACAD_XREC_ROUNDTRIP
360
7BB
  0
DICTIONARY
  5
781
330
1E
100
AcDbDictionary
280
     1
281
     1
  3
ACAD_XREC_ROUNDTRIP
360
782
  0
DICTIONARY
  5
785
330
26
100
AcDbDictionary
280
     1
281
     1
  3
ACAD_XREC_ROUNDTRIP
360
786
  0
DICTIONARY
  5
783
330
22
100
AcDbDictionary
280
     1
281
     1
  3
ACAD_XREC_ROUNDTRIP
360
784
  0
DICTIONARY
  5
3B0
330
45
100
AcDbDictionary
280
     1
281
     1
  3
ACAD_XREC_ROUNDTRIP
360
3B1
  0
DICTIONARY
  5
3AE
330
44
100
AcDbDictionary
280
     1
281
     1
  3
ACAD_XREC_ROUNDTRIP
360
3AF
  0
DICTIONARY
  5
3B2
330
46
100
AcDbDictionary
280
     1
281
     1
  3
ACAD_XREC_ROUNDTRIP
360
3B3
  0
DICTIONARY
  5
7B8
330
3BC
100
AcDbDictionary
280
     1
281
     1
  3
ACAD_XREC_ROUNDTRIP
360
7B9
  0
DICTIONARY
  5
77D
330
6A
100
AcDbDictionary
280
     1
281
     1
  3
ACAD_ROUNDTRIP_2008_TABLESTYLE_CELLSTYLEMAP
360
77E
  3
ACAD_XREC_ROUNDTRIP
360
7B7
  0
DICTIONARY
  5
78F
330
2F
100
AcDbDictionary
280
     1
281
     1
  3
ACAD_XREC_ROUNDTRIP
360
790
  0
DICTIONARY
  5
795
330
32
100
AcDbDictionary
280
     1
281
     1
  3
ACAD_XREC_ROUNDTRIP
360
796
  0
DICTIONARY
  5
79D
330
36
100
AcDbDictionary
280
     1
281
     1
  3
ACAD_XREC_ROUNDTRIP
360
79E
  0
DICTIONARY
  5
7A5
330
3A
100
AcDbDictionary
280
     1
281
     1
  3
ACAD_XREC_ROUNDTRIP
360
7A6
  0
DICTIONARY
  5
799
330
34
100
AcDbDictionary
280
     1
281
     1
  3
ACAD_XREC_ROUNDTRIP
360
79A
  0
DICTIONARY
  5
79B
330
35
100
AcDbDictionary
280
     1
281
     1
  3
ACAD_XREC_ROUNDTRIP
360
79C
  0
DICTIONARY
  5
7AB
330
3D
100
AcDbDictionary
280
     1
281
     1
  3
ACAD_XREC_ROUNDTRIP
360
7AC
  0
DICTIONARY
  5
7A3
330
39
100
AcDbDictionary
280
     1
281
     1
  3
ACAD_XREC_ROUNDTRIP
360
7A4
  0
DICTIONARY
  5
787
330
2B
100
AcDbDictionary
280
     1
281
     1
  3
ACAD_XREC_ROUNDTRIP
360
788
  0
DICTIONARY
  5
789
330
2C
100
AcDbDictionary
280
     1
281
     1
  3
ACAD_XREC_ROUNDTRIP
360
78A
  0
DICTIONARY
  5
78B
330
2D
100
AcDbDictionary
280
     1
281
     1
  3
ACAD_XREC_ROUNDTRIP
360
78C
  0
DICTIONARY
  5
78D
330
2E
100
AcDbDictionary
280
     1
281
     1
  3
ACAD_XREC_ROUNDTRIP
360
78E
  0
DICTIONARY
  5
793
330
31
100
AcDbDictionary
280
     1
281
     1
  3
ACAD_XREC_ROUNDTRIP
360
794
  0
DICTIONARY
  5
7A7
330
3B
100
AcDbDictionary
280
     1
281
     1
  3
ACAD_XREC_ROUNDTRIP
360
7A8
  0
DICTIONARY
  5
7A1
330
38
100
AcDbDictionary
280
     1
281
     1
  3
ACAD_XREC_ROUNDTRIP
360
7A2
  0
DICTIONARY
  5
7A9
330
3C
100
AcDbDictionary
280
     1
281
     1
  3
ACAD_XREC_ROUNDTRIP
360
7AA
  0
DICTIONARY
  5
797
330
33
100
AcDbDictionary
280
     1
281
     1
  3
ACAD_XREC_ROUNDTRIP
360
798
  0
DICTIONARY
  5
7B5
330
42
100
AcDbDictionary
280
     1
281
     1
  3
ACAD_XREC_ROUNDTRIP
360
7B6
  0
DICTIONARY
  5
7B3
330
41
100
AcDbDictionary
280
     1
281
     1
  3
ACAD_XREC_ROUNDTRIP
360
7B4
  0
DICTIONARY
  5
7AD
330
3E
100
AcDbDictionary
280
     1
281
     1
  3
ACAD_XREC_ROUNDTRIP
360
7AE
  0
DICTIONARY
  5
7AF
330
3F
100
AcDbDictionary
280
     1
281
     1
  3
ACAD_XREC_ROUNDTRIP
360
7B0
  0
DICTIONARY
  5
79F
330
37
100
AcDbDictionary
280
     1
281
     1
  3
ACAD_XREC_ROUNDTRIP
360
7A0
  0
DICTIONARY
  5
791
330
30
100
AcDbDictionary
280
     1
281
     1
  3
ACAD_XREC_ROUNDTRIP
360
792
  0
DICTIONARY
  5
7B1
330
40
100
AcDbDictionary
280
     1
281
     1
  3
ACAD_XREC_ROUNDTRIP
360
7B2
  0
XRECORD
  5
7BB
102
{ACAD_REACTORS
330
7BA
102
}
330
7BA
100
AcDbXrecord
280
     1
102
DISPLAYNAME
  1
Metric50
102
FLAGS
 90
        0
  0
XRECORD
  5
782
102
{ACAD_REACTORS
330
781
102
}
330
781
100
AcDbXrecord
280
     1
102
SHADEPLOT
 70
     0
102
SHADEPLOTRESLEVEL
 70
     2
102
SHADEPLOTCUSTOMDPI
 70
   300
  0
XRECORD
  5
786
102
{ACAD_REACTORS
330
785
102
}
330
785
100
AcDbXrecord
280
     1
102
SHADEPLOT
 70
     0
102
SHADEPLOTRESLEVEL
 70
     2
102
SHADEPLOTCUSTOMDPI
 70
   300
  0
XRECORD
  5
784
102
{ACAD_REACTORS
330
783
102
}
330
783
100
AcDbXrecord
280
     1
102
SHADEPLOT
 70
     0
102
SHADEPLOTRESLEVEL
 70
     2
102
SHADEPLOTCUSTOMDPI
 70
   300
  0
XRECORD
  5
3B1
102
{ACAD_REACTORS
330
3B0
102
}
330
3B0
100
AcDbXrecord
280
     1
102
MATERIAL
148
0.0
149
0.0
149
0.0
 93
        0
 94
      127
282
     0
 72
     1
 77
     1
171
     1
175
     1
179
     1
273
     0
  0
XRECORD
  5
3AF
102
{ACAD_REACTORS
330
3AE
102
}
330
3AE
100
AcDbXrecord
280
     1
102
MATERIAL
148
0.0
149
0.0
149
0.0
 93
        0
 94
      127
282
     0
 72
     1
 77
     1
171
     1
175
     1
179
     1
273
     0
  0
XRECORD
  5
3B3
102
{ACAD_REACTORS
330
3B2
102
}
330
3B2
100
AcDbXrecord
280
     1
102
MATERIAL
148
0.0
149
0.0
149
0.0
 93
        0
 94
      127
282
     0
 72
     1
 77
     1
171
     1
175
     1
179
     1
273
     0
  0
XRECORD
  5
7B9
102
{ACAD_REACTORS
330
7B8
102
}
330
7B8
100
AcDbXrecord
280
     1
102
DISPLAYNAME
  1
Metric50
102
FLAGS
 90
        0
  0
CELLSTYLEMAP
  5
77E
102
{ACAD_REACTORS
330
77D
102
}
330
77D
100
AcDbCellStyleMap
 90
        3
300
CELLSTYLE
  1
TABLEFORMAT_BEGIN
 90
        5
170
     1
 91
        0
 92
    32768
 62
   257
 93
        1
300
CONTENTFORMAT
  1
CONTENTFORMAT_BEGIN
 90
        0
 91
        0
 92
        4
 93
        0
300

 40
0.0
140
1.0
 94
        5
 62
     0
340
11
144
6.0
309
CONTENTFORMAT_END
171
     1
301
MARGIN
  1
CELLMARGIN_BEGIN
 40
1.5
 40
1.5
 40
1.5
 40
1.5
 40
0.18
 40
0.18
309
CELLMARGIN_END
 94
        6
 95
        1
302
GRIDFORMAT
  1
GRIDFORMAT_BEGIN
 90
        0
 91
        1
 62
     0
 92
       -2
340
0
 93
        0
 40
0.045
309
GRIDFORMAT_END
 95
        2
302
GRIDFORMAT
  1
GRIDFORMAT_BEGIN
 90
        0
 91
        1
 62
     0
 92
       -2
340
0
 93
        0
 40
0.045
309
GRIDFORMAT_END
 95
        4
302
GRIDFORMAT
  1
GRIDFORMAT_BEGIN
 90
        0
 91
        1
 62
     0
 92
       -2
340
0
 93
        0
 40
0.045
309
GRIDFORMAT_END
 95
        8
302
GRIDFORMAT
  1
GRIDFORMAT_BEGIN
 90
        0
 91
        1
 62
     0
 92
       -2
340
0
 93
        0
 40
0.045
309
GRIDFORMAT_END
 95
       16
302
GRIDFORMAT
  1
GRIDFORMAT_BEGIN
 90
        0
 91
        1
 62
     0
 92
       -2
340
0
 93
        0
 40
0.045
309
GRIDFORMAT_END
 95
       32
302
GRIDFORMAT
  1
GRIDFORMAT_BEGIN
 90
        0
 91
        1
 62
     0
 92
       -2
340
0
 93
        0
 40
0.045
309
GRIDFORMAT_END
309
TABLEFORMAT_END
  1
CELLSTYLE_BEGIN
 90
        1
 91
        1
300
_TITLE
309
CELLSTYLE_END
300
CELLSTYLE
  1
TABLEFORMAT_BEGIN
 90
        5
170
     1
 91
        0
 92
        0
 62
   257
 93
        1
300
CONTENTFORMAT
  1
CONTENTFORMAT_BEGIN
 90
        0
 91
        0
 92
        4
 93
        0
300

 40
0.0
140
1.0
 94
        5
 62
     0
340
11
144
4.5
309
CONTENTFORMAT_END
171
     1
301
MARGIN
  1
CELLMARGIN_BEGIN
 40
1.5
 40
1.5
 40
1.5
 40
1.5
 40
0.18
 40
0.18
309
CELLMARGIN_END
 94
        6
 95
        1
302
GRIDFORMAT
  1
GRIDFORMAT_BEGIN
 90
        0
 91
        1
 62
     0
 92
       -2
340
0
 93
        0
 40
0.045
309
GRIDFORMAT_END
 95
        2
302
GRIDFORMAT
  1
GRIDFORMAT_BEGIN
 90
        0
 91
        1
 62
     0
 92
       -2
340
0
 93
        0
 40
0.045
309
GRIDFORMAT_END
 95
        4
302
GRIDFORMAT
  1
GRIDFORMAT_BEGIN
 90
        0
 91
        1
 62
     0
 92
       -2
340
0
 93
        0
 40
0.045
309
GRIDFORMAT_END
 95
        8
302
GRIDFORMAT
  1
GRIDFORMAT_BEGIN
 90
        0
 91
        1
 62
     0
 92
       -2
340
0
 93
        0
 40
0.045
309
GRIDFORMAT_END
 95
       16
302
GRIDFORMAT
  1
GRIDFORMAT_BEGIN
 90
        0
 91
        1
 62
     0
 92
       -2
340
0
 93
        0
 40
0.045
309
GRIDFORMAT_END
 95
       32
302
GRIDFORMAT
  1
GRIDFORMAT_BEGIN
 90
        0
 91
        1
 62
     0
 92
       -2
340
0
 93
        0
 40
0.045
309
GRIDFORMAT_END
309
TABLEFORMAT_END
  1
CELLSTYLE_BEGIN
 90
        2
 91
        1
300
_HEADER
309
CELLSTYLE_END
300
CELLSTYLE
  1
TABLEFORMAT_BEGIN
 90
        5
170
     1
 91
        0
 92
        0
 62
   257
 93
        1
300
CONTENTFORMAT
  1
CONTENTFORMAT_BEGIN
 90
        0
 91
        0
 92
        4
 93
        0
300

 40
0.0
140
1.0
 94
        2
 62
     0
340
11
144
4.5
309
CONTENTFORMAT_END
171
     1
301
MARGIN
  1
CELLMARGIN_BEGIN
 40
1.5
 40
1.5
 40
1.5
 40
1.5
 40
0.18
 40
0.18
309
CELLMARGIN_END
 94
        6
 95
        1
302
GRIDFORMAT
  1
GRIDFORMAT_BEGIN
 90
        0
 91
        1
 62
     0
 92
       -2
340
0
 93
        0
 40
0.045
309
GRIDFORMAT_END
 95
        2
302
GRIDFORMAT
  1
GRIDFORMAT_BEGIN
 90
        0
 91
        1
 62
     0
 92
       -2
340
0
 93
        0
 40
0.045
309
GRIDFORMAT_END
 95
        4
302
GRIDFORMAT
  1
GRIDFORMAT_BEGIN
 90
        0
 91
        1
 62
     0
 92
       -2
340
0
 93
        0
 40
0.045
309
GRIDFORMAT_END
 95
        8
302
GRIDFORMAT
  1
GRIDFORMAT_BEGIN
 90
        0
 91
        1
 62
     0
 92
       -2
340
0
 93
        0
 40
0.045
309
GRIDFORMAT_END
 95
       16
302
GRIDFORMAT
  1
GRIDFORMAT_BEGIN
 90
        0
 91
        1
 62
     0
 92
       -2
340
0
 93
        0
 40
0.045
309
GRIDFORMAT_END
 95
       32
302
GRIDFORMAT
  1
GRIDFORMAT_BEGIN
 90
        0
 91
        1
 62
     0
 92
       -2
340
0
 93
        0
 40
0.045
309
GRIDFORMAT_END
309
TABLEFORMAT_END
  1
CELLSTYLE_BEGIN
 90
        3
 91
        2
300
_DATA
309
CELLSTYLE_END
  0
XRECORD
  5
7B7
102
{ACAD_REACTORS
330
77D
102
}
330
77D
100
AcDbXrecord
280
     1
102
ACAD_ROUNDTRIP_PRE2007_TABLESTYLE
 90
        4
 91
        0
  1

 92
        4
 93
        0
  2

 94
        4
 95
        0
  3

  0
XRECORD
  5
790
102
{ACAD_REACTORS
330
78F
102
}
330
78F
100
AcDbXrecord
280
     1
102
RTVSPost2010Prop28
280
     1
102
RTVSPost2010PropOp28
 70
     1
102
RTVSPost2010Prop29
280
     1
102
RTVSPost2010PropOp29
 70
     1
102
RTVSPost2010Prop30
280
     0
102
RTVSPost2010PropOp30
 70
     1
102
RTVSPost2010Prop31
280
     0
102
RTVSPost2010PropOp31
 70
     1
102
RTVSPost2010Prop32
280
     0
102
RTVSPost2010PropOp32
 70
     1
102
RTVSPost2010Prop33
280
     0
102
RTVSPost2010PropOp33
 70
     1
102
RTVSPost2010Prop34
280
     0
102
RTVSPost2010PropOp34
 70
     1
102
RTVSPost2010Prop35
280
     0
102
RTVSPost2010PropOp35
 70
     1
102
RTVSPost2010Prop36
280
     0
102
RTVSPost2010PropOp36
 70
     1
102
RTVSPost2010Prop37
 90
       50
102
RTVSPost2010PropOp37
 70
     1
102
RTVSPost2010Prop38
140
0.0
102
RTVSPost2010PropOp38
 70
     1
102
RTVSPost2010Prop39
140
1.0
102
RTVSPost2010PropOp39
 70
     1
102
RTVSPost2010Prop40
 90
        0
102
RTVSPost2010PropOp40
 70
     1
102
RTVSPost2010Prop41ColorIndex
 90
       18
102
RTVSPost2010Prop41ColorRGB
 90
        0
102
RTVSPost2010PropOp41
 70
     1
102
RTVSPost2010Prop42
 90
       50
102
RTVSPost2010PropOp42
 70
     1
102
RTVSPost2010Prop43
 90
        3
102
RTVSPost2010PropOp43
 70
     1
102
RTVSPost2010Prop44ColorIndex
 90
        5
102
RTVSPost2010Prop44ColorRGB
 90
      255
102
RTVSPost2010PropOp44
 70
     1
102
RTVSPost2010Prop45
280
     0
102
RTVSPost2010PropOp45
 70
     1
102
RTVSPost2010Prop46
 90
       50
102
RTVSPost2010PropOp46
 70
     1
102
RTVSPost2010Prop47
 90
       50
102
RTVSPost2010PropOp47
 70
     1
102
RTVSPost2010Prop48
 90
       50
102
RTVSPost2010PropOp48
 70
     1
102
RTVSPost2010Prop49
280
     0
102
RTVSPost2010PropOp49
 70
     1
102
RTVSPost2010Prop50
 90
       50
102
RTVSPost2010PropOp50
 70
     1
102
RTVSPost2010Prop51ColorIndex
 90
      256
102
RTVSPost2010Prop51ColorRGB
 90
-16777216
102
RTVSPost2010PropOp51
 70
     0
102
RTVSPost2010Prop52
140
1.0
102
RTVSPost2010PropOp52
 70
     0
102
RTVSPost2010Prop53
 90
        2
102
RTVSPost2010PropOp53
 70
     1
102
RTVSPost2010Prop54
  1
strokes_ogs.tif
102
RTVSPost2010PropOp54
 70
     1
102
RTVSPost2010Prop55
280
     0
102
RTVSPost2010PropOp55
 70
     1
102
RTVSPost2010Prop56
140
1.0
102
RTVSPost2010PropOp56
 70
     1
102
RTVSPost2010Prop57
140
1.0
102
RTVSPost2010PropOp57
 70
     1
102
RTVSPropertyOp0
 70
     1
102
RTVSPropertyOp1
 70
     1
102
RTVSPropertyOp2
 70
     1
102
RTVSPropertyOp3
 70
     1
102
RTVSPropertyOp4
 70
     1
102
RTVSPropertyOp5
 70
     1
102
RTVSPropertyOp6
 70
     1
102
RTVSPropertyOp7
 70
     1
102
RTVSPropertyOp8
 70
     1
102
RTVSPropertyOp9
 70
     1
102
RTVSPropertyOp10
 70
     1
102
RTVSPropertyOp11
 70
     1
102
RTVSPropertyOp12
 70
     1
102
RTVSPropertyOp13
 70
     1
102
RTVSPropertyOp14
 70
     1
102
RTVSPropertyOp15
 70
     1
102
RTVSPropertyOp16
 70
     1
102
RTVSPropertyOp17
 70
     1
102
RTVSPropertyOp18
 70
     1
102
RTVSPropertyOp19
 70
     1
102
RTVSPropertyOp20
 70
     1
102
RTVSPropertyOp21
 70
     1
102
RTVSPropertyOp22
 70
     1
102
RTVSPropertyOp23
 70
     1
102
RTVSPropertyOp24
 70
     1
102
RTVSPropertyOp25
 70
     1
102
RTVSPropertyOp26
 70
     1
102
RTVSPropertyOp27
 70
     1
102
RTVSPropertyOp28
 70
     1
102
RTVSPropertyOp29
 70
     1
102
RTVSPropertyOp30
 70
     1
102
RTVSPropertyOp31
 70
     1
102
RTVSPropertyOp32
 70
     1
102
RTVSPropertyOp33
 70
     1
102
RTVSPropertyOp34
 70
     1
102
RTVSPropertyOp35
 70
     1
102
RTVSPropertyOp36
 70
     1
102
RTVSPropertyOp37
 70
     1
102
RTVSPropertyOp38
 70
     1
102
RTVSPropertyOp39
 70
     1
102
RTVSPropertyOp40
 70
     1
102
RTVSPropertyOp41
 70
     1
102
RTVSPropertyOp42
 70
     1
102
RTVSPropertyOp43
 70
     1
102
RTVSPropertyOp44
 70
     1
102
RTVSPropertyOp45
 70
     1
102
RTVSPropertyOp46
 70
     1
102
RTVSPropertyOp47
 70
     1
102
RTVSPropertyOp48
 70
     1
102
RTVSPropertyOp49
 70
     1
102
RTVSPropertyOp50
 70
     1
102
RTVSPropertyOp51
 70
     0
102
RTVSPropertyOp52
 70
     0
102
RTVSPropertyOp53
 70
     1
102
RTVSPropertyOp54
 70
     1
102
RTVSPropertyOp55
 70
     1
102
RTVSPropertyOp56
 70
     1
102
RTVSPropertyOp57
 70
     1
102
RTVSPropertyOp58
 70
     1
102
RTVSPropertyOp59
 70
     1
102
RTVSPropertyOp60
 70
     1
102
RTVSPropertyOp61
 70
     1
102
RTVSPropertyOp62
 70
     1
  0
XRECORD
  5
796
102
{ACAD_REACTORS
330
795
102
}
330
795
100
AcDbXrecord
280
     1
102
RTVSPost2010Prop28
280
     0
102
RTVSPost2010PropOp28
 70
     1
102
RTVSPost2010Prop29
280
     1
102
RTVSPost2010PropOp29
 70
     1
102
RTVSPost2010Prop30
280
     1
102
RTVSPost2010PropOp30
 70
     1
102
RTVSPost2010Prop31
280
     0
102
RTVSPost2010PropOp31
 70
     1
102
RTVSPost2010Prop32
280
     0
102
RTVSPost2010PropOp32
 70
     1
102
RTVSPost2010Prop33
280
     0
102
RTVSPost2010PropOp33
 70
     1
102
RTVSPost2010Prop34
280
     0
102
RTVSPost2010PropOp34
 70
     1
102
RTVSPost2010Prop35
280
     0
102
RTVSPost2010PropOp35
 70
     1
102
RTVSPost2010Prop36
280
     0
102
RTVSPost2010PropOp36
 70
     1
102
RTVSPost2010Prop37
 90
       50
102
RTVSPost2010PropOp37
 70
     1
102
RTVSPost2010Prop38
140
0.0
102
RTVSPost2010PropOp38
 70
     1
102
RTVSPost2010Prop39
140
1.0
102
RTVSPost2010PropOp39
 70
     1
102
RTVSPost2010Prop40
 90
        0
102
RTVSPost2010PropOp40
 70
     1
102
RTVSPost2010Prop41ColorIndex
 90
       18
102
RTVSPost2010Prop41ColorRGB
 90
        0
102
RTVSPost2010PropOp41
 70
     1
102
RTVSPost2010Prop42
 90
       50
102
RTVSPost2010PropOp42
 70
     1
102
RTVSPost2010Prop43
 90
        3
102
RTVSPost2010PropOp43
 70
     1
102
RTVSPost2010Prop44ColorIndex
 90
        5
102
RTVSPost2010Prop44ColorRGB
 90
      255
102
RTVSPost2010PropOp44
 70
     1
102
RTVSPost2010Prop45
280
     0
102
RTVSPost2010PropOp45
 70
     1
102
RTVSPost2010Prop46
 90
       50
102
RTVSPost2010PropOp46
 70
     1
102
RTVSPost2010Prop47
 90
       50
102
RTVSPost2010PropOp47
 70
     1
102
RTVSPost2010Prop48
 90
       50
102
RTVSPost2010PropOp48
 70
     1
102
RTVSPost2010Prop49
280
     0
102
RTVSPost2010PropOp49
 70
     1
102
RTVSPost2010Prop50
 90
       50
102
RTVSPost2010PropOp50
 70
     1
102
RTVSPost2010Prop51ColorIndex
 90
      256
102
RTVSPost2010Prop51ColorRGB
 90
-16777216
102
RTVSPost2010PropOp51
 70
     0
102
RTVSPost2010Prop52
140
1.0
102
RTVSPost2010PropOp52
 70
     0
102
RTVSPost2010Prop53
 90
        2
102
RTVSPost2010PropOp53
 70
     1
102
RTVSPost2010Prop54
  1
strokes_ogs.tif
102
RTVSPost2010PropOp54
 70
     1
102
RTVSPost2010Prop55
280
     0
102
RTVSPost2010PropOp55
 70
     1
102
RTVSPost2010Prop56
140
1.0
102
RTVSPost2010PropOp56
 70
     1
102
RTVSPost2010Prop57
140
1.0
102
RTVSPost2010PropOp57
 70
     1
102
RTVSPropertyOp0
 70
     1
102
RTVSPropertyOp1
 70
     1
102
RTVSPropertyOp2
 70
     1
102
RTVSPropertyOp3
 70
     1
102
RTVSPropertyOp4
 70
     1
102
RTVSPropertyOp5
 70
     1
102
RTVSPropertyOp6
 70
     1
102
RTVSPropertyOp7
 70
     1
102
RTVSPropertyOp8
 70
     1
102
RTVSPropertyOp9
 70
     1
102
RTVSPropertyOp10
 70
     1
102
RTVSPropertyOp11
 70
     1
102
RTVSPropertyOp12
 70
     1
102
RTVSPropertyOp13
 70
     1
102
RTVSPropertyOp14
 70
     1
102
RTVSPropertyOp15
 70
     1
102
RTVSPropertyOp16
 70
     1
102
RTVSPropertyOp17
 70
     1
102
RTVSPropertyOp18
 70
     1
102
RTVSPropertyOp19
 70
     1
102
RTVSPropertyOp20
 70
     1
102
RTVSPropertyOp21
 70
     1
102
RTVSPropertyOp22
 70
     1
102
RTVSPropertyOp23
 70
     1
102
RTVSPropertyOp24
 70
     1
102
RTVSPropertyOp25
 70
     1
102
RTVSPropertyOp26
 70
     1
102
RTVSPropertyOp27
 70
     1
102
RTVSPropertyOp28
 70
     1
102
RTVSPropertyOp29
 70
     1
102
RTVSPropertyOp30
 70
     1
102
RTVSPropertyOp31
 70
     1
102
RTVSPropertyOp32
 70
     1
102
RTVSPropertyOp33
 70
     1
102
RTVSPropertyOp34
 70
     1
102
RTVSPropertyOp35
 70
     1
102
RTVSPropertyOp36
 70
     1
102
RTVSPropertyOp37
 70
     1
102
RTVSPropertyOp38
 70
     1
102
RTVSPropertyOp39
 70
     1
102
RTVSPropertyOp40
 70
     1
102
RTVSPropertyOp41
 70
     1
102
RTVSPropertyOp42
 70
     1
102
RTVSPropertyOp43
 70
     1
102
RTVSPropertyOp44
 70
     1
102
RTVSPropertyOp45
 70
     1
102
RTVSPropertyOp46
 70
     1
102
RTVSPropertyOp47
 70
     1
102
RTVSPropertyOp48
 70
     1
102
RTVSPropertyOp49
 70
     1
102
RTVSPropertyOp50
 70
     1
102
RTVSPropertyOp51
 70
     0
102
RTVSPropertyOp52
 70
     0
102
RTVSPropertyOp53
 70
     1
102
RTVSPropertyOp54
 70
     1
102
RTVSPropertyOp55
 70
     1
102
RTVSPropertyOp56
 70
     1
102
RTVSPropertyOp57
 70
     1
102
RTVSPropertyOp58
 70
     1
102
RTVSPropertyOp59
 70
     1
102
RTVSPropertyOp60
 70
     1
102
RTVSPropertyOp61
 70
     1
102
RTVSPropertyOp62
 70
     1
  0
XRECORD
  5
79E
102
{ACAD_REACTORS
330
79D
102
}
330
79D
100
AcDbXrecord
280
     1
102
RTVSPost2010Prop28
280
     0
102
RTVSPost2010PropOp28
 70
     1
102
RTVSPost2010Prop29
280
     1
102
RTVSPost2010PropOp29
 70
     1
102
RTVSPost2010Prop30
280
     1
102
RTVSPost2010PropOp30
 70
     1
102
RTVSPost2010Prop31
280
     0
102
RTVSPost2010PropOp31
 70
     1
102
RTVSPost2010Prop32
280
     0
102
RTVSPost2010PropOp32
 70
     1
102
RTVSPost2010Prop33
280
     0
102
RTVSPost2010PropOp33
 70
     1
102
RTVSPost2010Prop34
280
     0
102
RTVSPost2010PropOp34
 70
     1
102
RTVSPost2010Prop35
280
     0
102
RTVSPost2010PropOp35
 70
     1
102
RTVSPost2010Prop36
280
     0
102
RTVSPost2010PropOp36
 70
     1
102
RTVSPost2010Prop37
 90
       50
102
RTVSPost2010PropOp37
 70
     1
102
RTVSPost2010Prop38
140
0.0
102
RTVSPost2010PropOp38
 70
     1
102
RTVSPost2010Prop39
140
1.0
102
RTVSPost2010PropOp39
 70
     1
102
RTVSPost2010Prop40
 90
        0
102
RTVSPost2010PropOp40
 70
     1
102
RTVSPost2010Prop41ColorIndex
 90
       18
102
RTVSPost2010Prop41ColorRGB
 90
        0
102
RTVSPost2010PropOp41
 70
     1
102
RTVSPost2010Prop42
 90
       50
102
RTVSPost2010PropOp42
 70
     1
102
RTVSPost2010Prop43
 90
        3
102
RTVSPost2010PropOp43
 70
     1
102
RTVSPost2010Prop44ColorIndex
 90
        5
102
RTVSPost2010Prop44ColorRGB
 90
      255
102
RTVSPost2010PropOp44
 70
     1
102
RTVSPost2010Prop45
280
     0
102
RTVSPost2010PropOp45
 70
     1
102
RTVSPost2010Prop46
 90
       50
102
RTVSPost2010PropOp46
 70
     1
102
RTVSPost2010Prop47
 90
       50
102
RTVSPost2010PropOp47
 70
     1
102
RTVSPost2010Prop48
 90
       50
102
RTVSPost2010PropOp48
 70
     1
102
RTVSPost2010Prop49
280
     0
102
RTVSPost2010PropOp49
 70
     1
102
RTVSPost2010Prop50
 90
       50
102
RTVSPost2010PropOp50
 70
     1
102
RTVSPost2010Prop51ColorIndex
 90
      256
102
RTVSPost2010Prop51ColorRGB
 90
-16777216
102
RTVSPost2010PropOp51
 70
     0
102
RTVSPost2010Prop52
140
1.0
102
RTVSPost2010PropOp52
 70
     0
102
RTVSPost2010Prop53
 90
        2
102
RTVSPost2010PropOp53
 70
     1
102
RTVSPost2010Prop54
  1
strokes_ogs.tif
102
RTVSPost2010PropOp54
 70
     1
102
RTVSPost2010Prop55
280
     0
102
RTVSPost2010PropOp55
 70
     1
102
RTVSPost2010Prop56
140
1.0
102
RTVSPost2010PropOp56
 70
     1
102
RTVSPost2010Prop57
140
1.0
102
RTVSPost2010PropOp57
 70
     1
102
RTVSPropertyOp0
 70
     1
102
RTVSPropertyOp1
 70
     1
102
RTVSPropertyOp2
 70
     1
102
RTVSPropertyOp3
 70
     1
102
RTVSPropertyOp4
 70
     1
102
RTVSPropertyOp5
 70
     1
102
RTVSPropertyOp6
 70
     1
102
RTVSPropertyOp7
 70
     1
102
RTVSPropertyOp8
 70
     1
102
RTVSPropertyOp9
 70
     1
102
RTVSPropertyOp10
 70
     1
102
RTVSPropertyOp11
 70
     1
102
RTVSPropertyOp12
 70
     1
102
RTVSPropertyOp13
 70
     1
102
RTVSPropertyOp14
 70
     1
102
RTVSPropertyOp15
 70
     1
102
RTVSPropertyOp16
 70
     1
102
RTVSPropertyOp17
 70
     1
102
RTVSPropertyOp18
 70
     1
102
RTVSPropertyOp19
 70
     1
102
RTVSPropertyOp20
 70
     1
102
RTVSPropertyOp21
 70
     1
102
RTVSPropertyOp22
 70
     1
102
RTVSPropertyOp23
 70
     1
102
RTVSPropertyOp24
 70
     1
102
RTVSPropertyOp25
 70
     1
102
RTVSPropertyOp26
 70
     1
102
RTVSPropertyOp27
 70
     1
102
RTVSPropertyOp28
 70
     1
102
RTVSPropertyOp29
 70
     1
102
RTVSPropertyOp30
 70
     1
102
RTVSPropertyOp31
 70
     1
102
RTVSPropertyOp32
 70
     1
102
RTVSPropertyOp33
 70
     1
102
RTVSPropertyOp34
 70
     1
102
RTVSPropertyOp35
 70
     1
102
RTVSPropertyOp36
 70
     1
102
RTVSPropertyOp37
 70
     1
102
RTVSPropertyOp38
 70
     1
102
RTVSPropertyOp39
 70
     1
102
RTVSPropertyOp40
 70
     1
102
RTVSPropertyOp41
 70
     1
102
RTVSPropertyOp42
 70
     1
102
RTVSPropertyOp43
 70
     1
102
RTVSPropertyOp44
 70
     1
102
RTVSPropertyOp45
 70
     1
102
RTVSPropertyOp46
 70
     1
102
RTVSPropertyOp47
 70
     1
102
RTVSPropertyOp48
 70
     1
102
RTVSPropertyOp49
 70
     1
102
RTVSPropertyOp50
 70
     1
102
RTVSPropertyOp51
 70
     0
102
RTVSPropertyOp52
 70
     0
102
RTVSPropertyOp53
 70
     1
102
RTVSPropertyOp54
 70
     1
102
RTVSPropertyOp55
 70
     1
102
RTVSPropertyOp56
 70
     1
102
RTVSPropertyOp57
 70
     1
102
RTVSPropertyOp58
 70
     1
102
RTVSPropertyOp59
 70
     1
102
RTVSPropertyOp60
 70
     1
102
RTVSPropertyOp61
 70
     1
102
RTVSPropertyOp62
 70
     1
  0
XRECORD
  5
7A6
102
{ACAD_REACTORS
330
7A5
102
}
330
7A5
100
AcDbXrecord
280
     1
102
RTVSPost2010Prop28
280
     0
102
RTVSPost2010PropOp28
 70
     1
102
RTVSPost2010Prop29
280
     1
102
RTVSPost2010PropOp29
 70
     1
102
RTVSPost2010Prop30
280
     1
102
RTVSPost2010PropOp30
 70
     1
102
RTVSPost2010Prop31
280
     0
102
RTVSPost2010PropOp31
 70
     1
102
RTVSPost2010Prop32
280
     0
102
RTVSPost2010PropOp32
 70
     1
102
RTVSPost2010Prop33
280
     0
102
RTVSPost2010PropOp33
 70
     1
102
RTVSPost2010Prop34
280
     0
102
RTVSPost2010PropOp34
 70
     1
102
RTVSPost2010Prop35
280
     0
102
RTVSPost2010PropOp35
 70
     1
102
RTVSPost2010Prop36
280
     0
102
RTVSPost2010PropOp36
 70
     1
102
RTVSPost2010Prop37
 90
       50
102
RTVSPost2010PropOp37
 70
     1
102
RTVSPost2010Prop38
140
0.0
102
RTVSPost2010PropOp38
 70
     1
102
RTVSPost2010Prop39
140
1.0
102
RTVSPost2010PropOp39
 70
     1
102
RTVSPost2010Prop40
 90
        0
102
RTVSPost2010PropOp40
 70
     1
102
RTVSPost2010Prop41ColorIndex
 90
       18
102
RTVSPost2010Prop41ColorRGB
 90
        0
102
RTVSPost2010PropOp41
 70
     1
102
RTVSPost2010Prop42
 90
       50
102
RTVSPost2010PropOp42
 70
     1
102
RTVSPost2010Prop43
 90
        3
102
RTVSPost2010PropOp43
 70
     1
102
RTVSPost2010Prop44ColorIndex
 90
        5
102
RTVSPost2010Prop44ColorRGB
 90
      255
102
RTVSPost2010PropOp44
 70
     1
102
RTVSPost2010Prop45
280
     0
102
RTVSPost2010PropOp45
 70
     1
102
RTVSPost2010Prop46
 90
       50
102
RTVSPost2010PropOp46
 70
     1
102
RTVSPost2010Prop47
 90
       50
102
RTVSPost2010PropOp47
 70
     1
102
RTVSPost2010Prop48
 90
       50
102
RTVSPost2010PropOp48
 70
     1
102
RTVSPost2010Prop49
280
     0
102
RTVSPost2010PropOp49
 70
     1
102
RTVSPost2010Prop50
 90
       50
102
RTVSPost2010PropOp50
 70
     1
102
RTVSPost2010Prop51ColorIndex
 90
      256
102
RTVSPost2010Prop51ColorRGB
 90
-16777216
102
RTVSPost2010PropOp51
 70
     0
102
RTVSPost2010Prop52
140
1.0
102
RTVSPost2010PropOp52
 70
     0
102
RTVSPost2010Prop53
 90
        2
102
RTVSPost2010PropOp53
 70
     1
102
RTVSPost2010Prop54
  1
strokes_ogs.tif
102
RTVSPost2010PropOp54
 70
     1
102
RTVSPost2010Prop55
280
     0
102
RTVSPost2010PropOp55
 70
     1
102
RTVSPost2010Prop56
140
1.0
102
RTVSPost2010PropOp56
 70
     1
102
RTVSPost2010Prop57
140
1.0
102
RTVSPost2010PropOp57
 70
     1
102
RTVSPropertyOp0
 70
     1
102
RTVSPropertyOp1
 70
     1
102
RTVSPropertyOp2
 70
     1
102
RTVSPropertyOp3
 70
     1
102
RTVSPropertyOp4
 70
     1
102
RTVSPropertyOp5
 70
     1
102
RTVSPropertyOp6
 70
     1
102
RTVSPropertyOp7
 70
     1
102
RTVSPropertyOp8
 70
     1
102
RTVSPropertyOp9
 70
     1
102
RTVSPropertyOp10
 70
     1
102
RTVSPropertyOp11
 70
     1
102
RTVSPropertyOp12
 70
     1
102
RTVSPropertyOp13
 70
     1
102
RTVSPropertyOp14
 70
     1
102
RTVSPropertyOp15
 70
     1
102
RTVSPropertyOp16
 70
     1
102
RTVSPropertyOp17
 70
     1
102
RTVSPropertyOp18
 70
     1
102
RTVSPropertyOp19
 70
     1
102
RTVSPropertyOp20
 70
     1
102
RTVSPropertyOp21
 70
     1
102
RTVSPropertyOp22
 70
     1
102
RTVSPropertyOp23
 70
     1
102
RTVSPropertyOp24
 70
     1
102
RTVSPropertyOp25
 70
     1
102
RTVSPropertyOp26
 70
     1
102
RTVSPropertyOp27
 70
     1
102
RTVSPropertyOp28
 70
     1
102
RTVSPropertyOp29
 70
     1
102
RTVSPropertyOp30
 70
     1
102
RTVSPropertyOp31
 70
     1
102
RTVSPropertyOp32
 70
     1
102
RTVSPropertyOp33
 70
     1
102
RTVSPropertyOp34
 70
     1
102
RTVSPropertyOp35
 70
     1
102
RTVSPropertyOp36
 70
     1
102
RTVSPropertyOp37
 70
     1
102
RTVSPropertyOp38
 70
     1
102
RTVSPropertyOp39
 70
     1
102
RTVSPropertyOp40
 70
     1
102
RTVSPropertyOp41
 70
     1
102
RTVSPropertyOp42
 70
     1
102
RTVSPropertyOp43
 70
     1
102
RTVSPropertyOp44
 70
     1
102
RTVSPropertyOp45
 70
     1
102
RTVSPropertyOp46
 70
     1
102
RTVSPropertyOp47
 70
     1
102
RTVSPropertyOp48
 70
     1
102
RTVSPropertyOp49
 70
     1
102
RTVSPropertyOp50
 70
     1
102
RTVSPropertyOp51
 70
     0
102
RTVSPropertyOp52
 70
     0
102
RTVSPropertyOp53
 70
     1
102
RTVSPropertyOp54
 70
     1
102
RTVSPropertyOp55
 70
     1
102
RTVSPropertyOp56
 70
     1
102
RTVSPropertyOp57
 70
     1
102
RTVSPropertyOp58
 70
     1
102
RTVSPropertyOp59
 70
     1
102
RTVSPropertyOp60
 70
     1
102
RTVSPropertyOp61
 70
     1
102
RTVSPropertyOp62
 70
     1
  0
XRECORD
  5
79A
102
{ACAD_REACTORS
330
799
102
}
330
799
100
AcDbXrecord
280
     1
102
RTVSPost2010Prop28
280
     0
102
RTVSPost2010PropOp28
 70
     1
102
RTVSPost2010Prop29
280
     1
102
RTVSPost2010PropOp29
 70
     1
102
RTVSPost2010Prop30
280
     1
102
RTVSPost2010PropOp30
 70
     1
102
RTVSPost2010Prop31
280
     0
102
RTVSPost2010PropOp31
 70
     1
102
RTVSPost2010Prop32
280
     0
102
RTVSPost2010PropOp32
 70
     1
102
RTVSPost2010Prop33
280
     0
102
RTVSPost2010PropOp33
 70
     1
102
RTVSPost2010Prop34
280
     0
102
RTVSPost2010PropOp34
 70
     1
102
RTVSPost2010Prop35
280
     0
102
RTVSPost2010PropOp35
 70
     1
102
RTVSPost2010Prop36
280
     0
102
RTVSPost2010PropOp36
 70
     1
102
RTVSPost2010Prop37
 90
       50
102
RTVSPost2010PropOp37
 70
     1
102
RTVSPost2010Prop38
140
0.0
102
RTVSPost2010PropOp38
 70
     1
102
RTVSPost2010Prop39
140
1.0
102
RTVSPost2010PropOp39
 70
     1
102
RTVSPost2010Prop40
 90
        0
102
RTVSPost2010PropOp40
 70
     1
102
RTVSPost2010Prop41ColorIndex
 90
       18
102
RTVSPost2010Prop41ColorRGB
 90
        0
102
RTVSPost2010PropOp41
 70
     1
102
RTVSPost2010Prop42
 90
       50
102
RTVSPost2010PropOp42
 70
     1
102
RTVSPost2010Prop43
 90
        3
102
RTVSPost2010PropOp43
 70
     1
102
RTVSPost2010Prop44ColorIndex
 90
        5
102
RTVSPost2010Prop44ColorRGB
 90
      255
102
RTVSPost2010PropOp44
 70
     1
102
RTVSPost2010Prop45
280
     0
102
RTVSPost2010PropOp45
 70
     1
102
RTVSPost2010Prop46
 90
       50
102
RTVSPost2010PropOp46
 70
     1
102
RTVSPost2010Prop47
 90
       50
102
RTVSPost2010PropOp47
 70
     1
102
RTVSPost2010Prop48
 90
       50
102
RTVSPost2010PropOp48
 70
     1
102
RTVSPost2010Prop49
280
     0
102
RTVSPost2010PropOp49
 70
     1
102
RTVSPost2010Prop50
 90
       50
102
RTVSPost2010PropOp50
 70
     1
102
RTVSPost2010Prop51ColorIndex
 90
      256
102
RTVSPost2010Prop51ColorRGB
 90
-16777216
102
RTVSPost2010PropOp51
 70
     0
102
RTVSPost2010Prop52
140
1.0
102
RTVSPost2010PropOp52
 70
     0
102
RTVSPost2010Prop53
 90
        2
102
RTVSPost2010PropOp53
 70
     1
102
RTVSPost2010Prop54
  1
strokes_ogs.tif
102
RTVSPost2010PropOp54
 70
     1
102
RTVSPost2010Prop55
280
     0
102
RTVSPost2010PropOp55
 70
     1
102
RTVSPost2010Prop56
140
1.0
102
RTVSPost2010PropOp56
 70
     1
102
RTVSPost2010Prop57
140
1.0
102
RTVSPost2010PropOp57
 70
     1
102
RTVSPropertyOp0
 70
     1
102
RTVSPropertyOp1
 70
     1
102
RTVSPropertyOp2
 70
     1
102
RTVSPropertyOp3
 70
     1
102
RTVSPropertyOp4
 70
     1
102
RTVSPropertyOp5
 70
     1
102
RTVSPropertyOp6
 70
     1
102
RTVSPropertyOp7
 70
     1
102
RTVSPropertyOp8
 70
     1
102
RTVSPropertyOp9
 70
     1
102
RTVSPropertyOp10
 70
     1
102
RTVSPropertyOp11
 70
     1
102
RTVSPropertyOp12
 70
     1
102
RTVSPropertyOp13
 70
     1
102
RTVSPropertyOp14
 70
     1
102
RTVSPropertyOp15
 70
     1
102
RTVSPropertyOp16
 70
     1
102
RTVSPropertyOp17
 70
     1
102
RTVSPropertyOp18
 70
     1
102
RTVSPropertyOp19
 70
     1
102
RTVSPropertyOp20
 70
     1
102
RTVSPropertyOp21
 70
     1
102
RTVSPropertyOp22
 70
     1
102
RTVSPropertyOp23
 70
     1
102
RTVSPropertyOp24
 70
     1
102
RTVSPropertyOp25
 70
     1
102
RTVSPropertyOp26
 70
     1
102
RTVSPropertyOp27
 70
     1
102
RTVSPropertyOp28
 70
     1
102
RTVSPropertyOp29
 70
     1
102
RTVSPropertyOp30
 70
     1
102
RTVSPropertyOp31
 70
     1
102
RTVSPropertyOp32
 70
     1
102
RTVSPropertyOp33
 70
     1
102
RTVSPropertyOp34
 70
     1
102
RTVSPropertyOp35
 70
     1
102
RTVSPropertyOp36
 70
     1
102
RTVSPropertyOp37
 70
     1
102
RTVSPropertyOp38
 70
     1
102
RTVSPropertyOp39
 70
     1
102
RTVSPropertyOp40
 70
     1
102
RTVSPropertyOp41
 70
     1
102
RTVSPropertyOp42
 70
     1
102
RTVSPropertyOp43
 70
     1
102
RTVSPropertyOp44
 70
     1
102
RTVSPropertyOp45
 70
     1
102
RTVSPropertyOp46
 70
     1
102
RTVSPropertyOp47
 70
     1
102
RTVSPropertyOp48
 70
     1
102
RTVSPropertyOp49
 70
     1
102
RTVSPropertyOp50
 70
     1
102
RTVSPropertyOp51
 70
     0
102
RTVSPropertyOp52
 70
     0
102
RTVSPropertyOp53
 70
     1
102
RTVSPropertyOp54
 70
     1
102
RTVSPropertyOp55
 70
     1
102
RTVSPropertyOp56
 70
     1
102
RTVSPropertyOp57
 70
     1
102
RTVSPropertyOp58
 70
     1
102
RTVSPropertyOp59
 70
     1
102
RTVSPropertyOp60
 70
     1
102
RTVSPropertyOp61
 70
     1
102
RTVSPropertyOp62
 70
     1
  0
XRECORD
  5
79C
102
{ACAD_REACTORS
330
79B
102
}
330
79B
100
AcDbXrecord
280
     1
102
RTVSPost2010Prop28
280
     0
102
RTVSPost2010PropOp28
 70
     1
102
RTVSPost2010Prop29
280
     1
102
RTVSPost2010PropOp29
 70
     1
102
RTVSPost2010Prop30
280
     1
102
RTVSPost2010PropOp30
 70
     1
102
RTVSPost2010Prop31
280
     0
102
RTVSPost2010PropOp31
 70
     1
102
RTVSPost2010Prop32
280
     0
102
RTVSPost2010PropOp32
 70
     1
102
RTVSPost2010Prop33
280
     0
102
RTVSPost2010PropOp33
 70
     1
102
RTVSPost2010Prop34
280
     0
102
RTVSPost2010PropOp34
 70
     1
102
RTVSPost2010Prop35
280
     0
102
RTVSPost2010PropOp35
 70
     1
102
RTVSPost2010Prop36
280
     0
102
RTVSPost2010PropOp36
 70
     1
102
RTVSPost2010Prop37
 90
       50
102
RTVSPost2010PropOp37
 70
     1
102
RTVSPost2010Prop38
140
0.0
102
RTVSPost2010PropOp38
 70
     1
102
RTVSPost2010Prop39
140
1.0
102
RTVSPost2010PropOp39
 70
     1
102
RTVSPost2010Prop40
 90
        0
102
RTVSPost2010PropOp40
 70
     1
102
RTVSPost2010Prop41ColorIndex
 90
       18
102
RTVSPost2010Prop41ColorRGB
 90
        0
102
RTVSPost2010PropOp41
 70
     1
102
RTVSPost2010Prop42
 90
       50
102
RTVSPost2010PropOp42
 70
     1
102
RTVSPost2010Prop43
 90
        3
102
RTVSPost2010PropOp43
 70
     1
102
RTVSPost2010Prop44ColorIndex
 90
        5
102
RTVSPost2010Prop44ColorRGB
 90
      255
102
RTVSPost2010PropOp44
 70
     1
102
RTVSPost2010Prop45
280
     0
102
RTVSPost2010PropOp45
 70
     1
102
RTVSPost2010Prop46
 90
       50
102
RTVSPost2010PropOp46
 70
     1
102
RTVSPost2010Prop47
 90
       50
102
RTVSPost2010PropOp47
 70
     1
102
RTVSPost2010Prop48
 90
       50
102
RTVSPost2010PropOp48
 70
     1
102
RTVSPost2010Prop49
280
     0
102
RTVSPost2010PropOp49
 70
     1
102
RTVSPost2010Prop50
 90
       50
102
RTVSPost2010PropOp50
 70
     1
102
RTVSPost2010Prop51ColorIndex
 90
      256
102
RTVSPost2010Prop51ColorRGB
 90
-16777216
102
RTVSPost2010PropOp51
 70
     0
102
RTVSPost2010Prop52
140
1.0
102
RTVSPost2010PropOp52
 70
     0
102
RTVSPost2010Prop53
 90
        2
102
RTVSPost2010PropOp53
 70
     1
102
RTVSPost2010Prop54
  1
strokes_ogs.tif
102
RTVSPost2010PropOp54
 70
     1
102
RTVSPost2010Prop55
280
     0
102
RTVSPost2010PropOp55
 70
     1
102
RTVSPost2010Prop56
140
1.0
102
RTVSPost2010PropOp56
 70
     1
102
RTVSPost2010Prop57
140
1.0
102
RTVSPost2010PropOp57
 70
     1
102
RTVSPropertyOp0
 70
     1
102
RTVSPropertyOp1
 70
     1
102
RTVSPropertyOp2
 70
     1
102
RTVSPropertyOp3
 70
     1
102
RTVSPropertyOp4
 70
     1
102
RTVSPropertyOp5
 70
     1
102
RTVSPropertyOp6
 70
     1
102
RTVSPropertyOp7
 70
     1
102
RTVSPropertyOp8
 70
     1
102
RTVSPropertyOp9
 70
     1
102
RTVSPropertyOp10
 70
     1
102
RTVSPropertyOp11
 70
     1
102
RTVSPropertyOp12
 70
     1
102
RTVSPropertyOp13
 70
     1
102
RTVSPropertyOp14
 70
     1
102
RTVSPropertyOp15
 70
     1
102
RTVSPropertyOp16
 70
     1
102
RTVSPropertyOp17
 70
     1
102
RTVSPropertyOp18
 70
     1
102
RTVSPropertyOp19
 70
     1
102
RTVSPropertyOp20
 70
     1
102
RTVSPropertyOp21
 70
     1
102
RTVSPropertyOp22
 70
     1
102
RTVSPropertyOp23
 70
     1
102
RTVSPropertyOp24
 70
     1
102
RTVSPropertyOp25
 70
     1
102
RTVSPropertyOp26
 70
     1
102
RTVSPropertyOp27
 70
     1
102
RTVSPropertyOp28
 70
     1
102
RTVSPropertyOp29
 70
     1
102
RTVSPropertyOp30
 70
     1
102
RTVSPropertyOp31
 70
     1
102
RTVSPropertyOp32
 70
     1
102
RTVSPropertyOp33
 70
     1
102
RTVSPropertyOp34
 70
     1
102
RTVSPropertyOp35
 70
     1
102
RTVSPropertyOp36
 70
     1
102
RTVSPropertyOp37
 70
     1
102
RTVSPropertyOp38
 70
     1
102
RTVSPropertyOp39
 70
     1
102
RTVSPropertyOp40
 70
     1
102
RTVSPropertyOp41
 70
     1
102
RTVSPropertyOp42
 70
     1
102
RTVSPropertyOp43
 70
     1
102
RTVSPropertyOp44
 70
     1
102
RTVSPropertyOp45
 70
     1
102
RTVSPropertyOp46
 70
     1
102
RTVSPropertyOp47
 70
     1
102
RTVSPropertyOp48
 70
     1
102
RTVSPropertyOp49
 70
     1
102
RTVSPropertyOp50
 70
     1
102
RTVSPropertyOp51
 70
     0
102
RTVSPropertyOp52
 70
     0
102
RTVSPropertyOp53
 70
     1
102
RTVSPropertyOp54
 70
     1
102
RTVSPropertyOp55
 70
     1
102
RTVSPropertyOp56
 70
     1
102
RTVSPropertyOp57
 70
     1
102
RTVSPropertyOp58
 70
     1
102
RTVSPropertyOp59
 70
     1
102
RTVSPropertyOp60
 70
     1
102
RTVSPropertyOp61
 70
     1
102
RTVSPropertyOp62
 70
     1
  0
XRECORD
  5
7AC
102
{ACAD_REACTORS
330
7AB
102
}
330
7AB
100
AcDbXrecord
280
     1
102
RTVSPost2010Prop28
280
     0
102
RTVSPost2010PropOp28
 70
     0
102
RTVSPost2010Prop29
280
     1
102
RTVSPost2010PropOp29
 70
     0
102
RTVSPost2010Prop30
280
     1
102
RTVSPost2010PropOp30
 70
     0
102
RTVSPost2010Prop31
280
     0
102
RTVSPost2010PropOp31
 70
     0
102
RTVSPost2010Prop32
280
     0
102
RTVSPost2010PropOp32
 70
     0
102
RTVSPost2010Prop33
280
     0
102
RTVSPost2010PropOp33
 70
     0
102
RTVSPost2010Prop34
280
     0
102
RTVSPost2010PropOp34
 70
     0
102
RTVSPost2010Prop35
280
     0
102
RTVSPost2010PropOp35
 70
     0
102
RTVSPost2010Prop36
280
     0
102
RTVSPost2010PropOp36
 70
     0
102
RTVSPost2010Prop37
 90
       50
102
RTVSPost2010PropOp37
 70
     0
102
RTVSPost2010Prop38
140
0.0
102
RTVSPost2010PropOp38
 70
     0
102
RTVSPost2010Prop39
140
1.0
102
RTVSPost2010PropOp39
 70
     0
102
RTVSPost2010Prop40
 90
        0
102
RTVSPost2010PropOp40
 70
     0
102
RTVSPost2010Prop41ColorIndex
 90
       18
102
RTVSPost2010Prop41ColorRGB
 90
        0
102
RTVSPost2010PropOp41
 70
     0
102
RTVSPost2010Prop42
 90
       50
102
RTVSPost2010PropOp42
 70
     0
102
RTVSPost2010Prop43
 90
        3
102
RTVSPost2010PropOp43
 70
     0
102
RTVSPost2010Prop44ColorIndex
 90
        5
102
RTVSPost2010Prop44ColorRGB
 90
      255
102
RTVSPost2010PropOp44
 70
     0
102
RTVSPost2010Prop45
280
     0
102
RTVSPost2010PropOp45
 70
     0
102
RTVSPost2010Prop46
 90
       50
102
RTVSPost2010PropOp46
 70
     0
102
RTVSPost2010Prop47
 90
       50
102
RTVSPost2010PropOp47
 70
     0
102
RTVSPost2010Prop48
 90
       50
102
RTVSPost2010PropOp48
 70
     0
102
RTVSPost2010Prop49
280
     0
102
RTVSPost2010PropOp49
 70
     0
102
RTVSPost2010Prop50
 90
       50
102
RTVSPost2010PropOp50
 70
     0
102
RTVSPost2010Prop51ColorIndex
 90
      256
102
RTVSPost2010Prop51ColorRGB
 90
-16777216
102
RTVSPost2010PropOp51
 70
     0
102
RTVSPost2010Prop52
140
1.0
102
RTVSPost2010PropOp52
 70
     0
102
RTVSPost2010Prop53
 90
        2
102
RTVSPost2010PropOp53
 70
     0
102
RTVSPost2010Prop54
  1
strokes_ogs.tif
102
RTVSPost2010PropOp54
 70
     0
102
RTVSPost2010Prop55
280
     0
102
RTVSPost2010PropOp55
 70
     0
102
RTVSPost2010Prop56
140
1.0
102
RTVSPost2010PropOp56
 70
     0
102
RTVSPost2010Prop57
140
1.0
102
RTVSPost2010PropOp57
 70
     0
102
RTVSPropertyOp0
 70
     0
102
RTVSPropertyOp1
 70
     0
102
RTVSPropertyOp2
 70
     0
102
RTVSPropertyOp3
 70
     0
102
RTVSPropertyOp4
 70
     0
102
RTVSPropertyOp5
 70
     0
102
RTVSPropertyOp6
 70
     0
102
RTVSPropertyOp7
 70
     0
102
RTVSPropertyOp8
 70
     0
102
RTVSPropertyOp9
 70
     0
102
RTVSPropertyOp10
 70
     0
102
RTVSPropertyOp11
 70
     0
102
RTVSPropertyOp12
 70
     0
102
RTVSPropertyOp13
 70
     0
102
RTVSPropertyOp14
 70
     2
102
RTVSPropertyOp15
 70
     0
102
RTVSPropertyOp16
 70
     0
102
RTVSPropertyOp17
 70
     0
102
RTVSPropertyOp18
 70
     0
102
RTVSPropertyOp19
 70
     0
102
RTVSPropertyOp20
 70
     0
102
RTVSPropertyOp21
 70
     0
102
RTVSPropertyOp22
 70
     0
102
RTVSPropertyOp23
 70
     0
102
RTVSPropertyOp24
 70
     0
102
RTVSPropertyOp25
 70
     0
102
RTVSPropertyOp26
 70
     0
102
RTVSPropertyOp27
 70
     0
102
RTVSPropertyOp28
 70
     0
102
RTVSPropertyOp29
 70
     0
102
RTVSPropertyOp30
 70
     0
102
RTVSPropertyOp31
 70
     0
102
RTVSPropertyOp32
 70
     0
102
RTVSPropertyOp33
 70
     0
102
RTVSPropertyOp34
 70
     0
102
RTVSPropertyOp35
 70
     0
102
RTVSPropertyOp36
 70
     0
102
RTVSPropertyOp37
 70
     0
102
RTVSPropertyOp38
 70
     0
102
RTVSPropertyOp39
 70
     0
102
RTVSPropertyOp40
 70
     0
102
RTVSPropertyOp41
 70
     0
102
RTVSPropertyOp42
 70
     0
102
RTVSPropertyOp43
 70
     0
102
RTVSPropertyOp44
 70
     0
102
RTVSPropertyOp45
 70
     0
102
RTVSPropertyOp46
 70
     0
102
RTVSPropertyOp47
 70
     0
102
RTVSPropertyOp48
 70
     0
102
RTVSPropertyOp49
 70
     0
102
RTVSPropertyOp50
 70
     0
102
RTVSPropertyOp51
 70
     0
102
RTVSPropertyOp52
 70
     0
102
RTVSPropertyOp53
 70
     0
102
RTVSPropertyOp54
 70
     0
102
RTVSPropertyOp55
 70
     0
102
RTVSPropertyOp56
 70
     0
102
RTVSPropertyOp57
 70
     0
102
RTVSPropertyOp58
 70
     1
102
RTVSPropertyOp59
 70
     1
102
RTVSPropertyOp60
 70
     1
102
RTVSPropertyOp61
 70
     1
102
RTVSPropertyOp62
 70
     1
  0
XRECORD
  5
7A4
102
{ACAD_REACTORS
330
7A3
102
}
330
7A3
100
AcDbXrecord
280
     1
102
RTVSPost2010Prop28
280
     0
102
RTVSPost2010PropOp28
 70
     1
102
RTVSPost2010Prop29
280
     1
102
RTVSPost2010PropOp29
 70
     1
102
RTVSPost2010Prop30
280
     1
102
RTVSPost2010PropOp30
 70
     1
102
RTVSPost2010Prop31
280
     0
102
RTVSPost2010PropOp31
 70
     1
102
RTVSPost2010Prop32
280
     0
102
RTVSPost2010PropOp32
 70
     1
102
RTVSPost2010Prop33
280
     0
102
RTVSPost2010PropOp33
 70
     1
102
RTVSPost2010Prop34
280
     0
102
RTVSPost2010PropOp34
 70
     1
102
RTVSPost2010Prop35
280
     0
102
RTVSPost2010PropOp35
 70
     1
102
RTVSPost2010Prop36
280
     0
102
RTVSPost2010PropOp36
 70
     1
102
RTVSPost2010Prop37
 90
       50
102
RTVSPost2010PropOp37
 70
     1
102
RTVSPost2010Prop38
140
0.0
102
RTVSPost2010PropOp38
 70
     1
102
RTVSPost2010Prop39
140
1.0
102
RTVSPost2010PropOp39
 70
     1
102
RTVSPost2010Prop40
 90
        0
102
RTVSPost2010PropOp40
 70
     1
102
RTVSPost2010Prop41ColorIndex
 90
       18
102
RTVSPost2010Prop41ColorRGB
 90
        0
102
RTVSPost2010PropOp41
 70
     1
102
RTVSPost2010Prop42
 90
       50
102
RTVSPost2010PropOp42
 70
     1
102
RTVSPost2010Prop43
 90
        3
102
RTVSPost2010PropOp43
 70
     1
102
RTVSPost2010Prop44ColorIndex
 90
        5
102
RTVSPost2010Prop44ColorRGB
 90
      255
102
RTVSPost2010PropOp44
 70
     1
102
RTVSPost2010Prop45
280
     0
102
RTVSPost2010PropOp45
 70
     1
102
RTVSPost2010Prop46
 90
       50
102
RTVSPost2010PropOp46
 70
     1
102
RTVSPost2010Prop47
 90
       50
102
RTVSPost2010PropOp47
 70
     1
102
RTVSPost2010Prop48
 90
       50
102
RTVSPost2010PropOp48
 70
     1
102
RTVSPost2010Prop49
280
     0
102
RTVSPost2010PropOp49
 70
     1
102
RTVSPost2010Prop50
 90
       50
102
RTVSPost2010PropOp50
 70
     1
102
RTVSPost2010Prop51ColorIndex
 90
      256
102
RTVSPost2010Prop51ColorRGB
 90
-16777216
102
RTVSPost2010PropOp51
 70
     0
102
RTVSPost2010Prop52
140
1.0
102
RTVSPost2010PropOp52
 70
     0
102
RTVSPost2010Prop53
 90
        2
102
RTVSPost2010PropOp53
 70
     1
102
RTVSPost2010Prop54
  1
strokes_ogs.tif
102
RTVSPost2010PropOp54
 70
     1
102
RTVSPost2010Prop55
280
     0
102
RTVSPost2010PropOp55
 70
     1
102
RTVSPost2010Prop56
140
1.0
102
RTVSPost2010PropOp56
 70
     1
102
RTVSPost2010Prop57
140
1.0
102
RTVSPost2010PropOp57
 70
     1
102
RTVSPropertyOp0
 70
     1
102
RTVSPropertyOp1
 70
     1
102
RTVSPropertyOp2
 70
     1
102
RTVSPropertyOp3
 70
     1
102
RTVSPropertyOp4
 70
     1
102
RTVSPropertyOp5
 70
     1
102
RTVSPropertyOp6
 70
     1
102
RTVSPropertyOp7
 70
     1
102
RTVSPropertyOp8
 70
     1
102
RTVSPropertyOp9
 70
     1
102
RTVSPropertyOp10
 70
     1
102
RTVSPropertyOp11
 70
     1
102
RTVSPropertyOp12
 70
     1
102
RTVSPropertyOp13
 70
     1
102
RTVSPropertyOp14
 70
     1
102
RTVSPropertyOp15
 70
     1
102
RTVSPropertyOp16
 70
     1
102
RTVSPropertyOp17
 70
     1
102
RTVSPropertyOp18
 70
     1
102
RTVSPropertyOp19
 70
     1
102
RTVSPropertyOp20
 70
     1
102
RTVSPropertyOp21
 70
     1
102
RTVSPropertyOp22
 70
     1
102
RTVSPropertyOp23
 70
     1
102
RTVSPropertyOp24
 70
     1
102
RTVSPropertyOp25
 70
     1
102
RTVSPropertyOp26
 70
     1
102
RTVSPropertyOp27
 70
     1
102
RTVSPropertyOp28
 70
     1
102
RTVSPropertyOp29
 70
     1
102
RTVSPropertyOp30
 70
     1
102
RTVSPropertyOp31
 70
     1
102
RTVSPropertyOp32
 70
     1
102
RTVSPropertyOp33
 70
     1
102
RTVSPropertyOp34
 70
     1
102
RTVSPropertyOp35
 70
     1
102
RTVSPropertyOp36
 70
     1
102
RTVSPropertyOp37
 70
     1
102
RTVSPropertyOp38
 70
     1
102
RTVSPropertyOp39
 70
     1
102
RTVSPropertyOp40
 70
     1
102
RTVSPropertyOp41
 70
     1
102
RTVSPropertyOp42
 70
     1
102
RTVSPropertyOp43
 70
     1
102
RTVSPropertyOp44
 70
     1
102
RTVSPropertyOp45
 70
     1
102
RTVSPropertyOp46
 70
     1
102
RTVSPropertyOp47
 70
     1
102
RTVSPropertyOp48
 70
     1
102
RTVSPropertyOp49
 70
     1
102
RTVSPropertyOp50
 70
     1
102
RTVSPropertyOp51
 70
     0
102
RTVSPropertyOp52
 70
     0
102
RTVSPropertyOp53
 70
     1
102
RTVSPropertyOp54
 70
     1
102
RTVSPropertyOp55
 70
     1
102
RTVSPropertyOp56
 70
     1
102
RTVSPropertyOp57
 70
     1
102
RTVSPropertyOp58
 70
     1
102
RTVSPropertyOp59
 70
     1
102
RTVSPropertyOp60
 70
     1
102
RTVSPropertyOp61
 70
     1
102
RTVSPropertyOp62
 70
     1
  0
XRECORD
  5
788
102
{ACAD_REACTORS
330
787
102
}
330
787
100
AcDbXrecord
280
     1
102
RTVSPost2010Prop28
280
     0
102
RTVSPost2010PropOp28
 70
     1
102
RTVSPost2010Prop29
280
     1
102
RTVSPost2010PropOp29
 70
     1
102
RTVSPost2010Prop30
280
     1
102
RTVSPost2010PropOp30
 70
     1
102
RTVSPost2010Prop31
280
     0
102
RTVSPost2010PropOp31
 70
     1
102
RTVSPost2010Prop32
280
     0
102
RTVSPost2010PropOp32
 70
     1
102
RTVSPost2010Prop33
280
     0
102
RTVSPost2010PropOp33
 70
     1
102
RTVSPost2010Prop34
280
     0
102
RTVSPost2010PropOp34
 70
     1
102
RTVSPost2010Prop35
280
     0
102
RTVSPost2010PropOp35
 70
     1
102
RTVSPost2010Prop36
280
     0
102
RTVSPost2010PropOp36
 70
     1
102
RTVSPost2010Prop37
 90
       50
102
RTVSPost2010PropOp37
 70
     1
102
RTVSPost2010Prop38
140
0.0
102
RTVSPost2010PropOp38
 70
     1
102
RTVSPost2010Prop39
140
1.0
102
RTVSPost2010PropOp39
 70
     1
102
RTVSPost2010Prop40
 90
        0
102
RTVSPost2010PropOp40
 70
     1
102
RTVSPost2010Prop41ColorIndex
 90
       18
102
RTVSPost2010Prop41ColorRGB
 90
        0
102
RTVSPost2010PropOp41
 70
     1
102
RTVSPost2010Prop42
 90
       50
102
RTVSPost2010PropOp42
 70
     1
102
RTVSPost2010Prop43
 90
        3
102
RTVSPost2010PropOp43
 70
     1
102
RTVSPost2010Prop44ColorIndex
 90
        5
102
RTVSPost2010Prop44ColorRGB
 90
      255
102
RTVSPost2010PropOp44
 70
     1
102
RTVSPost2010Prop45
280
     0
102
RTVSPost2010PropOp45
 70
     1
102
RTVSPost2010Prop46
 90
       50
102
RTVSPost2010PropOp46
 70
     1
102
RTVSPost2010Prop47
 90
       50
102
RTVSPost2010PropOp47
 70
     1
102
RTVSPost2010Prop48
 90
       50
102
RTVSPost2010PropOp48
 70
     1
102
RTVSPost2010Prop49
280
     0
102
RTVSPost2010PropOp49
 70
     1
102
RTVSPost2010Prop50
 90
       50
102
RTVSPost2010PropOp50
 70
     1
102
RTVSPost2010Prop51ColorIndex
 90
      256
102
RTVSPost2010Prop51ColorRGB
 90
-16777216
102
RTVSPost2010PropOp51
 70
     0
102
RTVSPost2010Prop52
140
1.0
102
RTVSPost2010PropOp52
 70
     0
102
RTVSPost2010Prop53
 90
        2
102
RTVSPost2010PropOp53
 70
     1
102
RTVSPost2010Prop54
  1
strokes_ogs.tif
102
RTVSPost2010PropOp54
 70
     1
102
RTVSPost2010Prop55
280
     0
102
RTVSPost2010PropOp55
 70
     1
102
RTVSPost2010Prop56
140
1.0
102
RTVSPost2010PropOp56
 70
     1
102
RTVSPost2010Prop57
140
1.0
102
RTVSPost2010PropOp57
 70
     1
102
RTVSPropertyOp0
 70
     1
102
RTVSPropertyOp1
 70
     1
102
RTVSPropertyOp2
 70
     1
102
RTVSPropertyOp3
 70
     1
102
RTVSPropertyOp4
 70
     1
102
RTVSPropertyOp5
 70
     1
102
RTVSPropertyOp6
 70
     1
102
RTVSPropertyOp7
 70
     1
102
RTVSPropertyOp8
 70
     1
102
RTVSPropertyOp9
 70
     1
102
RTVSPropertyOp10
 70
     1
102
RTVSPropertyOp11
 70
     1
102
RTVSPropertyOp12
 70
     1
102
RTVSPropertyOp13
 70
     1
102
RTVSPropertyOp14
 70
     1
102
RTVSPropertyOp15
 70
     1
102
RTVSPropertyOp16
 70
     1
102
RTVSPropertyOp17
 70
     1
102
RTVSPropertyOp18
 70
     1
102
RTVSPropertyOp19
 70
     1
102
RTVSPropertyOp20
 70
     1
102
RTVSPropertyOp21
 70
     1
102
RTVSPropertyOp22
 70
     1
102
RTVSPropertyOp23
 70
     1
102
RTVSPropertyOp24
 70
     1
102
RTVSPropertyOp25
 70
     1
102
RTVSPropertyOp26
 70
     1
102
RTVSPropertyOp27
 70
     1
102
RTVSPropertyOp28
 70
     1
102
RTVSPropertyOp29
 70
     1
102
RTVSPropertyOp30
 70
     1
102
RTVSPropertyOp31
 70
     1
102
RTVSPropertyOp32
 70
     1
102
RTVSPropertyOp33
 70
     1
102
RTVSPropertyOp34
 70
     1
102
RTVSPropertyOp35
 70
     1
102
RTVSPropertyOp36
 70
     1
102
RTVSPropertyOp37
 70
     1
102
RTVSPropertyOp38
 70
     1
102
RTVSPropertyOp39
 70
     1
102
RTVSPropertyOp40
 70
     1
102
RTVSPropertyOp41
 70
     1
102
RTVSPropertyOp42
 70
     1
102
RTVSPropertyOp43
 70
     1
102
RTVSPropertyOp44
 70
     1
102
RTVSPropertyOp45
 70
     1
102
RTVSPropertyOp46
 70
     1
102
RTVSPropertyOp47
 70
     1
102
RTVSPropertyOp48
 70
     1
102
RTVSPropertyOp49
 70
     1
102
RTVSPropertyOp50
 70
     1
102
RTVSPropertyOp51
 70
     0
102
RTVSPropertyOp52
 70
     0
102
RTVSPropertyOp53
 70
     1
102
RTVSPropertyOp54
 70
     1
102
RTVSPropertyOp55
 70
     1
102
RTVSPropertyOp56
 70
     1
102
RTVSPropertyOp57
 70
     1
102
RTVSPropertyOp58
 70
     1
102
RTVSPropertyOp59
 70
     1
102
RTVSPropertyOp60
 70
     1
102
RTVSPropertyOp61
 70
     1
102
RTVSPropertyOp62
 70
     1
  0
XRECORD
  5
78A
102
{ACAD_REACTORS
330
789
102
}
330
789
100
AcDbXrecord
280
     1
102
RTVSPost2010Prop28
280
     0
102
RTVSPost2010PropOp28
 70
     1
102
RTVSPost2010Prop29
280
     1
102
RTVSPost2010PropOp29
 70
     1
102
RTVSPost2010Prop30
280
     1
102
RTVSPost2010PropOp30
 70
     1
102
RTVSPost2010Prop31
280
     0
102
RTVSPost2010PropOp31
 70
     1
102
RTVSPost2010Prop32
280
     0
102
RTVSPost2010PropOp32
 70
     1
102
RTVSPost2010Prop33
280
     0
102
RTVSPost2010PropOp33
 70
     1
102
RTVSPost2010Prop34
280
     0
102
RTVSPost2010PropOp34
 70
     1
102
RTVSPost2010Prop35
280
     0
102
RTVSPost2010PropOp35
 70
     1
102
RTVSPost2010Prop36
280
     0
102
RTVSPost2010PropOp36
 70
     1
102
RTVSPost2010Prop37
 90
       50
102
RTVSPost2010PropOp37
 70
     1
102
RTVSPost2010Prop38
140
0.0
102
RTVSPost2010PropOp38
 70
     1
102
RTVSPost2010Prop39
140
1.0
102
RTVSPost2010PropOp39
 70
     1
102
RTVSPost2010Prop40
 90
        0
102
RTVSPost2010PropOp40
 70
     1
102
RTVSPost2010Prop41ColorIndex
 90
       18
102
RTVSPost2010Prop41ColorRGB
 90
        0
102
RTVSPost2010PropOp41
 70
     1
102
RTVSPost2010Prop42
 90
       50
102
RTVSPost2010PropOp42
 70
     1
102
RTVSPost2010Prop43
 90
        3
102
RTVSPost2010PropOp43
 70
     1
102
RTVSPost2010Prop44ColorIndex
 90
        5
102
RTVSPost2010Prop44ColorRGB
 90
      255
102
RTVSPost2010PropOp44
 70
     1
102
RTVSPost2010Prop45
280
     0
102
RTVSPost2010PropOp45
 70
     1
102
RTVSPost2010Prop46
 90
       50
102
RTVSPost2010PropOp46
 70
     1
102
RTVSPost2010Prop47
 90
       50
102
RTVSPost2010PropOp47
 70
     1
102
RTVSPost2010Prop48
 90
       50
102
RTVSPost2010PropOp48
 70
     1
102
RTVSPost2010Prop49
280
     0
102
RTVSPost2010PropOp49
 70
     1
102
RTVSPost2010Prop50
 90
       50
102
RTVSPost2010PropOp50
 70
     1
102
RTVSPost2010Prop51ColorIndex
 90
      256
102
RTVSPost2010Prop51ColorRGB
 90
-16777216
102
RTVSPost2010PropOp51
 70
     0
102
RTVSPost2010Prop52
140
1.0
102
RTVSPost2010PropOp52
 70
     0
102
RTVSPost2010Prop53
 90
        2
102
RTVSPost2010PropOp53
 70
     1
102
RTVSPost2010Prop54
  1
strokes_ogs.tif
102
RTVSPost2010PropOp54
 70
     1
102
RTVSPost2010Prop55
280
     0
102
RTVSPost2010PropOp55
 70
     1
102
RTVSPost2010Prop56
140
1.0
102
RTVSPost2010PropOp56
 70
     1
102
RTVSPost2010Prop57
140
1.0
102
RTVSPost2010PropOp57
 70
     1
102
RTVSPropertyOp0
 70
     1
102
RTVSPropertyOp1
 70
     1
102
RTVSPropertyOp2
 70
     1
102
RTVSPropertyOp3
 70
     1
102
RTVSPropertyOp4
 70
     1
102
RTVSPropertyOp5
 70
     1
102
RTVSPropertyOp6
 70
     1
102
RTVSPropertyOp7
 70
     1
102
RTVSPropertyOp8
 70
     1
102
RTVSPropertyOp9
 70
     1
102
RTVSPropertyOp10
 70
     1
102
RTVSPropertyOp11
 70
     1
102
RTVSPropertyOp12
 70
     1
102
RTVSPropertyOp13
 70
     1
102
RTVSPropertyOp14
 70
     1
102
RTVSPropertyOp15
 70
     1
102
RTVSPropertyOp16
 70
     1
102
RTVSPropertyOp17
 70
     1
102
RTVSPropertyOp18
 70
     1
102
RTVSPropertyOp19
 70
     1
102
RTVSPropertyOp20
 70
     1
102
RTVSPropertyOp21
 70
     1
102
RTVSPropertyOp22
 70
     1
102
RTVSPropertyOp23
 70
     1
102
RTVSPropertyOp24
 70
     1
102
RTVSPropertyOp25
 70
     1
102
RTVSPropertyOp26
 70
     1
102
RTVSPropertyOp27
 70
     1
102
RTVSPropertyOp28
 70
     1
102
RTVSPropertyOp29
 70
     1
102
RTVSPropertyOp30
 70
     1
102
RTVSPropertyOp31
 70
     1
102
RTVSPropertyOp32
 70
     1
102
RTVSPropertyOp33
 70
     1
102
RTVSPropertyOp34
 70
     1
102
RTVSPropertyOp35
 70
     1
102
RTVSPropertyOp36
 70
     1
102
RTVSPropertyOp37
 70
     1
102
RTVSPropertyOp38
 70
     1
102
RTVSPropertyOp39
 70
     1
102
RTVSPropertyOp40
 70
     1
102
RTVSPropertyOp41
 70
     1
102
RTVSPropertyOp42
 70
     1
102
RTVSPropertyOp43
 70
     1
102
RTVSPropertyOp44
 70
     1
102
RTVSPropertyOp45
 70
     1
102
RTVSPropertyOp46
 70
     1
102
RTVSPropertyOp47
 70
     1
102
RTVSPropertyOp48
 70
     1
102
RTVSPropertyOp49
 70
     1
102
RTVSPropertyOp50
 70
     1
102
RTVSPropertyOp51
 70
     0
102
RTVSPropertyOp52
 70
     0
102
RTVSPropertyOp53
 70
     1
102
RTVSPropertyOp54
 70
     1
102
RTVSPropertyOp55
 70
     1
102
RTVSPropertyOp56
 70
     1
102
RTVSPropertyOp57
 70
     1
102
RTVSPropertyOp58
 70
     1
102
RTVSPropertyOp59
 70
     1
102
RTVSPropertyOp60
 70
     1
102
RTVSPropertyOp61
 70
     1
102
RTVSPropertyOp62
 70
     1
  0
XRECORD
  5
78C
102
{ACAD_REACTORS
330
78B
102
}
330
78B
100
AcDbXrecord
280
     1
102
RTVSPost2010Prop28
280
     0
102
RTVSPost2010PropOp28
 70
     1
102
RTVSPost2010Prop29
280
     1
102
RTVSPost2010PropOp29
 70
     1
102
RTVSPost2010Prop30
280
     1
102
RTVSPost2010PropOp30
 70
     1
102
RTVSPost2010Prop31
280
     0
102
RTVSPost2010PropOp31
 70
     1
102
RTVSPost2010Prop32
280
     0
102
RTVSPost2010PropOp32
 70
     1
102
RTVSPost2010Prop33
280
     0
102
RTVSPost2010PropOp33
 70
     1
102
RTVSPost2010Prop34
280
     0
102
RTVSPost2010PropOp34
 70
     1
102
RTVSPost2010Prop35
280
     0
102
RTVSPost2010PropOp35
 70
     1
102
RTVSPost2010Prop36
280
     0
102
RTVSPost2010PropOp36
 70
     1
102
RTVSPost2010Prop37
 90
       50
102
RTVSPost2010PropOp37
 70
     1
102
RTVSPost2010Prop38
140
0.0
102
RTVSPost2010PropOp38
 70
     1
102
RTVSPost2010Prop39
140
1.0
102
RTVSPost2010PropOp39
 70
     1
102
RTVSPost2010Prop40
 90
        0
102
RTVSPost2010PropOp40
 70
     1
102
RTVSPost2010Prop41ColorIndex
 90
       18
102
RTVSPost2010Prop41ColorRGB
 90
        0
102
RTVSPost2010PropOp41
 70
     1
102
RTVSPost2010Prop42
 90
       50
102
RTVSPost2010PropOp42
 70
     1
102
RTVSPost2010Prop43
 90
        3
102
RTVSPost2010PropOp43
 70
     1
102
RTVSPost2010Prop44ColorIndex
 90
        5
102
RTVSPost2010Prop44ColorRGB
 90
      255
102
RTVSPost2010PropOp44
 70
     1
102
RTVSPost2010Prop45
280
     0
102
RTVSPost2010PropOp45
 70
     1
102
RTVSPost2010Prop46
 90
       50
102
RTVSPost2010PropOp46
 70
     1
102
RTVSPost2010Prop47
 90
       50
102
RTVSPost2010PropOp47
 70
     1
102
RTVSPost2010Prop48
 90
       50
102
RTVSPost2010PropOp48
 70
     1
102
RTVSPost2010Prop49
280
     0
102
RTVSPost2010PropOp49
 70
     1
102
RTVSPost2010Prop50
 90
       50
102
RTVSPost2010PropOp50
 70
     1
102
RTVSPost2010Prop51ColorIndex
 90
      256
102
RTVSPost2010Prop51ColorRGB
 90
-16777216
102
RTVSPost2010PropOp51
 70
     0
102
RTVSPost2010Prop52
140
1.0
102
RTVSPost2010PropOp52
 70
     0
102
RTVSPost2010Prop53
 90
        2
102
RTVSPost2010PropOp53
 70
     1
102
RTVSPost2010Prop54
  1
strokes_ogs.tif
102
RTVSPost2010PropOp54
 70
     1
102
RTVSPost2010Prop55
280
     0
102
RTVSPost2010PropOp55
 70
     1
102
RTVSPost2010Prop56
140
1.0
102
RTVSPost2010PropOp56
 70
     1
102
RTVSPost2010Prop57
140
1.0
102
RTVSPost2010PropOp57
 70
     1
102
RTVSPropertyOp0
 70
     1
102
RTVSPropertyOp1
 70
     1
102
RTVSPropertyOp2
 70
     1
102
RTVSPropertyOp3
 70
     1
102
RTVSPropertyOp4
 70
     1
102
RTVSPropertyOp5
 70
     1
102
RTVSPropertyOp6
 70
     1
102
RTVSPropertyOp7
 70
     1
102
RTVSPropertyOp8
 70
     1
102
RTVSPropertyOp9
 70
     1
102
RTVSPropertyOp10
 70
     1
102
RTVSPropertyOp11
 70
     1
102
RTVSPropertyOp12
 70
     1
102
RTVSPropertyOp13
 70
     1
102
RTVSPropertyOp14
 70
     1
102
RTVSPropertyOp15
 70
     1
102
RTVSPropertyOp16
 70
     1
102
RTVSPropertyOp17
 70
     1
102
RTVSPropertyOp18
 70
     1
102
RTVSPropertyOp19
 70
     1
102
RTVSPropertyOp20
 70
     1
102
RTVSPropertyOp21
 70
     1
102
RTVSPropertyOp22
 70
     1
102
RTVSPropertyOp23
 70
     1
102
RTVSPropertyOp24
 70
     1
102
RTVSPropertyOp25
 70
     1
102
RTVSPropertyOp26
 70
     1
102
RTVSPropertyOp27
 70
     1
102
RTVSPropertyOp28
 70
     1
102
RTVSPropertyOp29
 70
     1
102
RTVSPropertyOp30
 70
     1
102
RTVSPropertyOp31
 70
     1
102
RTVSPropertyOp32
 70
     1
102
RTVSPropertyOp33
 70
     1
102
RTVSPropertyOp34
 70
     1
102
RTVSPropertyOp35
 70
     1
102
RTVSPropertyOp36
 70
     1
102
RTVSPropertyOp37
 70
     1
102
RTVSPropertyOp38
 70
     1
102
RTVSPropertyOp39
 70
     1
102
RTVSPropertyOp40
 70
     1
102
RTVSPropertyOp41
 70
     1
102
RTVSPropertyOp42
 70
     1
102
RTVSPropertyOp43
 70
     1
102
RTVSPropertyOp44
 70
     1
102
RTVSPropertyOp45
 70
     1
102
RTVSPropertyOp46
 70
     1
102
RTVSPropertyOp47
 70
     1
102
RTVSPropertyOp48
 70
     1
102
RTVSPropertyOp49
 70
     1
102
RTVSPropertyOp50
 70
     1
102
RTVSPropertyOp51
 70
     0
102
RTVSPropertyOp52
 70
     0
102
RTVSPropertyOp53
 70
     1
102
RTVSPropertyOp54
 70
     1
102
RTVSPropertyOp55
 70
     1
102
RTVSPropertyOp56
 70
     1
102
RTVSPropertyOp57
 70
     1
102
RTVSPropertyOp58
 70
     1
102
RTVSPropertyOp59
 70
     1
102
RTVSPropertyOp60
 70
     1
102
RTVSPropertyOp61
 70
     1
102
RTVSPropertyOp62
 70
     1
  0
XRECORD
  5
78E
102
{ACAD_REACTORS
330
78D
102
}
330
78D
100
AcDbXrecord
280
     1
102
RTVSPost2010Prop28
280
     0
102
RTVSPost2010PropOp28
 70
     1
102
RTVSPost2010Prop29
280
     1
102
RTVSPost2010PropOp29
 70
     1
102
RTVSPost2010Prop30
280
     1
102
RTVSPost2010PropOp30
 70
     1
102
RTVSPost2010Prop31
280
     0
102
RTVSPost2010PropOp31
 70
     1
102
RTVSPost2010Prop32
280
     0
102
RTVSPost2010PropOp32
 70
     1
102
RTVSPost2010Prop33
280
     0
102
RTVSPost2010PropOp33
 70
     1
102
RTVSPost2010Prop34
280
     0
102
RTVSPost2010PropOp34
 70
     1
102
RTVSPost2010Prop35
280
     0
102
RTVSPost2010PropOp35
 70
     1
102
RTVSPost2010Prop36
280
     0
102
RTVSPost2010PropOp36
 70
     1
102
RTVSPost2010Prop37
 90
       50
102
RTVSPost2010PropOp37
 70
     1
102
RTVSPost2010Prop38
140
0.0
102
RTVSPost2010PropOp38
 70
     1
102
RTVSPost2010Prop39
140
1.0
102
RTVSPost2010PropOp39
 70
     1
102
RTVSPost2010Prop40
 90
        0
102
RTVSPost2010PropOp40
 70
     1
102
RTVSPost2010Prop41ColorIndex
 90
       18
102
RTVSPost2010Prop41ColorRGB
 90
        0
102
RTVSPost2010PropOp41
 70
     1
102
RTVSPost2010Prop42
 90
       50
102
RTVSPost2010PropOp42
 70
     1
102
RTVSPost2010Prop43
 90
        3
102
RTVSPost2010PropOp43
 70
     1
102
RTVSPost2010Prop44ColorIndex
 90
        5
102
RTVSPost2010Prop44ColorRGB
 90
      255
102
RTVSPost2010PropOp44
 70
     1
102
RTVSPost2010Prop45
280
     0
102
RTVSPost2010PropOp45
 70
     1
102
RTVSPost2010Prop46
 90
       50
102
RTVSPost2010PropOp46
 70
     1
102
RTVSPost2010Prop47
 90
       50
102
RTVSPost2010PropOp47
 70
     1
102
RTVSPost2010Prop48
 90
       50
102
RTVSPost2010PropOp48
 70
     1
102
RTVSPost2010Prop49
280
     0
102
RTVSPost2010PropOp49
 70
     1
102
RTVSPost2010Prop50
 90
       50
102
RTVSPost2010PropOp50
 70
     1
102
RTVSPost2010Prop51ColorIndex
 90
      256
102
RTVSPost2010Prop51ColorRGB
 90
-16777216
102
RTVSPost2010PropOp51
 70
     0
102
RTVSPost2010Prop52
140
1.0
102
RTVSPost2010PropOp52
 70
     0
102
RTVSPost2010Prop53
 90
        2
102
RTVSPost2010PropOp53
 70
     1
102
RTVSPost2010Prop54
  1
strokes_ogs.tif
102
RTVSPost2010PropOp54
 70
     1
102
RTVSPost2010Prop55
280
     0
102
RTVSPost2010PropOp55
 70
     1
102
RTVSPost2010Prop56
140
1.0
102
RTVSPost2010PropOp56
 70
     1
102
RTVSPost2010Prop57
140
1.0
102
RTVSPost2010PropOp57
 70
     1
102
RTVSPropertyOp0
 70
     1
102
RTVSPropertyOp1
 70
     1
102
RTVSPropertyOp2
 70
     1
102
RTVSPropertyOp3
 70
     1
102
RTVSPropertyOp4
 70
     1
102
RTVSPropertyOp5
 70
     1
102
RTVSPropertyOp6
 70
     1
102
RTVSPropertyOp7
 70
     1
102
RTVSPropertyOp8
 70
     1
102
RTVSPropertyOp9
 70
     1
102
RTVSPropertyOp10
 70
     1
102
RTVSPropertyOp11
 70
     1
102
RTVSPropertyOp12
 70
     1
102
RTVSPropertyOp13
 70
     1
102
RTVSPropertyOp14
 70
     1
102
RTVSPropertyOp15
 70
     1
102
RTVSPropertyOp16
 70
     1
102
RTVSPropertyOp17
 70
     1
102
RTVSPropertyOp18
 70
     1
102
RTVSPropertyOp19
 70
     1
102
RTVSPropertyOp20
 70
     1
102
RTVSPropertyOp21
 70
     1
102
RTVSPropertyOp22
 70
     1
102
RTVSPropertyOp23
 70
     1
102
RTVSPropertyOp24
 70
     1
102
RTVSPropertyOp25
 70
     1
102
RTVSPropertyOp26
 70
     1
102
RTVSPropertyOp27
 70
     1
102
RTVSPropertyOp28
 70
     1
102
RTVSPropertyOp29
 70
     1
102
RTVSPropertyOp30
 70
     1
102
RTVSPropertyOp31
 70
     1
102
RTVSPropertyOp32
 70
     1
102
RTVSPropertyOp33
 70
     1
102
RTVSPropertyOp34
 70
     1
102
RTVSPropertyOp35
 70
     1
102
RTVSPropertyOp36
 70
     1
102
RTVSPropertyOp37
 70
     1
102
RTVSPropertyOp38
 70
     1
102
RTVSPropertyOp39
 70
     1
102
RTVSPropertyOp40
 70
     1
102
RTVSPropertyOp41
 70
     1
102
RTVSPropertyOp42
 70
     1
102
RTVSPropertyOp43
 70
     1
102
RTVSPropertyOp44
 70
     1
102
RTVSPropertyOp45
 70
     1
102
RTVSPropertyOp46
 70
     1
102
RTVSPropertyOp47
 70
     1
102
RTVSPropertyOp48
 70
     1
102
RTVSPropertyOp49
 70
     1
102
RTVSPropertyOp50
 70
     1
102
RTVSPropertyOp51
 70
     0
102
RTVSPropertyOp52
 70
     0
102
RTVSPropertyOp53
 70
     1
102
RTVSPropertyOp54
 70
     1
102
RTVSPropertyOp55
 70
     1
102
RTVSPropertyOp56
 70
     1
102
RTVSPropertyOp57
 70
     1
102
RTVSPropertyOp58
 70
     1
102
RTVSPropertyOp59
 70
     1
102
RTVSPropertyOp60
 70
     1
102
RTVSPropertyOp61
 70
     1
102
RTVSPropertyOp62
 70
     1
  0
XRECORD
  5
794
102
{ACAD_REACTORS
330
793
102
}
330
793
100
AcDbXrecord
280
     1
102
RTVSPost2010Prop28
280
     0
102
RTVSPost2010PropOp28
 70
     1
102
RTVSPost2010Prop29
280
     1
102
RTVSPost2010PropOp29
 70
     1
102
RTVSPost2010Prop30
280
     1
102
RTVSPost2010PropOp30
 70
     1
102
RTVSPost2010Prop31
280
     0
102
RTVSPost2010PropOp31
 70
     1
102
RTVSPost2010Prop32
280
     0
102
RTVSPost2010PropOp32
 70
     1
102
RTVSPost2010Prop33
280
     0
102
RTVSPost2010PropOp33
 70
     1
102
RTVSPost2010Prop34
280
     0
102
RTVSPost2010PropOp34
 70
     1
102
RTVSPost2010Prop35
280
     0
102
RTVSPost2010PropOp35
 70
     1
102
RTVSPost2010Prop36
280
     0
102
RTVSPost2010PropOp36
 70
     1
102
RTVSPost2010Prop37
 90
       50
102
RTVSPost2010PropOp37
 70
     1
102
RTVSPost2010Prop38
140
0.0
102
RTVSPost2010PropOp38
 70
     1
102
RTVSPost2010Prop39
140
1.0
102
RTVSPost2010PropOp39
 70
     1
102
RTVSPost2010Prop40
 90
        0
102
RTVSPost2010PropOp40
 70
     1
102
RTVSPost2010Prop41ColorIndex
 90
       18
102
RTVSPost2010Prop41ColorRGB
 90
        0
102
RTVSPost2010PropOp41
 70
     1
102
RTVSPost2010Prop42
 90
       50
102
RTVSPost2010PropOp42
 70
     1
102
RTVSPost2010Prop43
 90
        3
102
RTVSPost2010PropOp43
 70
     1
102
RTVSPost2010Prop44ColorIndex
 90
        5
102
RTVSPost2010Prop44ColorRGB
 90
      255
102
RTVSPost2010PropOp44
 70
     1
102
RTVSPost2010Prop45
280
     0
102
RTVSPost2010PropOp45
 70
     1
102
RTVSPost2010Prop46
 90
       50
102
RTVSPost2010PropOp46
 70
     1
102
RTVSPost2010Prop47
 90
       50
102
RTVSPost2010PropOp47
 70
     1
102
RTVSPost2010Prop48
 90
       50
102
RTVSPost2010PropOp48
 70
     1
102
RTVSPost2010Prop49
280
     0
102
RTVSPost2010PropOp49
 70
     1
102
RTVSPost2010Prop50
 90
       50
102
RTVSPost2010PropOp50
 70
     1
102
RTVSPost2010Prop51ColorIndex
 90
      256
102
RTVSPost2010Prop51ColorRGB
 90
-16777216
102
RTVSPost2010PropOp51
 70
     0
102
RTVSPost2010Prop52
140
1.0
102
RTVSPost2010PropOp52
 70
     0
102
RTVSPost2010Prop53
 90
        2
102
RTVSPost2010PropOp53
 70
     1
102
RTVSPost2010Prop54
  1
strokes_ogs.tif
102
RTVSPost2010PropOp54
 70
     1
102
RTVSPost2010Prop55
280
     0
102
RTVSPost2010PropOp55
 70
     1
102
RTVSPost2010Prop56
140
1.0
102
RTVSPost2010PropOp56
 70
     1
102
RTVSPost2010Prop57
140
1.0
102
RTVSPost2010PropOp57
 70
     1
102
RTVSPropertyOp0
 70
     1
102
RTVSPropertyOp1
 70
     1
102
RTVSPropertyOp2
 70
     1
102
RTVSPropertyOp3
 70
     1
102
RTVSPropertyOp4
 70
     1
102
RTVSPropertyOp5
 70
     1
102
RTVSPropertyOp6
 70
     1
102
RTVSPropertyOp7
 70
     1
102
RTVSPropertyOp8
 70
     1
102
RTVSPropertyOp9
 70
     1
102
RTVSPropertyOp10
 70
     1
102
RTVSPropertyOp11
 70
     1
102
RTVSPropertyOp12
 70
     1
102
RTVSPropertyOp13
 70
     1
102
RTVSPropertyOp14
 70
     1
102
RTVSPropertyOp15
 70
     1
102
RTVSPropertyOp16
 70
     1
102
RTVSPropertyOp17
 70
     1
102
RTVSPropertyOp18
 70
     1
102
RTVSPropertyOp19
 70
     1
102
RTVSPropertyOp20
 70
     1
102
RTVSPropertyOp21
 70
     1
102
RTVSPropertyOp22
 70
     1
102
RTVSPropertyOp23
 70
     1
102
RTVSPropertyOp24
 70
     1
102
RTVSPropertyOp25
 70
     1
102
RTVSPropertyOp26
 70
     1
102
RTVSPropertyOp27
 70
     1
102
RTVSPropertyOp28
 70
     1
102
RTVSPropertyOp29
 70
     1
102
RTVSPropertyOp30
 70
     1
102
RTVSPropertyOp31
 70
     1
102
RTVSPropertyOp32
 70
     1
102
RTVSPropertyOp33
 70
     1
102
RTVSPropertyOp34
 70
     1
102
RTVSPropertyOp35
 70
     1
102
RTVSPropertyOp36
 70
     1
102
RTVSPropertyOp37
 70
     1
102
RTVSPropertyOp38
 70
     1
102
RTVSPropertyOp39
 70
     1
102
RTVSPropertyOp40
 70
     1
102
RTVSPropertyOp41
 70
     1
102
RTVSPropertyOp42
 70
     1
102
RTVSPropertyOp43
 70
     1
102
RTVSPropertyOp44
 70
     1
102
RTVSPropertyOp45
 70
     1
102
RTVSPropertyOp46
 70
     1
102
RTVSPropertyOp47
 70
     1
102
RTVSPropertyOp48
 70
     1
102
RTVSPropertyOp49
 70
     1
102
RTVSPropertyOp50
 70
     1
102
RTVSPropertyOp51
 70
     0
102
RTVSPropertyOp52
 70
     0
102
RTVSPropertyOp53
 70
     1
102
RTVSPropertyOp54
 70
     1
102
RTVSPropertyOp55
 70
     1
102
RTVSPropertyOp56
 70
     1
102
RTVSPropertyOp57
 70
     1
102
RTVSPropertyOp58
 70
     1
102
RTVSPropertyOp59
 70
     1
102
RTVSPropertyOp60
 70
     1
102
RTVSPropertyOp61
 70
     1
102
RTVSPropertyOp62
 70
     1
  0
XRECORD
  5
7A8
102
{ACAD_REACTORS
330
7A7
102
}
330
7A7
100
AcDbXrecord
280
     1
102
RTVSPost2010Prop28
280
     0
102
RTVSPost2010PropOp28
 70
     0
102
RTVSPost2010Prop29
280
     1
102
RTVSPost2010PropOp29
 70
     0
102
RTVSPost2010Prop30
280
     1
102
RTVSPost2010PropOp30
 70
     0
102
RTVSPost2010Prop31
280
     0
102
RTVSPost2010PropOp31
 70
     0
102
RTVSPost2010Prop32
280
     0
102
RTVSPost2010PropOp32
 70
     0
102
RTVSPost2010Prop33
280
     0
102
RTVSPost2010PropOp33
 70
     0
102
RTVSPost2010Prop34
280
     0
102
RTVSPost2010PropOp34
 70
     0
102
RTVSPost2010Prop35
280
     0
102
RTVSPost2010PropOp35
 70
     0
102
RTVSPost2010Prop36
280
     0
102
RTVSPost2010PropOp36
 70
     0
102
RTVSPost2010Prop37
 90
       50
102
RTVSPost2010PropOp37
 70
     0
102
RTVSPost2010Prop38
140
0.0
102
RTVSPost2010PropOp38
 70
     0
102
RTVSPost2010Prop39
140
1.0
102
RTVSPost2010PropOp39
 70
     0
102
RTVSPost2010Prop40
 90
        0
102
RTVSPost2010PropOp40
 70
     0
102
RTVSPost2010Prop41ColorIndex
 90
       18
102
RTVSPost2010Prop41ColorRGB
 90
        0
102
RTVSPost2010PropOp41
 70
     0
102
RTVSPost2010Prop42
 90
       50
102
RTVSPost2010PropOp42
 70
     0
102
RTVSPost2010Prop43
 90
        3
102
RTVSPost2010PropOp43
 70
     0
102
RTVSPost2010Prop44ColorIndex
 90
        5
102
RTVSPost2010Prop44ColorRGB
 90
      255
102
RTVSPost2010PropOp44
 70
     0
102
RTVSPost2010Prop45
280
     0
102
RTVSPost2010PropOp45
 70
     0
102
RTVSPost2010Prop46
 90
       50
102
RTVSPost2010PropOp46
 70
     0
102
RTVSPost2010Prop47
 90
       50
102
RTVSPost2010PropOp47
 70
     0
102
RTVSPost2010Prop48
 90
       50
102
RTVSPost2010PropOp48
 70
     0
102
RTVSPost2010Prop49
280
     0
102
RTVSPost2010PropOp49
 70
     0
102
RTVSPost2010Prop50
 90
       50
102
RTVSPost2010PropOp50
 70
     0
102
RTVSPost2010Prop51ColorIndex
 90
      256
102
RTVSPost2010Prop51ColorRGB
 90
-16777216
102
RTVSPost2010PropOp51
 70
     0
102
RTVSPost2010Prop52
140
1.0
102
RTVSPost2010PropOp52
 70
     0
102
RTVSPost2010Prop53
 90
        2
102
RTVSPost2010PropOp53
 70
     0
102
RTVSPost2010Prop54
  1
strokes_ogs.tif
102
RTVSPost2010PropOp54
 70
     0
102
RTVSPost2010Prop55
280
     0
102
RTVSPost2010PropOp55
 70
     0
102
RTVSPost2010Prop56
140
1.0
102
RTVSPost2010PropOp56
 70
     0
102
RTVSPost2010Prop57
140
1.0
102
RTVSPost2010PropOp57
 70
     0
102
RTVSPropertyOp0
 70
     0
102
RTVSPropertyOp1
 70
     0
102
RTVSPropertyOp2
 70
     0
102
RTVSPropertyOp3
 70
     0
102
RTVSPropertyOp4
 70
     0
102
RTVSPropertyOp5
 70
     0
102
RTVSPropertyOp6
 70
     0
102
RTVSPropertyOp7
 70
     0
102
RTVSPropertyOp8
 70
     0
102
RTVSPropertyOp9
 70
     0
102
RTVSPropertyOp10
 70
     0
102
RTVSPropertyOp11
 70
     0
102
RTVSPropertyOp12
 70
     0
102
RTVSPropertyOp13
 70
     0
102
RTVSPropertyOp14
 70
     2
102
RTVSPropertyOp15
 70
     0
102
RTVSPropertyOp16
 70
     0
102
RTVSPropertyOp17
 70
     0
102
RTVSPropertyOp18
 70
     0
102
RTVSPropertyOp19
 70
     0
102
RTVSPropertyOp20
 70
     0
102
RTVSPropertyOp21
 70
     0
102
RTVSPropertyOp22
 70
     0
102
RTVSPropertyOp23
 70
     0
102
RTVSPropertyOp24
 70
     0
102
RTVSPropertyOp25
 70
     0
102
RTVSPropertyOp26
 70
     0
102
RTVSPropertyOp27
 70
     0
102
RTVSPropertyOp28
 70
     0
102
RTVSPropertyOp29
 70
     0
102
RTVSPropertyOp30
 70
     0
102
RTVSPropertyOp31
 70
     0
102
RTVSPropertyOp32
 70
     0
102
RTVSPropertyOp33
 70
     0
102
RTVSPropertyOp34
 70
     0
102
RTVSPropertyOp35
 70
     0
102
RTVSPropertyOp36
 70
     0
102
RTVSPropertyOp37
 70
     0
102
RTVSPropertyOp38
 70
     0
102
RTVSPropertyOp39
 70
     0
102
RTVSPropertyOp40
 70
     0
102
RTVSPropertyOp41
 70
     0
102
RTVSPropertyOp42
 70
     0
102
RTVSPropertyOp43
 70
     0
102
RTVSPropertyOp44
 70
     0
102
RTVSPropertyOp45
 70
     0
102
RTVSPropertyOp46
 70
     0
102
RTVSPropertyOp47
 70
     0
102
RTVSPropertyOp48
 70
     0
102
RTVSPropertyOp49
 70
     0
102
RTVSPropertyOp50
 70
     0
102
RTVSPropertyOp51
 70
     0
102
RTVSPropertyOp52
 70
     0
102
RTVSPropertyOp53
 70
     0
102
RTVSPropertyOp54
 70
     0
102
RTVSPropertyOp55
 70
     0
102
RTVSPropertyOp56
 70
     0
102
RTVSPropertyOp57
 70
     0
102
RTVSPropertyOp58
 70
     1
102
RTVSPropertyOp59
 70
     1
102
RTVSPropertyOp60
 70
     1
102
RTVSPropertyOp61
 70
     1
102
RTVSPropertyOp62
 70
     1
  0
XRECORD
  5
7A2
102
{ACAD_REACTORS
330
7A1
102
}
330
7A1
100
AcDbXrecord
280
     1
102
RTVSPost2010Prop28
280
     0
102
RTVSPost2010PropOp28
 70
     1
102
RTVSPost2010Prop29
280
     1
102
RTVSPost2010PropOp29
 70
     1
102
RTVSPost2010Prop30
280
     1
102
RTVSPost2010PropOp30
 70
     1
102
RTVSPost2010Prop31
280
     0
102
RTVSPost2010PropOp31
 70
     1
102
RTVSPost2010Prop32
280
     0
102
RTVSPost2010PropOp32
 70
     1
102
RTVSPost2010Prop33
280
     0
102
RTVSPost2010PropOp33
 70
     1
102
RTVSPost2010Prop34
280
     0
102
RTVSPost2010PropOp34
 70
     1
102
RTVSPost2010Prop35
280
     0
102
RTVSPost2010PropOp35
 70
     1
102
RTVSPost2010Prop36
280
     0
102
RTVSPost2010PropOp36
 70
     1
102
RTVSPost2010Prop37
 90
       50
102
RTVSPost2010PropOp37
 70
     1
102
RTVSPost2010Prop38
140
0.0
102
RTVSPost2010PropOp38
 70
     1
102
RTVSPost2010Prop39
140
1.0
102
RTVSPost2010PropOp39
 70
     1
102
RTVSPost2010Prop40
 90
        0
102
RTVSPost2010PropOp40
 70
     1
102
RTVSPost2010Prop41ColorIndex
 90
       18
102
RTVSPost2010Prop41ColorRGB
 90
        0
102
RTVSPost2010PropOp41
 70
     1
102
RTVSPost2010Prop42
 90
       50
102
RTVSPost2010PropOp42
 70
     1
102
RTVSPost2010Prop43
 90
        3
102
RTVSPost2010PropOp43
 70
     1
102
RTVSPost2010Prop44ColorIndex
 90
        5
102
RTVSPost2010Prop44ColorRGB
 90
      255
102
RTVSPost2010PropOp44
 70
     1
102
RTVSPost2010Prop45
280
     0
102
RTVSPost2010PropOp45
 70
     1
102
RTVSPost2010Prop46
 90
       50
102
RTVSPost2010PropOp46
 70
     1
102
RTVSPost2010Prop47
 90
       50
102
RTVSPost2010PropOp47
 70
     1
102
RTVSPost2010Prop48
 90
       50
102
RTVSPost2010PropOp48
 70
     1
102
RTVSPost2010Prop49
280
     0
102
RTVSPost2010PropOp49
 70
     1
102
RTVSPost2010Prop50
 90
       50
102
RTVSPost2010PropOp50
 70
     1
102
RTVSPost2010Prop51ColorIndex
 90
      256
102
RTVSPost2010Prop51ColorRGB
 90
-16777216
102
RTVSPost2010PropOp51
 70
     0
102
RTVSPost2010Prop52
140
1.0
102
RTVSPost2010PropOp52
 70
     0
102
RTVSPost2010Prop53
 90
        2
102
RTVSPost2010PropOp53
 70
     1
102
RTVSPost2010Prop54
  1
strokes_ogs.tif
102
RTVSPost2010PropOp54
 70
     1
102
RTVSPost2010Prop55
280
     0
102
RTVSPost2010PropOp55
 70
     1
102
RTVSPost2010Prop56
140
1.0
102
RTVSPost2010PropOp56
 70
     1
102
RTVSPost2010Prop57
140
1.0
102
RTVSPost2010PropOp57
 70
     1
102
RTVSPropertyOp0
 70
     1
102
RTVSPropertyOp1
 70
     1
102
RTVSPropertyOp2
 70
     1
102
RTVSPropertyOp3
 70
     1
102
RTVSPropertyOp4
 70
     1
102
RTVSPropertyOp5
 70
     1
102
RTVSPropertyOp6
 70
     1
102
RTVSPropertyOp7
 70
     1
102
RTVSPropertyOp8
 70
     1
102
RTVSPropertyOp9
 70
     1
102
RTVSPropertyOp10
 70
     1
102
RTVSPropertyOp11
 70
     1
102
RTVSPropertyOp12
 70
     1
102
RTVSPropertyOp13
 70
     1
102
RTVSPropertyOp14
 70
     1
102
RTVSPropertyOp15
 70
     1
102
RTVSPropertyOp16
 70
     1
102
RTVSPropertyOp17
 70
     1
102
RTVSPropertyOp18
 70
     1
102
RTVSPropertyOp19
 70
     1
102
RTVSPropertyOp20
 70
     1
102
RTVSPropertyOp21
 70
     1
102
RTVSPropertyOp22
 70
     1
102
RTVSPropertyOp23
 70
     1
102
RTVSPropertyOp24
 70
     1
102
RTVSPropertyOp25
 70
     1
102
RTVSPropertyOp26
 70
     1
102
RTVSPropertyOp27
 70
     1
102
RTVSPropertyOp28
 70
     1
102
RTVSPropertyOp29
 70
     1
102
RTVSPropertyOp30
 70
     1
102
RTVSPropertyOp31
 70
     1
102
RTVSPropertyOp32
 70
     1
102
RTVSPropertyOp33
 70
     1
102
RTVSPropertyOp34
 70
     1
102
RTVSPropertyOp35
 70
     1
102
RTVSPropertyOp36
 70
     1
102
RTVSPropertyOp37
 70
     1
102
RTVSPropertyOp38
 70
     1
102
RTVSPropertyOp39
 70
     1
102
RTVSPropertyOp40
 70
     1
102
RTVSPropertyOp41
 70
     1
102
RTVSPropertyOp42
 70
     1
102
RTVSPropertyOp43
 70
     1
102
RTVSPropertyOp44
 70
     1
102
RTVSPropertyOp45
 70
     1
102
RTVSPropertyOp46
 70
     1
102
RTVSPropertyOp47
 70
     1
102
RTVSPropertyOp48
 70
     1
102
RTVSPropertyOp49
 70
     1
102
RTVSPropertyOp50
 70
     1
102
RTVSPropertyOp51
 70
     0
102
RTVSPropertyOp52
 70
     0
102
RTVSPropertyOp53
 70
     1
102
RTVSPropertyOp54
 70
     1
102
RTVSPropertyOp55
 70
     1
102
RTVSPropertyOp56
 70
     1
102
RTVSPropertyOp57
 70
     1
102
RTVSPropertyOp58
 70
     1
102
RTVSPropertyOp59
 70
     1
102
RTVSPropertyOp60
 70
     1
102
RTVSPropertyOp61
 70
     1
102
RTVSPropertyOp62
 70
     1
  0
XRECORD
  5
7AA
102
{ACAD_REACTORS
330
7A9
102
}
330
7A9
100
AcDbXrecord
280
     1
102
RTVSPost2010Prop28
280
     0
102
RTVSPost2010PropOp28
 70
     0
102
RTVSPost2010Prop29
280
     1
102
RTVSPost2010PropOp29
 70
     0
102
RTVSPost2010Prop30
280
     1
102
RTVSPost2010PropOp30
 70
     0
102
RTVSPost2010Prop31
280
     0
102
RTVSPost2010PropOp31
 70
     0
102
RTVSPost2010Prop32
280
     0
102
RTVSPost2010PropOp32
 70
     0
102
RTVSPost2010Prop33
280
     0
102
RTVSPost2010PropOp33
 70
     0
102
RTVSPost2010Prop34
280
     0
102
RTVSPost2010PropOp34
 70
     0
102
RTVSPost2010Prop35
280
     0
102
RTVSPost2010PropOp35
 70
     0
102
RTVSPost2010Prop36
280
     0
102
RTVSPost2010PropOp36
 70
     0
102
RTVSPost2010Prop37
 90
       50
102
RTVSPost2010PropOp37
 70
     0
102
RTVSPost2010Prop38
140
0.0
102
RTVSPost2010PropOp38
 70
     0
102
RTVSPost2010Prop39
140
1.0
102
RTVSPost2010PropOp39
 70
     0
102
RTVSPost2010Prop40
 90
        0
102
RTVSPost2010PropOp40
 70
     0
102
RTVSPost2010Prop41ColorIndex
 90
       18
102
RTVSPost2010Prop41ColorRGB
 90
        0
102
RTVSPost2010PropOp41
 70
     0
102
RTVSPost2010Prop42
 90
       50
102
RTVSPost2010PropOp42
 70
     0
102
RTVSPost2010Prop43
 90
        3
102
RTVSPost2010PropOp43
 70
     0
102
RTVSPost2010Prop44ColorIndex
 90
        5
102
RTVSPost2010Prop44ColorRGB
 90
      255
102
RTVSPost2010PropOp44
 70
     0
102
RTVSPost2010Prop45
280
     0
102
RTVSPost2010PropOp45
 70
     0
102
RTVSPost2010Prop46
 90
       50
102
RTVSPost2010PropOp46
 70
     0
102
RTVSPost2010Prop47
 90
       50
102
RTVSPost2010PropOp47
 70
     0
102
RTVSPost2010Prop48
 90
       50
102
RTVSPost2010PropOp48
 70
     0
102
RTVSPost2010Prop49
280
     0
102
RTVSPost2010PropOp49
 70
     0
102
RTVSPost2010Prop50
 90
       50
102
RTVSPost2010PropOp50
 70
     0
102
RTVSPost2010Prop51ColorIndex
 90
      256
102
RTVSPost2010Prop51ColorRGB
 90
-16777216
102
RTVSPost2010PropOp51
 70
     0
102
RTVSPost2010Prop52
140
1.0
102
RTVSPost2010PropOp52
 70
     0
102
RTVSPost2010Prop53
 90
        2
102
RTVSPost2010PropOp53
 70
     0
102
RTVSPost2010Prop54
  1
strokes_ogs.tif
102
RTVSPost2010PropOp54
 70
     0
102
RTVSPost2010Prop55
280
     0
102
RTVSPost2010PropOp55
 70
     0
102
RTVSPost2010Prop56
140
1.0
102
RTVSPost2010PropOp56
 70
     0
102
RTVSPost2010Prop57
140
1.0
102
RTVSPost2010PropOp57
 70
     0
102
RTVSPropertyOp0
 70
     0
102
RTVSPropertyOp1
 70
     0
102
RTVSPropertyOp2
 70
     0
102
RTVSPropertyOp3
 70
     0
102
RTVSPropertyOp4
 70
     0
102
RTVSPropertyOp5
 70
     0
102
RTVSPropertyOp6
 70
     0
102
RTVSPropertyOp7
 70
     0
102
RTVSPropertyOp8
 70
     0
102
RTVSPropertyOp9
 70
     0
102
RTVSPropertyOp10
 70
     0
102
RTVSPropertyOp11
 70
     0
102
RTVSPropertyOp12
 70
     0
102
RTVSPropertyOp13
 70
     0
102
RTVSPropertyOp14
 70
     2
102
RTVSPropertyOp15
 70
     0
102
RTVSPropertyOp16
 70
     0
102
RTVSPropertyOp17
 70
     0
102
RTVSPropertyOp18
 70
     0
102
RTVSPropertyOp19
 70
     0
102
RTVSPropertyOp20
 70
     0
102
RTVSPropertyOp21
 70
     0
102
RTVSPropertyOp22
 70
     0
102
RTVSPropertyOp23
 70
     0
102
RTVSPropertyOp24
 70
     0
102
RTVSPropertyOp25
 70
     0
102
RTVSPropertyOp26
 70
     0
102
RTVSPropertyOp27
 70
     0
102
RTVSPropertyOp28
 70
     0
102
RTVSPropertyOp29
 70
     0
102
RTVSPropertyOp30
 70
     0
102
RTVSPropertyOp31
 70
     0
102
RTVSPropertyOp32
 70
     0
102
RTVSPropertyOp33
 70
     0
102
RTVSPropertyOp34
 70
     0
102
RTVSPropertyOp35
 70
     0
102
RTVSPropertyOp36
 70
     0
102
RTVSPropertyOp37
 70
     0
102
RTVSPropertyOp38
 70
     0
102
RTVSPropertyOp39
 70
     0
102
RTVSPropertyOp40
 70
     0
102
RTVSPropertyOp41
 70
     0
102
RTVSPropertyOp42
 70
     0
102
RTVSPropertyOp43
 70
     0
102
RTVSPropertyOp44
 70
     0
102
RTVSPropertyOp45
 70
     0
102
RTVSPropertyOp46
 70
     0
102
RTVSPropertyOp47
 70
     0
102
RTVSPropertyOp48
 70
     0
102
RTVSPropertyOp49
 70
     0
102
RTVSPropertyOp50
 70
     0
102
RTVSPropertyOp51
 70
     0
102
RTVSPropertyOp52
 70
     0
102
RTVSPropertyOp53
 70
     0
102
RTVSPropertyOp54
 70
     0
102
RTVSPropertyOp55
 70
     0
102
RTVSPropertyOp56
 70
     0
102
RTVSPropertyOp57
 70
     0
102
RTVSPropertyOp58
 70
     1
102
RTVSPropertyOp59
 70
     1
102
RTVSPropertyOp60
 70
     1
102
RTVSPropertyOp61
 70
     1
102
RTVSPropertyOp62
 70
     1
  0
XRECORD
  5
798
102
{ACAD_REACTORS
330
797
102
}
330
797
100
AcDbXrecord
280
     1
102
RTVSPost2010Prop28
280
     0
102
RTVSPost2010PropOp28
 70
     1
102
RTVSPost2010Prop29
280
     1
102
RTVSPost2010PropOp29
 70
     1
102
RTVSPost2010Prop30
280
     1
102
RTVSPost2010PropOp30
 70
     1
102
RTVSPost2010Prop31
280
     0
102
RTVSPost2010PropOp31
 70
     1
102
RTVSPost2010Prop32
280
     0
102
RTVSPost2010PropOp32
 70
     1
102
RTVSPost2010Prop33
280
     0
102
RTVSPost2010PropOp33
 70
     1
102
RTVSPost2010Prop34
280
     0
102
RTVSPost2010PropOp34
 70
     1
102
RTVSPost2010Prop35
280
     0
102
RTVSPost2010PropOp35
 70
     1
102
RTVSPost2010Prop36
280
     0
102
RTVSPost2010PropOp36
 70
     1
102
RTVSPost2010Prop37
 90
       50
102
RTVSPost2010PropOp37
 70
     1
102
RTVSPost2010Prop38
140
0.0
102
RTVSPost2010PropOp38
 70
     1
102
RTVSPost2010Prop39
140
1.0
102
RTVSPost2010PropOp39
 70
     1
102
RTVSPost2010Prop40
 90
        0
102
RTVSPost2010PropOp40
 70
     1
102
RTVSPost2010Prop41ColorIndex
 90
       18
102
RTVSPost2010Prop41ColorRGB
 90
        0
102
RTVSPost2010PropOp41
 70
     1
102
RTVSPost2010Prop42
 90
       50
102
RTVSPost2010PropOp42
 70
     1
102
RTVSPost2010Prop43
 90
        3
102
RTVSPost2010PropOp43
 70
     1
102
RTVSPost2010Prop44ColorIndex
 90
        5
102
RTVSPost2010Prop44ColorRGB
 90
      255
102
RTVSPost2010PropOp44
 70
     1
102
RTVSPost2010Prop45
280
     0
102
RTVSPost2010PropOp45
 70
     1
102
RTVSPost2010Prop46
 90
       50
102
RTVSPost2010PropOp46
 70
     1
102
RTVSPost2010Prop47
 90
       50
102
RTVSPost2010PropOp47
 70
     1
102
RTVSPost2010Prop48
 90
       50
102
RTVSPost2010PropOp48
 70
     1
102
RTVSPost2010Prop49
280
     0
102
RTVSPost2010PropOp49
 70
     1
102
RTVSPost2010Prop50
 90
       50
102
RTVSPost2010PropOp50
 70
     1
102
RTVSPost2010Prop51ColorIndex
 90
      256
102
RTVSPost2010Prop51ColorRGB
 90
-16777216
102
RTVSPost2010PropOp51
 70
     0
102
RTVSPost2010Prop52
140
1.0
102
RTVSPost2010PropOp52
 70
     0
102
RTVSPost2010Prop53
 90
        2
102
RTVSPost2010PropOp53
 70
     1
102
RTVSPost2010Prop54
  1
strokes_ogs.tif
102
RTVSPost2010PropOp54
 70
     1
102
RTVSPost2010Prop55
280
     0
102
RTVSPost2010PropOp55
 70
     1
102
RTVSPost2010Prop56
140
1.0
102
RTVSPost2010PropOp56
 70
     1
102
RTVSPost2010Prop57
140
1.0
102
RTVSPost2010PropOp57
 70
     1
102
RTVSPropertyOp0
 70
     1
102
RTVSPropertyOp1
 70
     1
102
RTVSPropertyOp2
 70
     1
102
RTVSPropertyOp3
 70
     1
102
RTVSPropertyOp4
 70
     1
102
RTVSPropertyOp5
 70
     1
102
RTVSPropertyOp6
 70
     1
102
RTVSPropertyOp7
 70
     1
102
RTVSPropertyOp8
 70
     1
102
RTVSPropertyOp9
 70
     1
102
RTVSPropertyOp10
 70
     1
102
RTVSPropertyOp11
 70
     1
102
RTVSPropertyOp12
 70
     1
102
RTVSPropertyOp13
 70
     1
102
RTVSPropertyOp14
 70
     1
102
RTVSPropertyOp15
 70
     1
102
RTVSPropertyOp16
 70
     1
102
RTVSPropertyOp17
 70
     1
102
RTVSPropertyOp18
 70
     1
102
RTVSPropertyOp19
 70
     1
102
RTVSPropertyOp20
 70
     1
102
RTVSPropertyOp21
 70
     1
102
RTVSPropertyOp22
 70
     1
102
RTVSPropertyOp23
 70
     1
102
RTVSPropertyOp24
 70
     1
102
RTVSPropertyOp25
 70
     1
102
RTVSPropertyOp26
 70
     1
102
RTVSPropertyOp27
 70
     1
102
RTVSPropertyOp28
 70
     1
102
RTVSPropertyOp29
 70
     1
102
RTVSPropertyOp30
 70
     1
102
RTVSPropertyOp31
 70
     1
102
RTVSPropertyOp32
 70
     1
102
RTVSPropertyOp33
 70
     1
102
RTVSPropertyOp34
 70
     1
102
RTVSPropertyOp35
 70
     1
102
RTVSPropertyOp36
 70
     1
102
RTVSPropertyOp37
 70
     1
102
RTVSPropertyOp38
 70
     1
102
RTVSPropertyOp39
 70
     1
102
RTVSPropertyOp40
 70
     1
102
RTVSPropertyOp41
 70
     1
102
RTVSPropertyOp42
 70
     1
102
RTVSPropertyOp43
 70
     1
102
RTVSPropertyOp44
 70
     1
102
RTVSPropertyOp45
 70
     1
102
RTVSPropertyOp46
 70
     1
102
RTVSPropertyOp47
 70
     1
102
RTVSPropertyOp48
 70
     1
102
RTVSPropertyOp49
 70
     1
102
RTVSPropertyOp50
 70
     1
102
RTVSPropertyOp51
 70
     0
102
RTVSPropertyOp52
 70
     0
102
RTVSPropertyOp53
 70
     1
102
RTVSPropertyOp54
 70
     1
102
RTVSPropertyOp55
 70
     1
102
RTVSPropertyOp56
 70
     1
102
RTVSPropertyOp57
 70
     1
102
RTVSPropertyOp58
 70
     1
102
RTVSPropertyOp59
 70
     1
102
RTVSPropertyOp60
 70
     1
102
RTVSPropertyOp61
 70
     1
102
RTVSPropertyOp62
 70
     1
  0
XRECORD
  5
7B6
102
{ACAD_REACTORS
330
7B5
102
}
330
7B5
100
AcDbXrecord
280
     1
102
RTVSPost2010Prop28
280
     0
102
RTVSPost2010PropOp28
 70
     1
102
RTVSPost2010Prop29
280
     1
102
RTVSPost2010PropOp29
 70
     1
102
RTVSPost2010Prop30
280
     1
102
RTVSPost2010PropOp30
 70
     1
102
RTVSPost2010Prop31
280
     0
102
RTVSPost2010PropOp31
 70
     1
102
RTVSPost2010Prop32
280
     0
102
RTVSPost2010PropOp32
 70
     1
102
RTVSPost2010Prop33
280
     0
102
RTVSPost2010PropOp33
 70
     1
102
RTVSPost2010Prop34
280
     0
102
RTVSPost2010PropOp34
 70
     1
102
RTVSPost2010Prop35
280
     0
102
RTVSPost2010PropOp35
 70
     1
102
RTVSPost2010Prop36
280
     0
102
RTVSPost2010PropOp36
 70
     1
102
RTVSPost2010Prop37
 90
       50
102
RTVSPost2010PropOp37
 70
     1
102
RTVSPost2010Prop38
140
0.0
102
RTVSPost2010PropOp38
 70
     1
102
RTVSPost2010Prop39
140
1.0
102
RTVSPost2010PropOp39
 70
     1
102
RTVSPost2010Prop40
 90
        0
102
RTVSPost2010PropOp40
 70
     1
102
RTVSPost2010Prop41ColorIndex
 90
       18
102
RTVSPost2010Prop41ColorRGB
 90
        0
102
RTVSPost2010PropOp41
 70
     1
102
RTVSPost2010Prop42
 90
       50
102
RTVSPost2010PropOp42
 70
     1
102
RTVSPost2010Prop43
 90
        3
102
RTVSPost2010PropOp43
 70
     1
102
RTVSPost2010Prop44ColorIndex
 90
        5
102
RTVSPost2010Prop44ColorRGB
 90
      255
102
RTVSPost2010PropOp44
 70
     1
102
RTVSPost2010Prop45
280
     0
102
RTVSPost2010PropOp45
 70
     1
102
RTVSPost2010Prop46
 90
       50
102
RTVSPost2010PropOp46
 70
     1
102
RTVSPost2010Prop47
 90
       50
102
RTVSPost2010PropOp47
 70
     1
102
RTVSPost2010Prop48
 90
       50
102
RTVSPost2010PropOp48
 70
     1
102
RTVSPost2010Prop49
280
     0
102
RTVSPost2010PropOp49
 70
     1
102
RTVSPost2010Prop50
 90
       50
102
RTVSPost2010PropOp50
 70
     1
102
RTVSPost2010Prop51ColorIndex
 90
      256
102
RTVSPost2010Prop51ColorRGB
 90
-16777216
102
RTVSPost2010PropOp51
 70
     0
102
RTVSPost2010Prop52
140
1.0
102
RTVSPost2010PropOp52
 70
     0
102
RTVSPost2010Prop53
 90
        2
102
RTVSPost2010PropOp53
 70
     1
102
RTVSPost2010Prop54
  1
strokes_ogs.tif
102
RTVSPost2010PropOp54
 70
     1
102
RTVSPost2010Prop55
280
     0
102
RTVSPost2010PropOp55
 70
     1
102
RTVSPost2010Prop56
140
1.0
102
RTVSPost2010PropOp56
 70
     1
102
RTVSPost2010Prop57
140
1.0
102
RTVSPost2010PropOp57
 70
     1
102
RTVSPropertyOp0
 70
     1
102
RTVSPropertyOp1
 70
     1
102
RTVSPropertyOp2
 70
     1
102
RTVSPropertyOp3
 70
     1
102
RTVSPropertyOp4
 70
     1
102
RTVSPropertyOp5
 70
     1
102
RTVSPropertyOp6
 70
     1
102
RTVSPropertyOp7
 70
     1
102
RTVSPropertyOp8
 70
     1
102
RTVSPropertyOp9
 70
     1
102
RTVSPropertyOp10
 70
     1
102
RTVSPropertyOp11
 70
     1
102
RTVSPropertyOp12
 70
     1
102
RTVSPropertyOp13
 70
     1
102
RTVSPropertyOp14
 70
     1
102
RTVSPropertyOp15
 70
     1
102
RTVSPropertyOp16
 70
     1
102
RTVSPropertyOp17
 70
     1
102
RTVSPropertyOp18
 70
     1
102
RTVSPropertyOp19
 70
     1
102
RTVSPropertyOp20
 70
     1
102
RTVSPropertyOp21
 70
     1
102
RTVSPropertyOp22
 70
     1
102
RTVSPropertyOp23
 70
     1
102
RTVSPropertyOp24
 70
     1
102
RTVSPropertyOp25
 70
     1
102
RTVSPropertyOp26
 70
     1
102
RTVSPropertyOp27
 70
     1
102
RTVSPropertyOp28
 70
     1
102
RTVSPropertyOp29
 70
     1
102
RTVSPropertyOp30
 70
     1
102
RTVSPropertyOp31
 70
     1
102
RTVSPropertyOp32
 70
     1
102
RTVSPropertyOp33
 70
     1
102
RTVSPropertyOp34
 70
     1
102
RTVSPropertyOp35
 70
     1
102
RTVSPropertyOp36
 70
     1
102
RTVSPropertyOp37
 70
     1
102
RTVSPropertyOp38
 70
     1
102
RTVSPropertyOp39
 70
     1
102
RTVSPropertyOp40
 70
     1
102
RTVSPropertyOp41
 70
     1
102
RTVSPropertyOp42
 70
     1
102
RTVSPropertyOp43
 70
     1
102
RTVSPropertyOp44
 70
     1
102
RTVSPropertyOp45
 70
     1
102
RTVSPropertyOp46
 70
     1
102
RTVSPropertyOp47
 70
     1
102
RTVSPropertyOp48
 70
     1
102
RTVSPropertyOp49
 70
     1
102
RTVSPropertyOp50
 70
     1
102
RTVSPropertyOp51
 70
     0
102
RTVSPropertyOp52
 70
     0
102
RTVSPropertyOp53
 70
     1
102
RTVSPropertyOp54
 70
     1
102
RTVSPropertyOp55
 70
     1
102
RTVSPropertyOp56
 70
     1
102
RTVSPropertyOp57
 70
     1
102
RTVSPropertyOp58
 70
     1
102
RTVSPropertyOp59
 70
     1
102
RTVSPropertyOp60
 70
     1
102
RTVSPropertyOp61
 70
     1
102
RTVSPropertyOp62
 70
     1
  0
XRECORD
  5
7B4
102
{ACAD_REACTORS
330
7B3
102
}
330
7B3
100
AcDbXrecord
280
     1
102
RTVSPost2010Prop28
280
     0
102
RTVSPost2010PropOp28
 70
     1
102
RTVSPost2010Prop29
280
     1
102
RTVSPost2010PropOp29
 70
     1
102
RTVSPost2010Prop30
280
     1
102
RTVSPost2010PropOp30
 70
     1
102
RTVSPost2010Prop31
280
     0
102
RTVSPost2010PropOp31
 70
     1
102
RTVSPost2010Prop32
280
     0
102
RTVSPost2010PropOp32
 70
     1
102
RTVSPost2010Prop33
280
     0
102
RTVSPost2010PropOp33
 70
     1
102
RTVSPost2010Prop34
280
     0
102
RTVSPost2010PropOp34
 70
     1
102
RTVSPost2010Prop35
280
     0
102
RTVSPost2010PropOp35
 70
     1
102
RTVSPost2010Prop36
280
     0
102
RTVSPost2010PropOp36
 70
     1
102
RTVSPost2010Prop37
 90
       50
102
RTVSPost2010PropOp37
 70
     1
102
RTVSPost2010Prop38
140
0.0
102
RTVSPost2010PropOp38
 70
     1
102
RTVSPost2010Prop39
140
1.0
102
RTVSPost2010PropOp39
 70
     1
102
RTVSPost2010Prop40
 90
        0
102
RTVSPost2010PropOp40
 70
     1
102
RTVSPost2010Prop41ColorIndex
 90
       18
102
RTVSPost2010Prop41ColorRGB
 90
        0
102
RTVSPost2010PropOp41
 70
     1
102
RTVSPost2010Prop42
 90
       50
102
RTVSPost2010PropOp42
 70
     1
102
RTVSPost2010Prop43
 90
        3
102
RTVSPost2010PropOp43
 70
     1
102
RTVSPost2010Prop44ColorIndex
 90
        5
102
RTVSPost2010Prop44ColorRGB
 90
      255
102
RTVSPost2010PropOp44
 70
     1
102
RTVSPost2010Prop45
280
     0
102
RTVSPost2010PropOp45
 70
     1
102
RTVSPost2010Prop46
 90
       50
102
RTVSPost2010PropOp46
 70
     1
102
RTVSPost2010Prop47
 90
       50
102
RTVSPost2010PropOp47
 70
     1
102
RTVSPost2010Prop48
 90
       50
102
RTVSPost2010PropOp48
 70
     1
102
RTVSPost2010Prop49
280
     0
102
RTVSPost2010PropOp49
 70
     1
102
RTVSPost2010Prop50
 90
       50
102
RTVSPost2010PropOp50
 70
     1
102
RTVSPost2010Prop51ColorIndex
 90
      256
102
RTVSPost2010Prop51ColorRGB
 90
-16777216
102
RTVSPost2010PropOp51
 70
     0
102
RTVSPost2010Prop52
140
1.0
102
RTVSPost2010PropOp52
 70
     0
102
RTVSPost2010Prop53
 90
        2
102
RTVSPost2010PropOp53
 70
     1
102
RTVSPost2010Prop54
  1
strokes_ogs.tif
102
RTVSPost2010PropOp54
 70
     1
102
RTVSPost2010Prop55
280
     0
102
RTVSPost2010PropOp55
 70
     1
102
RTVSPost2010Prop56
140
1.0
102
RTVSPost2010PropOp56
 70
     1
102
RTVSPost2010Prop57
140
1.0
102
RTVSPost2010PropOp57
 70
     1
102
RTVSPropertyOp0
 70
     1
102
RTVSPropertyOp1
 70
     1
102
RTVSPropertyOp2
 70
     1
102
RTVSPropertyOp3
 70
     1
102
RTVSPropertyOp4
 70
     1
102
RTVSPropertyOp5
 70
     1
102
RTVSPropertyOp6
 70
     1
102
RTVSPropertyOp7
 70
     1
102
RTVSPropertyOp8
 70
     1
102
RTVSPropertyOp9
 70
     1
102
RTVSPropertyOp10
 70
     1
102
RTVSPropertyOp11
 70
     1
102
RTVSPropertyOp12
 70
     1
102
RTVSPropertyOp13
 70
     1
102
RTVSPropertyOp14
 70
     1
102
RTVSPropertyOp15
 70
     1
102
RTVSPropertyOp16
 70
     1
102
RTVSPropertyOp17
 70
     1
102
RTVSPropertyOp18
 70
     1
102
RTVSPropertyOp19
 70
     1
102
RTVSPropertyOp20
 70
     1
102
RTVSPropertyOp21
 70
     1
102
RTVSPropertyOp22
 70
     1
102
RTVSPropertyOp23
 70
     1
102
RTVSPropertyOp24
 70
     1
102
RTVSPropertyOp25
 70
     1
102
RTVSPropertyOp26
 70
     1
102
RTVSPropertyOp27
 70
     1
102
RTVSPropertyOp28
 70
     1
102
RTVSPropertyOp29
 70
     1
102
RTVSPropertyOp30
 70
     1
102
RTVSPropertyOp31
 70
     1
102
RTVSPropertyOp32
 70
     1
102
RTVSPropertyOp33
 70
     1
102
RTVSPropertyOp34
 70
     1
102
RTVSPropertyOp35
 70
     1
102
RTVSPropertyOp36
 70
     1
102
RTVSPropertyOp37
 70
     1
102
RTVSPropertyOp38
 70
     1
102
RTVSPropertyOp39
 70
     1
102
RTVSPropertyOp40
 70
     1
102
RTVSPropertyOp41
 70
     1
102
RTVSPropertyOp42
 70
     1
102
RTVSPropertyOp43
 70
     1
102
RTVSPropertyOp44
 70
     1
102
RTVSPropertyOp45
 70
     1
102
RTVSPropertyOp46
 70
     1
102
RTVSPropertyOp47
 70
     1
102
RTVSPropertyOp48
 70
     1
102
RTVSPropertyOp49
 70
     1
102
RTVSPropertyOp50
 70
     1
102
RTVSPropertyOp51
 70
     0
102
RTVSPropertyOp52
 70
     0
102
RTVSPropertyOp53
 70
     1
102
RTVSPropertyOp54
 70
     1
102
RTVSPropertyOp55
 70
     1
102
RTVSPropertyOp56
 70
     1
102
RTVSPropertyOp57
 70
     1
102
RTVSPropertyOp58
 70
     1
102
RTVSPropertyOp59
 70
     1
102
RTVSPropertyOp60
 70
     1
102
RTVSPropertyOp61
 70
     1
102
RTVSPropertyOp62
 70
     1
  0
XRECORD
  5
7AE
102
{ACAD_REACTORS
330
7AD
102
}
330
7AD
100
AcDbXrecord
280
     1
102
RTVSPost2010Prop28
280
     0
102
RTVSPost2010PropOp28
 70
     1
102
RTVSPost2010Prop29
280
     1
102
RTVSPost2010PropOp29
 70
     1
102
RTVSPost2010Prop30
280
     1
102
RTVSPost2010PropOp30
 70
     1
102
RTVSPost2010Prop31
280
     0
102
RTVSPost2010PropOp31
 70
     1
102
RTVSPost2010Prop32
280
     0
102
RTVSPost2010PropOp32
 70
     1
102
RTVSPost2010Prop33
280
     0
102
RTVSPost2010PropOp33
 70
     1
102
RTVSPost2010Prop34
280
     0
102
RTVSPost2010PropOp34
 70
     1
102
RTVSPost2010Prop35
280
     0
102
RTVSPost2010PropOp35
 70
     1
102
RTVSPost2010Prop36
280
     0
102
RTVSPost2010PropOp36
 70
     1
102
RTVSPost2010Prop37
 90
       50
102
RTVSPost2010PropOp37
 70
     1
102
RTVSPost2010Prop38
140
0.0
102
RTVSPost2010PropOp38
 70
     1
102
RTVSPost2010Prop39
140
1.0
102
RTVSPost2010PropOp39
 70
     1
102
RTVSPost2010Prop40
 90
        0
102
RTVSPost2010PropOp40
 70
     1
102
RTVSPost2010Prop41ColorIndex
 90
       18
102
RTVSPost2010Prop41ColorRGB
 90
        0
102
RTVSPost2010PropOp41
 70
     1
102
RTVSPost2010Prop42
 90
       50
102
RTVSPost2010PropOp42
 70
     1
102
RTVSPost2010Prop43
 90
        3
102
RTVSPost2010PropOp43
 70
     1
102
RTVSPost2010Prop44ColorIndex
 90
        5
102
RTVSPost2010Prop44ColorRGB
 90
      255
102
RTVSPost2010PropOp44
 70
     1
102
RTVSPost2010Prop45
280
     0
102
RTVSPost2010PropOp45
 70
     1
102
RTVSPost2010Prop46
 90
       50
102
RTVSPost2010PropOp46
 70
     1
102
RTVSPost2010Prop47
 90
       50
102
RTVSPost2010PropOp47
 70
     1
102
RTVSPost2010Prop48
 90
       50
102
RTVSPost2010PropOp48
 70
     1
102
RTVSPost2010Prop49
280
     0
102
RTVSPost2010PropOp49
 70
     1
102
RTVSPost2010Prop50
 90
       50
102
RTVSPost2010PropOp50
 70
     1
102
RTVSPost2010Prop51ColorIndex
 90
      256
102
RTVSPost2010Prop51ColorRGB
 90
-16777216
102
RTVSPost2010PropOp51
 70
     0
102
RTVSPost2010Prop52
140
1.0
102
RTVSPost2010PropOp52
 70
     0
102
RTVSPost2010Prop53
 90
        2
102
RTVSPost2010PropOp53
 70
     1
102
RTVSPost2010Prop54
  1
strokes_ogs.tif
102
RTVSPost2010PropOp54
 70
     1
102
RTVSPost2010Prop55
280
     0
102
RTVSPost2010PropOp55
 70
     1
102
RTVSPost2010Prop56
140
1.0
102
RTVSPost2010PropOp56
 70
     1
102
RTVSPost2010Prop57
140
1.0
102
RTVSPost2010PropOp57
 70
     1
102
RTVSPropertyOp0
 70
     1
102
RTVSPropertyOp1
 70
     1
102
RTVSPropertyOp2
 70
     1
102
RTVSPropertyOp3
 70
     1
102
RTVSPropertyOp4
 70
     1
102
RTVSPropertyOp5
 70
     1
102
RTVSPropertyOp6
 70
     1
102
RTVSPropertyOp7
 70
     1
102
RTVSPropertyOp8
 70
     1
102
RTVSPropertyOp9
 70
     1
102
RTVSPropertyOp10
 70
     1
102
RTVSPropertyOp11
 70
     1
102
RTVSPropertyOp12
 70
     1
102
RTVSPropertyOp13
 70
     1
102
RTVSPropertyOp14
 70
     1
102
RTVSPropertyOp15
 70
     1
102
RTVSPropertyOp16
 70
     1
102
RTVSPropertyOp17
 70
     1
102
RTVSPropertyOp18
 70
     1
102
RTVSPropertyOp19
 70
     1
102
RTVSPropertyOp20
 70
     1
102
RTVSPropertyOp21
 70
     1
102
RTVSPropertyOp22
 70
     1
102
RTVSPropertyOp23
 70
     1
102
RTVSPropertyOp24
 70
     1
102
RTVSPropertyOp25
 70
     1
102
RTVSPropertyOp26
 70
     1
102
RTVSPropertyOp27
 70
     1
102
RTVSPropertyOp28
 70
     1
102
RTVSPropertyOp29
 70
     1
102
RTVSPropertyOp30
 70
     1
102
RTVSPropertyOp31
 70
     1
102
RTVSPropertyOp32
 70
     1
102
RTVSPropertyOp33
 70
     1
102
RTVSPropertyOp34
 70
     1
102
RTVSPropertyOp35
 70
     1
102
RTVSPropertyOp36
 70
     1
102
RTVSPropertyOp37
 70
     1
102
RTVSPropertyOp38
 70
     1
102
RTVSPropertyOp39
 70
     1
102
RTVSPropertyOp40
 70
     1
102
RTVSPropertyOp41
 70
     1
102
RTVSPropertyOp42
 70
     1
102
RTVSPropertyOp43
 70
     1
102
RTVSPropertyOp44
 70
     1
102
RTVSPropertyOp45
 70
     1
102
RTVSPropertyOp46
 70
     1
102
RTVSPropertyOp47
 70
     1
102
RTVSPropertyOp48
 70
     1
102
RTVSPropertyOp49
 70
     1
102
RTVSPropertyOp50
 70
     1
102
RTVSPropertyOp51
 70
     0
102
RTVSPropertyOp52
 70
     0
102
RTVSPropertyOp53
 70
     1
102
RTVSPropertyOp54
 70
     1
102
RTVSPropertyOp55
 70
     1
102
RTVSPropertyOp56
 70
     1
102
RTVSPropertyOp57
 70
     1
102
RTVSPropertyOp58
 70
     1
102
RTVSPropertyOp59
 70
     1
102
RTVSPropertyOp60
 70
     1
102
RTVSPropertyOp61
 70
     1
102
RTVSPropertyOp62
 70
     1
  0
XRECORD
  5
7B0
102
{ACAD_REACTORS
330
7AF
102
}
330
7AF
100
AcDbXrecord
280
     1
102
RTVSPost2010Prop28
280
     0
102
RTVSPost2010PropOp28
 70
     1
102
RTVSPost2010Prop29
280
     1
102
RTVSPost2010PropOp29
 70
     1
102
RTVSPost2010Prop30
280
     1
102
RTVSPost2010PropOp30
 70
     1
102
RTVSPost2010Prop31
280
     0
102
RTVSPost2010PropOp31
 70
     1
102
RTVSPost2010Prop32
280
     0
102
RTVSPost2010PropOp32
 70
     1
102
RTVSPost2010Prop33
280
     0
102
RTVSPost2010PropOp33
 70
     1
102
RTVSPost2010Prop34
280
     0
102
RTVSPost2010PropOp34
 70
     1
102
RTVSPost2010Prop35
280
     0
102
RTVSPost2010PropOp35
 70
     1
102
RTVSPost2010Prop36
280
     0
102
RTVSPost2010PropOp36
 70
     1
102
RTVSPost2010Prop37
 90
       50
102
RTVSPost2010PropOp37
 70
     1
102
RTVSPost2010Prop38
140
0.0
102
RTVSPost2010PropOp38
 70
     1
102
RTVSPost2010Prop39
140
1.0
102
RTVSPost2010PropOp39
 70
     1
102
RTVSPost2010Prop40
 90
        0
102
RTVSPost2010PropOp40
 70
     1
102
RTVSPost2010Prop41ColorIndex
 90
       18
102
RTVSPost2010Prop41ColorRGB
 90
        0
102
RTVSPost2010PropOp41
 70
     1
102
RTVSPost2010Prop42
 90
       50
102
RTVSPost2010PropOp42
 70
     1
102
RTVSPost2010Prop43
 90
        3
102
RTVSPost2010PropOp43
 70
     1
102
RTVSPost2010Prop44ColorIndex
 90
        5
102
RTVSPost2010Prop44ColorRGB
 90
      255
102
RTVSPost2010PropOp44
 70
     1
102
RTVSPost2010Prop45
280
     0
102
RTVSPost2010PropOp45
 70
     1
102
RTVSPost2010Prop46
 90
       50
102
RTVSPost2010PropOp46
 70
     1
102
RTVSPost2010Prop47
 90
       50
102
RTVSPost2010PropOp47
 70
     1
102
RTVSPost2010Prop48
 90
       50
102
RTVSPost2010PropOp48
 70
     1
102
RTVSPost2010Prop49
280
     0
102
RTVSPost2010PropOp49
 70
     1
102
RTVSPost2010Prop50
 90
       50
102
RTVSPost2010PropOp50
 70
     1
102
RTVSPost2010Prop51ColorIndex
 90
      256
102
RTVSPost2010Prop51ColorRGB
 90
-16777216
102
RTVSPost2010PropOp51
 70
     0
102
RTVSPost2010Prop52
140
1.0
102
RTVSPost2010PropOp52
 70
     0
102
RTVSPost2010Prop53
 90
        2
102
RTVSPost2010PropOp53
 70
     1
102
RTVSPost2010Prop54
  1
strokes_ogs.tif
102
RTVSPost2010PropOp54
 70
     1
102
RTVSPost2010Prop55
280
     0
102
RTVSPost2010PropOp55
 70
     1
102
RTVSPost2010Prop56
140
1.0
102
RTVSPost2010PropOp56
 70
     1
102
RTVSPost2010Prop57
140
1.0
102
RTVSPost2010PropOp57
 70
     1
102
RTVSPropertyOp0
 70
     1
102
RTVSPropertyOp1
 70
     1
102
RTVSPropertyOp2
 70
     1
102
RTVSPropertyOp3
 70
     1
102
RTVSPropertyOp4
 70
     1
102
RTVSPropertyOp5
 70
     1
102
RTVSPropertyOp6
 70
     1
102
RTVSPropertyOp7
 70
     1
102
RTVSPropertyOp8
 70
     1
102
RTVSPropertyOp9
 70
     1
102
RTVSPropertyOp10
 70
     1
102
RTVSPropertyOp11
 70
     1
102
RTVSPropertyOp12
 70
     1
102
RTVSPropertyOp13
 70
     1
102
RTVSPropertyOp14
 70
     1
102
RTVSPropertyOp15
 70
     1
102
RTVSPropertyOp16
 70
     1
102
RTVSPropertyOp17
 70
     1
102
RTVSPropertyOp18
 70
     1
102
RTVSPropertyOp19
 70
     1
102
RTVSPropertyOp20
 70
     1
102
RTVSPropertyOp21
 70
     1
102
RTVSPropertyOp22
 70
     1
102
RTVSPropertyOp23
 70
     1
102
RTVSPropertyOp24
 70
     1
102
RTVSPropertyOp25
 70
     1
102
RTVSPropertyOp26
 70
     1
102
RTVSPropertyOp27
 70
     1
102
RTVSPropertyOp28
 70
     1
102
RTVSPropertyOp29
 70
     1
102
RTVSPropertyOp30
 70
     1
102
RTVSPropertyOp31
 70
     1
102
RTVSPropertyOp32
 70
     1
102
RTVSPropertyOp33
 70
     1
102
RTVSPropertyOp34
 70
     1
102
RTVSPropertyOp35
 70
     1
102
RTVSPropertyOp36
 70
     1
102
RTVSPropertyOp37
 70
     1
102
RTVSPropertyOp38
 70
     1
102
RTVSPropertyOp39
 70
     1
102
RTVSPropertyOp40
 70
     1
102
RTVSPropertyOp41
 70
     1
102
RTVSPropertyOp42
 70
     1
102
RTVSPropertyOp43
 70
     1
102
RTVSPropertyOp44
 70
     1
102
RTVSPropertyOp45
 70
     1
102
RTVSPropertyOp46
 70
     1
102
RTVSPropertyOp47
 70
     1
102
RTVSPropertyOp48
 70
     1
102
RTVSPropertyOp49
 70
     1
102
RTVSPropertyOp50
 70
     1
102
RTVSPropertyOp51
 70
     0
102
RTVSPropertyOp52
 70
     0
102
RTVSPropertyOp53
 70
     1
102
RTVSPropertyOp54
 70
     1
102
RTVSPropertyOp55
 70
     1
102
RTVSPropertyOp56
 70
     1
102
RTVSPropertyOp57
 70
     1
102
RTVSPropertyOp58
 70
     1
102
RTVSPropertyOp59
 70
     1
102
RTVSPropertyOp60
 70
     1
102
RTVSPropertyOp61
 70
     1
102
RTVSPropertyOp62
 70
     1
  0
XRECORD
  5
7A0
102
{ACAD_REACTORS
330
79F
102
}
330
79F
100
AcDbXrecord
280
     1
102
RTVSPost2010Prop28
280
     0
102
RTVSPost2010PropOp28
 70
     1
102
RTVSPost2010Prop29
280
     1
102
RTVSPost2010PropOp29
 70
     1
102
RTVSPost2010Prop30
280
     1
102
RTVSPost2010PropOp30
 70
     1
102
RTVSPost2010Prop31
280
     0
102
RTVSPost2010PropOp31
 70
     1
102
RTVSPost2010Prop32
280
     0
102
RTVSPost2010PropOp32
 70
     1
102
RTVSPost2010Prop33
280
     0
102
RTVSPost2010PropOp33
 70
     1
102
RTVSPost2010Prop34
280
     0
102
RTVSPost2010PropOp34
 70
     1
102
RTVSPost2010Prop35
280
     0
102
RTVSPost2010PropOp35
 70
     1
102
RTVSPost2010Prop36
280
     0
102
RTVSPost2010PropOp36
 70
     1
102
RTVSPost2010Prop37
 90
       50
102
RTVSPost2010PropOp37
 70
     1
102
RTVSPost2010Prop38
140
0.0
102
RTVSPost2010PropOp38
 70
     1
102
RTVSPost2010Prop39
140
1.0
102
RTVSPost2010PropOp39
 70
     1
102
RTVSPost2010Prop40
 90
        0
102
RTVSPost2010PropOp40
 70
     1
102
RTVSPost2010Prop41ColorIndex
 90
       18
102
RTVSPost2010Prop41ColorRGB
 90
        0
102
RTVSPost2010PropOp41
 70
     1
102
RTVSPost2010Prop42
 90
       50
102
RTVSPost2010PropOp42
 70
     1
102
RTVSPost2010Prop43
 90
        3
102
RTVSPost2010PropOp43
 70
     1
102
RTVSPost2010Prop44ColorIndex
 90
        5
102
RTVSPost2010Prop44ColorRGB
 90
      255
102
RTVSPost2010PropOp44
 70
     1
102
RTVSPost2010Prop45
280
     0
102
RTVSPost2010PropOp45
 70
     1
102
RTVSPost2010Prop46
 90
       50
102
RTVSPost2010PropOp46
 70
     1
102
RTVSPost2010Prop47
 90
       50
102
RTVSPost2010PropOp47
 70
     1
102
RTVSPost2010Prop48
 90
       50
102
RTVSPost2010PropOp48
 70
     1
102
RTVSPost2010Prop49
280
     0
102
RTVSPost2010PropOp49
 70
     1
102
RTVSPost2010Prop50
 90
       50
102
RTVSPost2010PropOp50
 70
     1
102
RTVSPost2010Prop51ColorIndex
 90
      256
102
RTVSPost2010Prop51ColorRGB
 90
-16777216
102
RTVSPost2010PropOp51
 70
     0
102
RTVSPost2010Prop52
140
1.0
102
RTVSPost2010PropOp52
 70
     0
102
RTVSPost2010Prop53
 90
        2
102
RTVSPost2010PropOp53
 70
     1
102
RTVSPost2010Prop54
  1
strokes_ogs.tif
102
RTVSPost2010PropOp54
 70
     1
102
RTVSPost2010Prop55
280
     0
102
RTVSPost2010PropOp55
 70
     1
102
RTVSPost2010Prop56
140
1.0
102
RTVSPost2010PropOp56
 70
     1
102
RTVSPost2010Prop57
140
1.0
102
RTVSPost2010PropOp57
 70
     1
102
RTVSPropertyOp0
 70
     1
102
RTVSPropertyOp1
 70
     1
102
RTVSPropertyOp2
 70
     1
102
RTVSPropertyOp3
 70
     1
102
RTVSPropertyOp4
 70
     1
102
RTVSPropertyOp5
 70
     1
102
RTVSPropertyOp6
 70
     1
102
RTVSPropertyOp7
 70
     1
102
RTVSPropertyOp8
 70
     1
102
RTVSPropertyOp9
 70
     1
102
RTVSPropertyOp10
 70
     1
102
RTVSPropertyOp11
 70
     1
102
RTVSPropertyOp12
 70
     1
102
RTVSPropertyOp13
 70
     1
102
RTVSPropertyOp14
 70
     1
102
RTVSPropertyOp15
 70
     1
102
RTVSPropertyOp16
 70
     1
102
RTVSPropertyOp17
 70
     1
102
RTVSPropertyOp18
 70
     1
102
RTVSPropertyOp19
 70
     1
102
RTVSPropertyOp20
 70
     1
102
RTVSPropertyOp21
 70
     1
102
RTVSPropertyOp22
 70
     1
102
RTVSPropertyOp23
 70
     1
102
RTVSPropertyOp24
 70
     1
102
RTVSPropertyOp25
 70
     1
102
RTVSPropertyOp26
 70
     1
102
RTVSPropertyOp27
 70
     1
102
RTVSPropertyOp28
 70
     1
102
RTVSPropertyOp29
 70
     1
102
RTVSPropertyOp30
 70
     1
102
RTVSPropertyOp31
 70
     1
102
RTVSPropertyOp32
 70
     1
102
RTVSPropertyOp33
 70
     1
102
RTVSPropertyOp34
 70
     1
102
RTVSPropertyOp35
 70
     1
102
RTVSPropertyOp36
 70
     1
102
RTVSPropertyOp37
 70
     1
102
RTVSPropertyOp38
 70
     1
102
RTVSPropertyOp39
 70
     1
102
RTVSPropertyOp40
 70
     1
102
RTVSPropertyOp41
 70
     1
102
RTVSPropertyOp42
 70
     1
102
RTVSPropertyOp43
 70
     1
102
RTVSPropertyOp44
 70
     1
102
RTVSPropertyOp45
 70
     1
102
RTVSPropertyOp46
 70
     1
102
RTVSPropertyOp47
 70
     1
102
RTVSPropertyOp48
 70
     1
102
RTVSPropertyOp49
 70
     1
102
RTVSPropertyOp50
 70
     1
102
RTVSPropertyOp51
 70
     0
102
RTVSPropertyOp52
 70
     0
102
RTVSPropertyOp53
 70
     1
102
RTVSPropertyOp54
 70
     1
102
RTVSPropertyOp55
 70
     1
102
RTVSPropertyOp56
 70
     1
102
RTVSPropertyOp57
 70
     1
102
RTVSPropertyOp58
 70
     1
102
RTVSPropertyOp59
 70
     1
102
RTVSPropertyOp60
 70
     1
102
RTVSPropertyOp61
 70
     1
102
RTVSPropertyOp62
 70
     1
  0
XRECORD
  5
792
102
{ACAD_REACTORS
330
791
102
}
330
791
100
AcDbXrecord
280
     1
102
RTVSPost2010Prop28
280
     0
102
RTVSPost2010PropOp28
 70
     1
102
RTVSPost2010Prop29
280
     1
102
RTVSPost2010PropOp29
 70
     1
102
RTVSPost2010Prop30
280
     1
102
RTVSPost2010PropOp30
 70
     1
102
RTVSPost2010Prop31
280
     0
102
RTVSPost2010PropOp31
 70
     1
102
RTVSPost2010Prop32
280
     0
102
RTVSPost2010PropOp32
 70
     1
102
RTVSPost2010Prop33
280
     0
102
RTVSPost2010PropOp33
 70
     1
102
RTVSPost2010Prop34
280
     0
102
RTVSPost2010PropOp34
 70
     1
102
RTVSPost2010Prop35
280
     0
102
RTVSPost2010PropOp35
 70
     1
102
RTVSPost2010Prop36
280
     0
102
RTVSPost2010PropOp36
 70
     1
102
RTVSPost2010Prop37
 90
       50
102
RTVSPost2010PropOp37
 70
     1
102
RTVSPost2010Prop38
140
0.0
102
RTVSPost2010PropOp38
 70
     1
102
RTVSPost2010Prop39
140
1.0
102
RTVSPost2010PropOp39
 70
     1
102
RTVSPost2010Prop40
 90
        0
102
RTVSPost2010PropOp40
 70
     1
102
RTVSPost2010Prop41ColorIndex
 90
       18
102
RTVSPost2010Prop41ColorRGB
 90
        0
102
RTVSPost2010PropOp41
 70
     1
102
RTVSPost2010Prop42
 90
       50
102
RTVSPost2010PropOp42
 70
     1
102
RTVSPost2010Prop43
 90
        3
102
RTVSPost2010PropOp43
 70
     1
102
RTVSPost2010Prop44ColorIndex
 90
        5
102
RTVSPost2010Prop44ColorRGB
 90
      255
102
RTVSPost2010PropOp44
 70
     1
102
RTVSPost2010Prop45
280
     0
102
RTVSPost2010PropOp45
 70
     1
102
RTVSPost2010Prop46
 90
       50
102
RTVSPost2010PropOp46
 70
     1
102
RTVSPost2010Prop47
 90
       50
102
RTVSPost2010PropOp47
 70
     1
102
RTVSPost2010Prop48
 90
       50
102
RTVSPost2010PropOp48
 70
     1
102
RTVSPost2010Prop49
280
     0
102
RTVSPost2010PropOp49
 70
     1
102
RTVSPost2010Prop50
 90
       50
102
RTVSPost2010PropOp50
 70
     1
102
RTVSPost2010Prop51ColorIndex
 90
      256
102
RTVSPost2010Prop51ColorRGB
 90
-16777216
102
RTVSPost2010PropOp51
 70
     0
102
RTVSPost2010Prop52
140
1.0
102
RTVSPost2010PropOp52
 70
     0
102
RTVSPost2010Prop53
 90
        2
102
RTVSPost2010PropOp53
 70
     1
102
RTVSPost2010Prop54
  1
strokes_ogs.tif
102
RTVSPost2010PropOp54
 70
     1
102
RTVSPost2010Prop55
280
     0
102
RTVSPost2010PropOp55
 70
     1
102
RTVSPost2010Prop56
140
1.0
102
RTVSPost2010PropOp56
 70
     1
102
RTVSPost2010Prop57
140
1.0
102
RTVSPost2010PropOp57
 70
     1
102
RTVSPropertyOp0
 70
     1
102
RTVSPropertyOp1
 70
     1
102
RTVSPropertyOp2
 70
     1
102
RTVSPropertyOp3
 70
     1
102
RTVSPropertyOp4
 70
     1
102
RTVSPropertyOp5
 70
     1
102
RTVSPropertyOp6
 70
     1
102
RTVSPropertyOp7
 70
     1
102
RTVSPropertyOp8
 70
     1
102
RTVSPropertyOp9
 70
     1
102
RTVSPropertyOp10
 70
     1
102
RTVSPropertyOp11
 70
     1
102
RTVSPropertyOp12
 70
     1
102
RTVSPropertyOp13
 70
     1
102
RTVSPropertyOp14
 70
     1
102
RTVSPropertyOp15
 70
     1
102
RTVSPropertyOp16
 70
     1
102
RTVSPropertyOp17
 70
     1
102
RTVSPropertyOp18
 70
     1
102
RTVSPropertyOp19
 70
     1
102
RTVSPropertyOp20
 70
     1
102
RTVSPropertyOp21
 70
     1
102
RTVSPropertyOp22
 70
     1
102
RTVSPropertyOp23
 70
     1
102
RTVSPropertyOp24
 70
     1
102
RTVSPropertyOp25
 70
     1
102
RTVSPropertyOp26
 70
     1
102
RTVSPropertyOp27
 70
     1
102
RTVSPropertyOp28
 70
     1
102
RTVSPropertyOp29
 70
     1
102
RTVSPropertyOp30
 70
     1
102
RTVSPropertyOp31
 70
     1
102
RTVSPropertyOp32
 70
     1
102
RTVSPropertyOp33
 70
     1
102
RTVSPropertyOp34
 70
     1
102
RTVSPropertyOp35
 70
     1
102
RTVSPropertyOp36
 70
     1
102
RTVSPropertyOp37
 70
     1
102
RTVSPropertyOp38
 70
     1
102
RTVSPropertyOp39
 70
     1
102
RTVSPropertyOp40
 70
     1
102
RTVSPropertyOp41
 70
     1
102
RTVSPropertyOp42
 70
     1
102
RTVSPropertyOp43
 70
     1
102
RTVSPropertyOp44
 70
     1
102
RTVSPropertyOp45
 70
     1
102
RTVSPropertyOp46
 70
     1
102
RTVSPropertyOp47
 70
     1
102
RTVSPropertyOp48
 70
     1
102
RTVSPropertyOp49
 70
     1
102
RTVSPropertyOp50
 70
     1
102
RTVSPropertyOp51
 70
     0
102
RTVSPropertyOp52
 70
     0
102
RTVSPropertyOp53
 70
     1
102
RTVSPropertyOp54
 70
     1
102
RTVSPropertyOp55
 70
     1
102
RTVSPropertyOp56
 70
     1
102
RTVSPropertyOp57
 70
     1
102
RTVSPropertyOp58
 70
     1
102
RTVSPropertyOp59
 70
     1
102
RTVSPropertyOp60
 70
     1
102
RTVSPropertyOp61
 70
     1
102
RTVSPropertyOp62
 70
     1
  0
XRECORD
  5
7B2
102
{ACAD_REACTORS
330
7B1
102
}
330
7B1
100
AcDbXrecord
280
     1
102
RTVSPost2010Prop28
280
     0
102
RTVSPost2010PropOp28
 70
     1
102
RTVSPost2010Prop29
280
     1
102
RTVSPost2010PropOp29
 70
     1
102
RTVSPost2010Prop30
280
     1
102
RTVSPost2010PropOp30
 70
     1
102
RTVSPost2010Prop31
280
     0
102
RTVSPost2010PropOp31
 70
     1
102
RTVSPost2010Prop32
280
     0
102
RTVSPost2010PropOp32
 70
     1
102
RTVSPost2010Prop33
280
     0
102
RTVSPost2010PropOp33
 70
     1
102
RTVSPost2010Prop34
280
     0
102
RTVSPost2010PropOp34
 70
     1
102
RTVSPost2010Prop35
280
     0
102
RTVSPost2010PropOp35
 70
     1
102
RTVSPost2010Prop36
280
     0
102
RTVSPost2010PropOp36
 70
     1
102
RTVSPost2010Prop37
 90
       50
102
RTVSPost2010PropOp37
 70
     1
102
RTVSPost2010Prop38
140
0.0
102
RTVSPost2010PropOp38
 70
     1
102
RTVSPost2010Prop39
140
1.0
102
RTVSPost2010PropOp39
 70
     1
102
RTVSPost2010Prop40
 90
        0
102
RTVSPost2010PropOp40
 70
     1
102
RTVSPost2010Prop41ColorIndex
 90
       18
102
RTVSPost2010Prop41ColorRGB
 90
        0
102
RTVSPost2010PropOp41
 70
     1
102
RTVSPost2010Prop42
 90
       50
102
RTVSPost2010PropOp42
 70
     1
102
RTVSPost2010Prop43
 90
        3
102
RTVSPost2010PropOp43
 70
     1
102
RTVSPost2010Prop44ColorIndex
 90
        5
102
RTVSPost2010Prop44ColorRGB
 90
      255
102
RTVSPost2010PropOp44
 70
     1
102
RTVSPost2010Prop45
280
     0
102
RTVSPost2010PropOp45
 70
     1
102
RTVSPost2010Prop46
 90
       50
102
RTVSPost2010PropOp46
 70
     1
102
RTVSPost2010Prop47
 90
       50
102
RTVSPost2010PropOp47
 70
     1
102
RTVSPost2010Prop48
 90
       50
102
RTVSPost2010PropOp48
 70
     1
102
RTVSPost2010Prop49
280
     0
102
RTVSPost2010PropOp49
 70
     1
102
RTVSPost2010Prop50
 90
       50
102
RTVSPost2010PropOp50
 70
     1
102
RTVSPost2010Prop51ColorIndex
 90
      256
102
RTVSPost2010Prop51ColorRGB
 90
-16777216
102
RTVSPost2010PropOp51
 70
     0
102
RTVSPost2010Prop52
140
1.0
102
RTVSPost2010PropOp52
 70
     0
102
RTVSPost2010Prop53
 90
        2
102
RTVSPost2010PropOp53
 70
     1
102
RTVSPost2010Prop54
  1
strokes_ogs.tif
102
RTVSPost2010PropOp54
 70
     1
102
RTVSPost2010Prop55
280
     0
102
RTVSPost2010PropOp55
 70
     1
102
RTVSPost2010Prop56
140
1.0
102
RTVSPost2010PropOp56
 70
     1
102
RTVSPost2010Prop57
140
1.0
102
RTVSPost2010PropOp57
 70
     1
102
RTVSPropertyOp0
 70
     1
102
RTVSPropertyOp1
 70
     1
102
RTVSPropertyOp2
 70
     1
102
RTVSPropertyOp3
 70
     1
102
RTVSPropertyOp4
 70
     1
102
RTVSPropertyOp5
 70
     1
102
RTVSPropertyOp6
 70
     1
102
RTVSPropertyOp7
 70
     1
102
RTVSPropertyOp8
 70
     1
102
RTVSPropertyOp9
 70
     1
102
RTVSPropertyOp10
 70
     1
102
RTVSPropertyOp11
 70
     1
102
RTVSPropertyOp12
 70
     1
102
RTVSPropertyOp13
 70
     1
102
RTVSPropertyOp14
 70
     1
102
RTVSPropertyOp15
 70
     1
102
RTVSPropertyOp16
 70
     1
102
RTVSPropertyOp17
 70
     1
102
RTVSPropertyOp18
 70
     1
102
RTVSPropertyOp19
 70
     1
102
RTVSPropertyOp20
 70
     1
102
RTVSPropertyOp21
 70
     1
102
RTVSPropertyOp22
 70
     1
102
RTVSPropertyOp23
 70
     1
102
RTVSPropertyOp24
 70
     1
102
RTVSPropertyOp25
 70
     1
102
RTVSPropertyOp26
 70
     1
102
RTVSPropertyOp27
 70
     1
102
RTVSPropertyOp28
 70
     1
102
RTVSPropertyOp29
 70
     1
102
RTVSPropertyOp30
 70
     1
102
RTVSPropertyOp31
 70
     1
102
RTVSPropertyOp32
 70
     1
102
RTVSPropertyOp33
 70
     1
102
RTVSPropertyOp34
 70
     1
102
RTVSPropertyOp35
 70
     1
102
RTVSPropertyOp36
 70
     1
102
RTVSPropertyOp37
 70
     1
102
RTVSPropertyOp38
 70
     1
102
RTVSPropertyOp39
 70
     1
102
RTVSPropertyOp40
 70
     1
102
RTVSPropertyOp41
 70
     1
102
RTVSPropertyOp42
 70
     1
102
RTVSPropertyOp43
 70
     1
102
RTVSPropertyOp44
 70
     1
102
RTVSPropertyOp45
 70
     1
102
RTVSPropertyOp46
 70
     1
102
RTVSPropertyOp47
 70
     1
102
RTVSPropertyOp48
 70
     1
102
RTVSPropertyOp49
 70
     1
102
RTVSPropertyOp50
 70
     1
102
RTVSPropertyOp51
 70
     0
102
RTVSPropertyOp52
 70
     0
102
RTVSPropertyOp53
 70
     1
102
RTVSPropertyOp54
 70
     1
102
RTVSPropertyOp55
 70
     1
102
RTVSPropertyOp56
 70
     1
102
RTVSPropertyOp57
 70
     1
102
RTVSPropertyOp58
 70
     1
102
RTVSPropertyOp59
 70
     1
102
RTVSPropertyOp60
 70
     1
102
RTVSPropertyOp61
 70
     1
102
RTVSPropertyOp62
 70
     1
  0
ENDSEC
  0
EOF
